osu file format v9

[General]
AudioFilename: aiii.mp3
AudioLeadIn: 0
PreviewTime: -1
Countdown: 0
SampleSet: Soft
StackLeniency: 0.6
Mode: 0
LetterboxInBreaks: 1

[Editor]
DistanceSpacing: 1
BeatDivisor: 4
GridSize: 8

[Metadata]
Title:LOVE&JOY
Artist:Yuki Kimura
Creator:mooai
Version:Easy
Source:
Tags:gowww kimura yuki

[Difficulty]
HPDrainRate:1
CircleSize:3
OverallDifficulty:2
ApproachRate:2
SliderMultiplier:0.700000005960464
SliderTickRate:1

[Events]
//Background and Video events
0,0,"bg.jpg"
//Break Periods
//Storyboard Layer 0 (Background)
//Storyboard Layer 1 (Fail)
//Storyboard Layer 2 (Pass)
//Storyboard Layer 3 (Foreground)
//Storyboard Sound Samples
//Background Colour Transformations
3,100,163,162,255

[TimingPoints]
13270,346.820809248555,4,2,1,80,1,0
18732,-100,4,1,1,40,0,0
21506,-100,4,1,1,50,0,0
22200,-100,4,1,1,60,0,0
22894,-100,4,1,1,69,0,0
23587,-100,4,2,1,95,0,0
24281,-100,4,1,1,80,0,1
32952,-100,4,2,1,95,0,1
33298,-100,4,1,1,80,0,1
33645,-100,4,2,1,95,0,1
33992,-100,4,1,1,80,0,1
34339,-100,4,2,1,95,0,1
35379,-100,4,1,1,80,0,1
45437,-100,4,2,1,95,0,1
46478,-100,4,2,1,85,0,0
57576,-100,4,1,1,80,0,0
70061,-100,4,1,1,85,0,0
71449,-100,4,1,1,90,0,0
72142,-100,4,1,1,95,0,0
72836,-100,4,1,1,80,0,0
73183,-100,4,2,1,95,0,0
73530,-100,4,1,1,80,0,0
73876,-100,4,2,1,95,0,0
74223,-100,4,1,1,80,0,0
74570,-100,4,2,1,95,0,0
75611,-100,4,1,1,81,0,1
84281,-100,4,2,1,95,0,1
84628,-100,4,1,1,80,0,1
84975,-100,4,2,1,95,0,1
85322,-100,4,1,1,80,0,1
85668,-100,4,2,1,95,0,1
86709,-100,4,1,1,80,0,1
96420,-100,4,2,1,95,0,0

[Colours]
Combo1 : 255,134,255
Combo2 : 255,153,104

[HitObjects]
128,184,13270,6,0,B|192:120|256:192,1,140.000001192093
256,328,14657,2,0,B|192:264|264:200,1,140.000001192093
392,184,16044,2,0,B|328:248|264:176,1,140.000001192093
256,40,17431,2,0,B|320:104|248:168,1,140.000001192093
152,256,18819,5,0
256,352,19512,1,0
360,256,20206,1,0
256,168,20900,1,0
256,304,21593,5,0
256,160,22287,1,0
192,288,22980,2,0,B|264:344|320:280,1,140.000001192093,0|4
320,144,24368,5,0
256,120,24715,1,0
192,144,25061,1,8
208,280,25755,2,0,B|256:376|304:280,1,140.000001192093,0|8
368,160,27142,6,0,B|312:96,1,70.0000005960464,0|8
280,160,27836,2,0,B|224:96,1,70.0000005960464,0|8
192,160,28530,2,0,B|136:96,2,70.0000005960464,0|8|8
184,296,29917,5,0
328,296,30611,1,4
256,176,31304,1,0
256,320,31998,1,4
208,192,32691,2,0,B|136:192,1,70.0000005960464,0|4
168,256,33385,2,0,B|240:256,1,70.0000005960464,0|4
296,216,34079,5,0
360,240,34426,1,4
336,304,34772,2,0,B|264:304,1,70.0000005960464,4|4
200,280,35466,1,4
144,240,35813,1,0
96,192,36160,1,8
232,232,36853,6,0,B|304:264|368:208,1,140.000001192093,0|8
464,120,38241,1,0
328,120,38934,1,8
400,240,39628,2,0,B|416:288|360:296,2,70.0000005960464,0|8|8
296,144,41015,6,0,B|352:200,1,70.0000005960464,0|2
304,248,41709,2,0,B|248:304,1,70.0000005960464,0|2
200,256,42402,2,0,B|144:200,1,70.0000005960464,0|2
192,152,43096,2,0,B|248:96,1,70.0000005960464,0|2
296,144,43790,5,4
200,248,44483,1,4
328,304,45177,1,4
392,336,45524,2,0,B|464:368,2,70.0000005960464,4|4|4
424,272,46564,6,0,B|464:200,1,70.0000005960464,0|2
464,144,47258,2,0,B|464:72,1,70.0000005960464,0|2
392,72,47952,1,0
392,144,48298,1,2
320,144,48645,2,0,B|240:144,1,70.0000005960464,0|2
176,144,49339,2,0,B|96:144,1,70.0000005960464,0|2
104,216,50033,2,0,B|104:296,1,70.0000005960464,0|2
104,360,50726,1,0
176,360,51073,1,2
248,360,51420,2,0,B|248:280,1,70.0000005960464,0|4
248,216,52113,6,0,B|248:144,1,70.0000005960464,0|2
320,144,52807,1,0
392,144,53154,1,2
392,216,53501,2,0,B|392:288,1,70.0000005960464,0|2
392,360,54194,1,0
320,360,54541,1,2
248,360,54888,6,0,B|248:288,1,70.0000005960464,0|2
176,288,55582,2,0,B|176:216,1,70.0000005960464,0|2
248,216,56275,2,0,B|248:144,3,70.0000005960464,4|4|4|4
184,112,57663,5,0
88,216,58356,1,8
192,304,59050,2,0,B|264:360|328:296,1,140.000001192093,0|8
400,200,60437,5,0
288,120,61131,1,8
200,224,61824,2,0,B|224:304|320:296,2,140.000001192093,0|0|0
240,88,63905,5,8
336,192,64599,2,0,B|392:248,2,70.0000005960464,0|0|8
240,288,65986,1,0
136,192,66680,1,8
240,96,67374,2,0,B|296:40,2,70.0000005960464,0|8|8
200,152,68414,1,8
192,224,68761,1,4
328,224,69454,6,0,B|400:224,1,70.0000005960464,2|0
400,152,70148,1,4
256,152,70842,2,0,B|176:152,1,70.0000005960464,2|0
184,224,71535,1,4
328,224,72229,1,4
400,104,72923,6,0,B|384:88|328:88,1,70.0000005960464,0|4
264,88,73616,2,0,B|224:80|192:104,1,70.0000005960464,0|4
160,160,74310,2,0,B|120:216,2,70.0000005960464,0|4|4
288,224,75697,5,4
240,280,76044,1,0
176,312,76391,1,8
176,168,77085,2,0,B|176:96,2,70.0000005960464,0|0|8
320,168,78472,6,0,B|392:168,1,70.0000005960464,0|8
392,240,79165,2,0,B|392:312,1,70.0000005960464,0|8
320,312,79859,2,0,B|248:312,2,70.0000005960464,0|8|8
320,168,81246,5,0
232,56,81940,1,4
184,184,82634,1,0
280,288,83327,1,4
384,200,84021,6,0,B|440:152,1,70.0000005960464,0|4
384,104,84715,2,0,B|328:152,1,70.0000005960464,0|4
280,104,85408,1,0
232,160,85755,1,4
232,232,86102,2,0,B|232:304,2,70.0000005960464,4|4|4
160,232,87142,1,0
88,232,87489,1,8
168,120,88183,6,0,B|240:64|304:128,1,140.000001192093,0|8
400,208,89570,1,0
304,312,90264,1,8
216,208,90957,2,0,B|168:152,2,70.0000005960464,0|8|8
360,208,92345,6,0,B|440:208,1,70.0000005960464,0|2
432,136,93038,2,0,B|432:64,1,70.0000005960464,0|2
360,64,93732,2,0,B|288:64,1,70.0000005960464,0|2
288,136,94426,2,0,B|288:208,1,70.0000005960464,0|2
288,280,95119,1,4
144,280,95813,1,4
256,192,96506,12,4,97894
