osu file format v14

[General]
AudioFilename: Sword-Art-Online-OST---Swordland-Theme.mp3
AudioLeadIn: 0
PreviewTime: 20652
Countdown: 0
SampleSet: Normal
StackLeniency: 0.7
Mode: 1
LetterboxInBreaks: 0
WidescreenStoryboard: 0

[Editor]
DistanceSpacing: 0.9
BeatDivisor: 4
GridSize: 32
TimelineZoom: 1.4

[Metadata]
Title:Swordland
TitleUnicode:Swordland
Artist:Yuki Kajiura
ArtistUnicode:梶浦 由記
Creator:_andreamtr
Version:Kantan
Source:Sword Art Online II
Tags:Sword Art Online, Gun Gale Online, SAO, GGO, OST, Theme, Battle, Anime, Instrumental
BeatmapID:533168
BeatmapSetID:229071

[Difficulty]
HPDrainRate:4
CircleSize:5
OverallDifficulty:3
ApproachRate:2
SliderMultiplier:1.4
SliderTickRate:1

[Events]
//Background and Video events
0,0,"293614.jpg",0,0
//Break Periods
//Storyboard Layer 0 (Background)
//Storyboard Layer 1 (Fail)
//Storyboard Layer 2 (Pass)
//Storyboard Layer 3 (Foreground)
//Storyboard Sound Samples

[TimingPoints]
2283,461.538461538462,4,1,0,100,1,0
50283,-100,4,1,0,100,0,1
83513,-100,4,1,0,100,0,0

[HitObjects]
256,192,2283,5,0,0:0:0:0:
256,192,3206,1,0,0:0:0:0:
256,192,4129,1,0,0:0:0:0:
256,192,5975,1,0,0:0:0:0:
256,192,6667,1,2,0:0:0:0:
256,192,7821,1,2,0:0:0:0:
256,192,8744,1,0,0:0:0:0:
256,192,9205,1,0,0:0:0:0:
256,192,9667,1,2,0:0:0:0:
256,192,10359,1,0,0:0:0:0:
256,192,11513,1,0,0:0:0:0:
256,192,12206,1,0,0:0:0:0:
256,192,13359,1,6,0:0:0:0:
256,192,14052,1,0,0:0:0:0:
256,192,15206,1,2,0:0:0:0:
256,192,16129,1,0,0:0:0:0:
256,192,16590,1,0,0:0:0:0:
256,192,17052,1,2,0:0:0:0:
256,192,17744,1,0,0:0:0:0:
256,192,18898,1,0,0:0:0:0:
256,192,19590,5,0,0:0:0:0:
256,192,20744,5,6,0:0:0:0:
256,192,21667,1,0,0:0:0:0:
256,192,22590,1,2,0:0:0:0:
256,192,23398,1,2,0:0:0:0:
256,192,23859,1,2,0:0:0:0:
256,192,24436,1,4,0:0:0:0:
256,192,25475,1,2,0:0:0:0:
256,192,26283,1,4,0:0:0:0:
256,192,27552,1,2,0:0:0:0:
256,192,28129,1,2,0:0:0:0:
256,192,28706,1,2,0:0:0:0:
256,192,29283,1,2,0:0:0:0:
256,192,29975,1,0,0:0:0:0:
256,192,30898,2,0,L|320:128,2,70,0|0|0,0:0|0:0|0:0,0:0:0:0:
192,160,31821,1,0,0:0:0:0:
256,192,32744,1,0,0:0:0:0:
256,192,33667,1,2,0:0:0:0:
256,192,34590,1,0,0:0:0:0:
256,192,35052,1,2,0:0:0:0:
256,192,35513,1,2,0:0:0:0:
256,192,37359,1,0,0:0:0:0:
256,192,38283,1,0,0:0:0:0:
256,192,39206,1,4,0:0:0:0:
256,192,40359,1,0,0:0:0:0:
256,192,41052,1,6,0:0:0:0:
256,192,42206,1,2,0:0:0:0:
256,192,42898,1,0,0:0:0:0:
256,192,43821,1,0,0:0:0:0:
256,192,44744,1,0,0:0:0:0:
256,192,45667,1,2,0:0:0:0:
256,192,46590,1,4,0:0:0:0:
256,192,47513,1,0,0:0:0:0:
256,192,48436,1,2,0:0:0:0:
256,192,50283,1,2,0:0:0:0:
256,192,50744,1,2,0:0:0:0:
256,192,51206,1,2,0:0:0:0:
256,192,52129,1,0,0:0:0:0:
256,192,52821,1,0,0:0:0:0:
256,192,53513,1,0,0:0:0:0:
256,192,53975,1,2,0:0:0:0:
256,192,54898,1,2,0:0:0:0:
256,192,55821,1,0,0:0:0:0:
256,192,56513,1,0,0:0:0:0:
256,192,57206,1,0,0:0:0:0:
256,192,57667,1,0,0:0:0:0:
256,192,58590,1,0,0:0:0:0:
256,192,59513,1,2,0:0:0:0:
256,192,60898,1,0,0:0:0:0:
256,192,61359,2,0,L|384:128,2,140
256,192,63667,1,6,0:0:0:0:
256,192,64590,1,0,0:0:0:0:
256,192,65052,1,4,0:0:0:0:
256,192,65975,1,2,0:0:0:0:
256,192,67359,1,0,0:0:0:0:
256,192,67821,1,0,0:0:0:0:
256,192,68744,1,0,0:0:0:0:
256,192,69436,1,2,0:0:0:0:
256,192,70590,1,2,0:0:0:0:
256,192,72436,1,0,0:0:0:0:
256,192,73359,1,0,0:0:0:0:
256,192,74283,1,0,0:0:0:0:
256,192,75206,1,2,0:0:0:0:
256,192,75667,1,0,0:0:0:0:
256,192,76129,1,2,0:0:0:0:
256,192,77052,1,0,0:0:0:0:
256,192,77975,1,0,0:0:0:0:
256,192,78898,1,0,0:0:0:0:
256,192,79821,2,0,L|480:160,2,210
256,192,81667,2,0,L|64:64,2,210
256,192,83513,1,4,0:0:0:0:
