osu file format v14

[General]
AudioFilename: Yuki Kajiura - Swordland (GoDnEzZ Dubstep Remix)_soundcloud_157781566.mp3
AudioLeadIn: 0
PreviewTime: 77198
Countdown: 0
SampleSet: Normal
StackLeniency: 0.7
Mode: 0
LetterboxInBreaks: 1
WidescreenStoryboard: 1

[Editor]
DistanceSpacing: 0.9
BeatDivisor: 4
GridSize: 4
TimelineZoom: 1.6

[Metadata]
Title:Swordland (GoDnEzZ Dubstep Remix)
TitleUnicode:Swordland (GoDnEzZ Dubstep Remix)
Artist:Yuki Kajiura
ArtistUnicode:Yuki Kajiura
Creator:Hisoka
Version:Normal
Source:Sword Art Online
Tags:Sword Art Online GoDnEzZ Dubstep
BeatmapID:540017
BeatmapSetID:231436

[Difficulty]
HPDrainRate:3
CircleSize:3.5
OverallDifficulty:4
ApproachRate:4
SliderMultiplier:1
SliderTickRate:1

[Events]
//Background and Video events
0,0,"sword-art-online-kirito-1920x1080-hd-wallpaper-1920x1080.jpg",0,0
//Break Periods
//Storyboard Layer 0 (Background)
//Storyboard Layer 1 (Fail)
//Storyboard Layer 2 (Pass)
//Storyboard Layer 3 (Foreground)
//Storyboard Sound Samples

[TimingPoints]
1759.09167267071,428.571428571429,4,2,0,48,1,0
18901,-100,4,1,1,48,0,0
46330,-100,4,2,0,48,0,0
58330,-100,4,1,1,58,0,0
60044,-100,4,1,1,65,0,0
70330,-100,4,1,1,75,0,0
79759,-133.333333333333,4,1,1,75,0,0
80616,-100,4,1,1,75,0,0
95187,-133.333333333333,4,1,1,75,0,0
96044,-100,4,1,1,75,0,0
118330,-100,4,1,1,64,0,0
132044,-100,4,2,0,64,0,0
156044,-100,4,1,1,64,0,0
202330,-117.647058823529,4,1,1,64,0,0
214330,-117.647058823529,4,2,0,64,0,0

[HitObjects]
120,108,1761,6,0,P|104:204|168:276,1,200
348,272,3473,2,0,P|412:199|395:104,1,200
224,56,5187,2,0,B|256:84|240:124|240:124|224:164|256:192,1,150
76,328,6901,5,0,0:0:0:0:
256,320,7759,2,0,P|208:296|184:248,1,100
272,232,8616,2,0,P|276:160|220:112,1,150,0|0,0:0|0:0,0:0:0:0:
344,56,9901,1,0,0:0:0:0:
420,100,10330,6,0,L|432:252,1,150
336,344,11616,1,0,0:0:0:0:
336,344,12044,2,0,P|304:260|247:243,2,150,0|0|0,0:0|0:0|0:0,0:0:0:0:
251,329,13759,1,0,0:0:0:0:
72,312,14616,6,0,B|64:288|72:260|72:260|88:240|96:212,1,100
40,144,15473,2,0,P|96:96|164:104,1,100
140,132,16116,2,0,B|216:104|216:56|280:56,1,150
280,144,17187,6,0,L|256:192,2,50,0|0|0,0:0|0:0|0:0,0:0:0:0:
320,124,17830,2,0,P|392:152|416:240,1,150
368,288,18901,6,0,L|272:324,1,100
200,268,19759,2,0,P|168:288|152:328,2,66.6666666666667,0|0|0,0:0|0:0|0:0,0:0:0:0:
144,244,20616,2,0,P|108:208|100:160,1,100
188,168,21473,2,0,L|224:108,1,66.6666666666667
276,84,22044,1,0,0:0:0:0:
304,136,22330,6,0,P|344:168|400:168,2,100,0|0|0,0:0|0:0|0:0,0:0:0:0:
276,84,23473,2,0,P|240:48|200:52,1,83.3333333333333
164,48,24044,6,0,L|132:108,2,66.6666666666667,0|0|0,0:0|0:0|0:0,0:0:0:0:
104,56,24901,1,0,0:0:0:0:
36,116,25330,1,0,0:0:0:0:
44,204,25759,2,0,P|112:224|160:288,1,150
200,304,26616,2,0,P|232:272|244:228,2,66.6666666666667,0|0|0,0:0|0:0|0:0,0:0:0:0:
252,336,27473,6,0,P|352:296|436:220,1,200
420,56,29187,6,0,P|372:84|356:124,1,100
288,68,30044,2,0,P|264:118|274:160,1,100,0|0,0:0|0:0,0:0:0:0:
186,153,30901,2,0,P|195:207|228:236,1,100,0|0,0:0|0:0,0:0:0:0:
149,280,31759,2,0,P|188:319|231:324,1,100,0|0,0:0|0:0,0:0:0:0:
316,300,32616,5,0,0:0:0:0:
404,300,33044,1,0,0:0:0:0:
360,220,33473,1,0,0:0:0:0:
448,220,33901,1,0,0:0:0:0:
404,140,34330,6,0,P|352:68|284:128,1,200
240,88,35473,2,0,P|208:104|168:120,1,66.6666666666667
172,56,36044,6,0,P|72:100|32:180,1,200
92,188,37187,2,0,L|152:156,1,66.6666666666667
200,192,37759,2,0,B|196:244|160:280|160:280|172:316|244:336,1,200
288,296,38901,1,0,0:0:0:0:
340,324,39187,1,0,0:0:0:0:
380,276,39473,5,0,0:0:0:0:
220,192,40330,1,0,0:0:0:0:
380,108,41187,5,0,0:0:0:0:
220,192,42044,1,0,0:0:0:0:
84,76,42901,6,0,L|168:136,1,100
216,60,43759,2,0,L|266:149,1,100
348,116,44616,6,0,L|348:176,1,50
392,180,45044,2,0,L|366:234,1,50
392,264,45473,1,0,0:0:0:0:
436,92,46330,5,0,0:0:0:0:
348,60,46759,1,0,0:0:0:0:
256,56,47187,1,0,0:0:0:0:
164,60,47616,1,0,0:0:0:0:
96,116,48044,5,0,0:0:0:0:
184,148,48473,1,0,0:0:0:0:
276,152,48901,1,0,0:0:0:0:
368,148,49330,1,0,0:0:0:0:
328,228,49759,6,0,P|364:260|412:284,1,100
340,340,50616,2,0,P|292:324|248:340,1,100
176,284,51473,6,0,P|220:261|257:228,1,100
268,140,52330,2,0,P|223:162|186:195,1,100
176,104,53187,5,0,0:0:0:0:
104,156,53616,1,0,0:0:0:0:
92,68,54044,1,0,0:0:0:0:
168,16,54473,1,0,0:0:0:0:
256,40,54901,6,0,P|305:50|356:56,1,100
424,116,55759,2,0,P|372:128|324:132,1,100
360,216,56616,5,0,0:0:0:0:
312,292,57044,1,0,0:0:0:0:
260,216,57473,1,0,0:0:0:0:
212,292,57901,1,0,0:0:0:0:
164,216,58330,6,0,P|124:208|192:140,1,200
356,192,60044,6,0,L|368:138,1,50
323,131,60473,2,0,L|316:77,1,50
270,84,60901,2,0,L|245:35,1,50
204,60,61330,2,0,L|164:22,1,50
132,56,61759,2,0,P|56:104|44:220,1,200
168,336,63473,6,0,L|184:288,1,50
216,320,63901,2,0,L|232:272,1,50,0|0,0:0|0:0,0:0:0:0:
264,304,64330,2,0,L|280:256,1,50
312,288,64759,2,0,L|328:240,1,50,0|0,0:0|0:0,0:0:0:0:
360,268,65187,2,0,B|408:256|452:232|452:232|420:184|424:132,1,200
268,48,66901,6,0,P|280:104|260:144,1,100
188,92,67759,2,0,P|169:137|182:185,1,100
260,232,68616,2,0,P|284:244|204:288,1,200
256,192,70330,12,0,73759,0:0:0:0:
388,96,77187,6,0,P|364:144|368:192,1,100
364,280,78044,2,0,B|356:276|356:276|351:269|351:269|337:271|337:271|329:258|329:258|315:260|315:260|308:248|308:248|293:250|293:250|286:237|286:237|272:239|272:239|261:225|261:225|252:225|252:225|245:222,1,150
272,184,78901,6,0,P|240:140|232:92,1,100
184,48,79759,2,0,B|182:48|182:48|173:48|173:48|179:58|162:62|162:62|148:60|148:60|141:73|141:73|127:71|127:71|119:83|119:83|105:81|105:81|98:94|98:94|83:92|83:92|78:99|78:99|71:102,1,150.000005722046
72,284,81473,1,0,0:0:0:0:
252,268,82330,2,0,P|268:304|320:324,2,75,0|0|0,0:0|0:0|0:0,0:0:0:0:
276,232,83187,2,0,B|324:200|372:212|372:212|400:184|384:152,1,150
384,124,84044,6,0,B|328:108|300:72|300:72|272:108|216:124,1,200
136,84,85330,1,0,0:0:0:0:
144,172,85759,2,0,P|168:224|152:260,1,100
240,240,86616,2,0,B|244:242|244:242|253:242|253:242|264:256|264:256|278:254|278:254|286:266|286:266|300:265|300:265|307:277|307:277|321:275|321:275|329:287|329:287|343:286|343:286|348:293|348:293|356:296,1,150,0|0,0:0|0:0,0:0:0:0:
396,272,87473,6,0,B|405:249|405:249|396:224|396:224|405:201|405:201|396:176,1,100,0|0,0:0|0:0,0:0:0:0:
392,88,88330,2,0,P|340:108|312:148,1,100
256,192,89187,12,0,90901,0:0:0:0:
92,132,91759,6,0,P|140:148|156:192,1,100
420,132,93473,6,0,P|372:148|356:192,1,100
432,240,94330,2,0,L|340:280,1,100
256,276,95187,6,0,P|264:316|292:348,1,75.0000028610231
196,352,96044,2,0,P|172:284|120:228,1,150
132,184,96901,1,0,0:0:0:0:
224,84,97759,6,0,L|256:128,1,50
296,116,98187,2,0,L|311:168,1,50
348,184,98616,2,0,P|356:220|352:260,2,66.6666666666667,0|0|0,0:0|0:0|0:0,0:0:0:0:
408,168,99473,6,0,P|440:208|440:260,1,100
392,332,100330,2,0,L|456:352,2,66.6666666666667,0|0|0,0:0|0:0|0:0,0:0:0:0:
256,192,101187,12,0,102901,0:0:0:0:
