osu file format v14

[General]
AudioFilename: Yuki Kajiura - Swordland (GoDnEzZ Dubstep Remix)_soundcloud_157781566.mp3
AudioLeadIn: 0
PreviewTime: 77198
Countdown: 0
SampleSet: Soft
StackLeniency: 0.7
Mode: 0
LetterboxInBreaks: 1
WidescreenStoryboard: 1

[Editor]
DistanceSpacing: 0.6
BeatDivisor: 4
GridSize: 4
TimelineZoom: 3.699998

[Metadata]
Title:Swordland (GoDnEzZ Dubstep Remix)
TitleUnicode:Swordland (GoDnEzZ Dubstep Remix)
Artist:Yuki Kajiura
ArtistUnicode:Yuki Kajiura
Creator:Hisoka
Version:Insane
Source:Sword Art Online
Tags:Sword Art Online GoDnEzZ Dubstep
BeatmapID:537821
BeatmapSetID:231436

[Difficulty]
HPDrainRate:6
CircleSize:4
OverallDifficulty:7
ApproachRate:8
SliderMultiplier:1.9
SliderTickRate:1

[Events]
//Background and Video events
0,0,"sword-art-online-kirito-1920x1080-hd-wallpaper-1920x1080.jpg",0,0
//Break Periods
2,73959,76437
2,159673,186151
//Storyboard Layer 0 (Background)
//Storyboard Layer 1 (Fail)
//Storyboard Layer 2 (Pass)
//Storyboard Layer 3 (Foreground)
//Storyboard Sound Samples

[TimingPoints]
1759.09167267071,428.571428571429,4,2,0,48,1,0
12044,-133.333333333333,4,2,0,48,0,0
14616,-100,4,2,0,48,0,0
18901,-100,4,1,1,48,0,0
46330,-100,4,2,0,48,0,0
58330,-100,4,1,1,58,0,0
60044,-100,4,1,1,65,0,0
70330,-100,4,1,1,75,0,0
78044,-133.333333333333,4,1,1,75,0,0
78901,-100,4,1,1,75,0,0
79759,-133.333333333333,4,1,1,75,0,0
80616,-100,4,1,1,75,0,0
84044,-133.333333333333,4,1,1,75,0,0
84901,-80,4,1,1,75,0,0
85759,-100,4,1,1,75,0,0
86616,-133.333333333333,4,1,1,75,0,0
87473,-100,4,1,1,75,0,0
95187,-133.333333333333,4,1,1,75,0,0
96044,-100,4,1,1,75,0,0
97759,-133.333333333333,4,1,1,75,0,0
118330,-100,4,1,1,64,0,0
132044,-100,4,2,0,64,0,0
156044,-100,4,1,1,64,0,0
202330,-117.647058823529,4,1,1,64,0,0
214330,-117.647058823529,4,2,0,64,0,0

[HitObjects]
256,192,270,12,0,1448,2:0:0:0:
100,88,1760,6,0,P|112:140|160:168,1,95,12|0,0:0|0:0,0:0:0:0:
156,168,2080,1,2,0:0:0:0:
160,292,2294,1,0,0:0:0:0:
172,284,2401,1,2,0:0:0:0:
288,240,2616,2,0,P|332:244|372:284,1,95
456,188,3044,2,0,P|412:184|372:144,1,95
288,64,3473,6,0,L|200:116,1,95,12|0,0:0|0:0,0:0:0:0:
200,124,3794,1,2,0:0:0:0:
312,180,4009,1,0,0:0:0:0:
300,188,4116,1,2,0:0:0:0:
192,248,4330,2,0,P|157:216|111:211,1,95
208,288,4759,2,0,P|242:319|296:324,1,95
412,312,5187,6,0,B|432:272|432:272|432:220,1,95,12|0,0:0|0:0,0:0:0:0:
444,212,5509,1,2,0:0:0:0:
324,244,5723,1,0,0:0:0:0:
336,236,5830,1,2,0:0:0:0:
292,120,6044,2,0,L|240:144,2,47.5,0|2|0,0:0|0:0|0:0,0:0:0:0:
112,180,6473,2,0,P|124:132|104:80,2,95,2|0|12,0:0|0:0|0:0,0:0:0:0:
124,304,7116,5,0,0:0:0:0:
136,296,7223,1,2,0:0:0:0:
260,288,7437,5,0,0:0:0:0:
248,296,7544,1,2,0:0:0:0:
308,188,7759,6,0,L|368:192,2,47.5,0|2|0,0:0|0:0|0:0,0:0:0:0:
256,72,8187,2,0,P|212:96|192:144,1,95,2|0,0:0|0:0,0:0:0:0:
88,196,8616,6,0,P|104:248|168:288,1,95,4|0,0:0|0:0,0:0:0:0:
172,240,8937,1,0,0:0:0:0:
224,240,9044,2,0,P|219:286|240:329,1,95
260,216,9473,2,0,P|305:228|338:262,1,95,2|0,0:0|0:0,0:0:0:0:
303,139,9901,2,0,P|348:127|393:140,1,95
304,48,10330,6,0,P|248:52|204:68,1,95,4|0,0:0|0:0,0:0:0:0:
164,72,10651,1,0,0:0:0:0:
112,64,10759,2,0,P|140:112|152:156,1,95
64,236,11187,2,0,L|148:280,1,95,2|0,0:0|0:0,0:0:0:0:
272,296,11616,2,0,L|188:340,1,95
220,232,12044,6,0,P|224:155|303:122,1,142.500005435944,4|0,0:0|0:0,0:0:0:0:
356,84,12687,2,0,B|340:108|371:164|287:197|287:197|304:228|344:252,1,213.750008153916,2|0,0:0|0:0,0:0:0:0:
256,192,13759,12,0,14401,0:0:0:0:
104,100,14616,6,0,P|148:120|176:168,1,95,2|0,0:0|0:0,0:0:0:0:
260,240,15044,2,0,P|247:193|268:138,1,95,2|0,0:0|0:0,0:0:0:0:
372,184,15473,2,0,B|426:238|424:289|424:289|387:301|378:342,1,190,12|0,0:0|0:0,0:0:0:0:
209,306,16116,2,0,B|179:286|175:242|175:242|118:235|51:286|72:296,1,190,12|0,0:0|0:0,0:0:0:0:
260,240,16759,2,0,P|293:270|308:318,1,95,2|0,0:0|0:0,0:0:0:0:
328,112,17187,6,0,P|316:191|392:167,1,190,12|0,0:0|0:0,0:0:0:0:
280,52,17830,2,0,P|414:72|459:199,1,285,12|2,0:0|0:0,0:0:0:0:
120,100,18901,6,0,P|164:116|192:164,1,95
348,56,19330,2,0,P|332:100|284:128,1,95,8|0,0:0|0:0,0:0:0:0:
388,284,19759,2,0,P|344:268|308:208,1,95
288,184,20044,2,0,P|244:208|236:316,1,158.333333333333,8|0,0:0|0:0,0:0:0:0:
188,156,20616,6,0,L|94:171,1,95
264,128,21044,1,8,0:0:0:0:
176,72,21259,1,0,0:0:0:0:
344,140,21473,2,0,P|396:148|424:208,1,95
484,172,21759,2,0,P|464:244|380:296,1,158.333333333333,8|0,0:0|0:0,0:0:0:0:
204,288,22330,6,0,P|228:320|284:328,2,63.3333333333333,0|0|0,0:0|0:0|0:0,0:0:0:0:
140,276,22759,2,0,P|136:228|104:176,1,95,8|0,0:0|0:0,0:0:0:0:
168,76,23187,1,0,0:0:0:0:
252,184,23401,1,0,0:0:0:0:
248,172,23509,1,8,0:0:0:0:
288,56,23723,1,0,0:0:0:0:
292,68,23831,1,8,0:0:0:0:
416,72,24044,6,0,P|400:124|408:192,1,95,0|0,0:0|0:0,0:0:0:0:
448,216,24366,1,0,0:0:0:0:
452,252,24473,2,0,L|356:300,1,95,8|0,0:0|0:0,0:0:0:0:
256,240,24901,5,0,0:0:0:0:
80,64,25330,6,0,P|132:124|144:200,1,142.5,8|0,0:0|0:0,0:0:0:0:
144,216,25759,6,0,P|156:260|204:312,1,95
292,236,26187,2,0,P|329:261|400:256,1,95,8|0,0:0|0:0,0:0:0:0:
291,140,26616,2,0,P|330:113|377:111,1,95
451,105,26937,2,0,P|427:167|354:184,1,142.5,8|0,0:0|0:0,0:0:0:0:
156,60,27473,6,0,L|188:152,1,95
124,292,27901,2,0,L|216:260,1,95,8|0,0:0|0:0,0:0:0:0:
356,324,28330,2,0,L|324:232,1,95
394,216,28651,2,0,P|335:162|261:202,1,142.5,8|0,0:0|0:0,0:0:0:0:
164,140,29187,6,0,P|136:180|152:240,1,95
188,280,29616,2,0,P|216:240|200:180,1,95,8|0,0:0|0:0,0:0:0:0:
348,140,30044,2,0,P|376:180|360:240,1,95
324,280,30473,2,0,P|296:240|312:180,1,95,8|0,0:0|0:0,0:0:0:0:
256,40,30901,6,0,L|256:140,1,95
256,316,31330,1,8,0:0:0:0:
256,316,31437,1,0,0:0:0:0:
256,316,31544,1,0,0:0:0:0:
80,204,31759,2,0,L|104:300,1,95
428,208,32187,1,8,0:0:0:0:
180,96,32616,5,4,0:0:0:0:
372,308,33044,1,12,0:0:0:0:
332,96,33473,1,4,0:0:0:0:
140,308,33901,1,12,0:0:0:0:
192,212,34330,6,0,P|236:216|284:252,1,95
396,208,34759,2,0,P|352:204|304:168,1,95,8|0,0:0|0:0,0:0:0:0:
220,92,35187,2,0,P|160:100|124:136,1,95
96,104,35473,2,0,P|96:200|80:264,1,158.333333333333,8|0,0:0|0:0,0:0:0:0:
196,308,36044,6,0,P|248:296|292:304,1,95
288,302,36473,1,8,0:0:0:0:
368,208,36687,1,0,0:0:0:0:
368,208,36794,1,0,0:0:0:0:
368,208,36901,2,0,P|316:220|272:212,1,95
252,180,37187,2,0,P|296:136|320:40,1,158.333333333333,8|0,0:0|0:0,0:0:0:0:
204,88,37759,6,0,P|140:92|88:148,2,126.666666666667,0|8|0,0:0|0:0|0:0,0:0:0:0:
184,203,38616,1,0,0:0:0:0:
396,296,39044,1,8,0:0:0:0:
388,132,39330,1,0,0:0:0:0:
380,84,39473,6,0,P|328:84|280:108,1,95
132,300,40330,6,0,P|184:300|232:276,1,95
364,316,41187,6,0,P|364:264|340:216,1,95
148,68,42044,6,0,P|148:120|172:168,1,95
256,192,42901,6,0,P|304:194|340:169,1,95
256,192,43330,2,0,P|258:143|233:107,1,95,8|0,0:0|0:0,0:0:0:0:
256,192,43759,2,0,P|207:189|171:214,1,95
256,192,44187,2,0,P|253:240|278:276,1,95,8|0,0:0|0:0,0:0:0:0:
332,216,44616,5,0,0:0:0:0:
232,268,44830,1,0,0:0:0:0:
180,168,45044,1,8,0:0:0:0:
280,116,45259,1,0,0:0:0:0:
412,128,45473,5,0,0:0:0:0:
432,156,45580,1,0,0:0:0:0:
439,191,45687,1,0,0:0:0:0:
432,226,45794,1,0,0:0:0:0:
412,255,45901,1,8,0:0:0:0:
80,76,46330,6,0,P|144:96|168:164,1,142.5,2|0,0:0|0:0,0:0:0:0:
92,152,46759,2,0,P|114:216|180:238,1,142.5,2|0,0:0|0:0,0:0:0:0:
244,191,47187,2,0,P|266:126|342:110,1,142.5,2|0,0:0|0:0,0:0:0:0:
320,183,47616,2,0,P|342:247|408:269,1,142.5,2|0,0:0|0:0,0:0:0:0:
424,344,48044,2,0,B|344:344|344:344|288:304,1,142.5,2|0,0:0|0:0,0:0:0:0:
88,344,48473,2,0,B|168:344|168:344|224:304,1,142.5,2|0,0:0|0:0,0:0:0:0:
256,240,48901,2,0,P|308:208|384:224,1,142.5,2|0,0:0|0:0,0:0:0:0:
256,240,49330,2,0,P|204:208|128:224,1,142.5,2|0,0:0|0:0,0:0:0:0:
40,120,49759,6,0,L|64:264,1,142.5,2|0,0:0|0:0,0:0:0:0:
136,188,50187,2,0,L|159:47,1,142.5,2|0,0:0|0:0,0:0:0:0:
244,120,50616,2,0,L|268:264,1,142.5,2|0,0:0|0:0,0:0:0:0:
340,188,51044,2,0,L|363:47,1,142.5,2|0,0:0|0:0,0:0:0:0:
456,124,51473,2,0,P|436:200|468:256,1,142.5,2|0,0:0|0:0,0:0:0:0:
468,364,51901,2,0,P|401:344|366:284,1,142.5,2|0,0:0|0:0,0:0:0:0:
268,260,52330,2,0,P|248:300|204:332,1,95,2|0,0:0|0:0,0:0:0:0:
148,324,52651,1,0,0:0:0:0:
144,296,52759,2,0,P|116:252|68:236,1,95,2|0,0:0|0:0,0:0:0:0:
336,72,53187,6,0,P|340:172|404:192,1,142.5,2|0,0:0|0:0,0:0:0:0:
376,272,53616,2,0,P|276:276|256:340,1,142.5,2|0,0:0|0:0,0:0:0:0:
176,312,54044,2,0,P|172:212|108:192,1,142.5,2|0,0:0|0:0,0:0:0:0:
136,112,54473,2,0,P|236:108|256:44,1,142.5,2|0,0:0|0:0,0:0:0:0:
184,56,54901,2,0,P|84:60|64:124,1,142.5,2|0,0:0|0:0,0:0:0:0:
120,264,55330,2,0,P|124:364|188:384,1,142.5,2|0,0:0|0:0,0:0:0:0:
328,328,55759,2,0,P|428:324|448:260,1,142.5,2|0,0:0|0:0,0:0:0:0:
392,120,56187,2,0,P|388:20|324:0,1,142.5,2|0,0:0|0:0,0:0:0:0:
184,177,56616,6,0,P|141:221|196:248,1,142.5,2|0,0:0|0:0,0:0:0:0:
270,120,57044,2,0,P|226:77|200:132,1,142.5,2|0,0:0|0:0,0:0:0:0:
327,206,57473,2,0,P|370:162|316:136,1,142.5,2|0,0:0|0:0,0:0:0:0:
241,263,57901,2,0,P|285:306|312:252,1,142.5,2|0,0:0|0:0,0:0:0:0:
176,316,58330,2,0,L|72:336,1,95,0|0,0:0|0:0,0:0:0:0:
336,68,58759,2,0,L|440:48,1,95,8|0,0:0|0:0,0:0:0:0:
380,272,59187,2,0,L|400:376,1,95,0|0,0:0|0:0,0:0:0:0:
132,112,59616,2,0,L|112:8,1,95,8|0,0:0|0:0,0:0:0:0:
84,300,60044,6,0,P|90:252|132:213,1,95
248,208,60473,1,8,0:0:0:0:
156,284,60687,1,0,0:0:0:0:
276,276,60901,1,0,0:0:0:0:
157,284,61115,1,0,0:0:0:0:
255,346,61330,1,8,0:0:0:0:
156,284,61544,1,0,0:0:0:0:
428,84,61759,6,0,P|422:132|380:171,1,95
264,176,62188,1,8,0:0:0:0:
356,100,62402,1,0,0:0:0:0:
236,108,62616,1,0,0:0:0:0:
355,100,62830,1,0,0:0:0:0:
257,38,63045,1,8,0:0:0:0:
356,100,63259,1,0,0:0:0:0:
72,128,63473,6,0,L|104:228,1,95
200,144,63901,1,8,0:0:0:0:
224,264,64116,1,0,0:0:0:0:
100,220,64330,1,0,0:0:0:0:
200,144,64544,1,0,0:0:0:0:
224,264,64759,1,8,0:0:0:0:
100,220,64973,1,0,0:0:0:0:
440,256,65187,6,0,L|408:156,1,95
312,240,65615,1,8,0:0:0:0:
288,120,65830,1,0,0:0:0:0:
412,164,66044,1,0,0:0:0:0:
312,240,66258,1,0,0:0:0:0:
288,120,66473,1,8,0:0:0:0:
412,164,66687,1,0,0:0:0:0:
112,348,66901,6,0,L|204:324,1,95
148,288,67330,2,0,L|56:264,1,95,8|0,0:0|0:0,0:0:0:0:
116,224,67759,2,0,L|208:200,1,95
152,164,68188,2,0,L|60:140,1,95,8|0,0:0|0:0,0:0:0:0:
400,36,68616,6,0,L|308:60,1,95
364,96,69045,2,0,L|456:120,1,95,8|0,0:0|0:0,0:0:0:0:
396,160,69474,2,0,L|304:184,1,95
360,220,69901,2,0,L|452:244,1,95,8|0,0:0|0:0,0:0:0:0:
252,336,70330,5,0,0:0:0:0:
260,308,70437,1,0,0:0:0:0:
252,280,70544,1,0,0:0:0:0:
260,252,70651,1,0,0:0:0:0:
252,224,70759,1,8,0:0:0:0:
260,196,70866,1,0,0:0:0:0:
252,168,70973,1,0,0:0:0:0:
260,140,71080,1,0,0:0:0:0:
228,112,71187,6,0,L|176:88,3,47.5,0|0|0|0,0:0|0:0|0:0|0:0,0:0:0:0:
284,112,71616,2,0,L|336:88,3,47.5,8|0|0|0,0:0|0:0|0:0|0:0,0:0:0:0:
256,52,72044,5,0,0:0:0:0:
352,192,72366,1,8,0:0:0:0:
160,192,72687,1,0,0:0:0:0:
256,332,72901,5,0,0:0:0:0:
352,192,73223,1,8,0:0:0:0:
160,192,73544,1,0,0:0:0:0:
256,192,73759,1,0,0:0:0:0:
56,208,77187,6,0,P|104:284|220:304,1,190,4|0,0:0|0:0,0:0:0:0:
256,136,78044,2,0,B|232:160|248:188|248:188|232:224|180:220|180:220|171:236|171:236|132:232|120:172,1,213.750008153916,8|0,0:0|0:0,0:0:0:0:
164,116,78901,6,0,P|210:54|334:93,1,190,0|0,0:0|0:0,0:0:0:0:
476,232,79759,2,0,B|473:221|473:221|462:223|462:223|459:213|459:213|448:216|448:216|445:205|445:205|434:208|434:208|431:197|431:197|420:200|420:200|417:189|417:189|406:192|406:192|403:181|403:181|392:184|392:184|389:173|389:173|379:176|379:176|376:165|376:165|365:168|365:168|362:157|362:157|351:160|351:160|348:149,1,213.750008153916,8|0,0:0|0:0,0:0:0:0:
352,248,80616,6,0,B|320:296|320:296|288:260|288:260|264:296|264:296|228:272|228:272|196:304|171:310|136:304|120:284|120:256|124:228|164:216,1,380,0|8,0:0|0:0,0:0:0:0:
320,68,81901,2,0,P|312:128|348:160,1,95,8|0,0:0|0:0,0:0:0:0:
448,192,82330,6,0,B|444:228|460:256|460:256|456:292|420:324,2,142.5,0|0|0,0:0|0:0|0:0,0:0:0:0:
448,192,83187,1,8,0:0:0:0:
124,216,83616,2,0,P|164:192|212:200,1,95
180,272,84044,6,0,B|184:288|212:296|212:296|216:312|224:320|224:320|252:312|280:324|280:324|280:308|304:288|328:312|328:312|368:308,1,213.750008153916
387,215,84901,2,0,P|352:168|336:112,1,118.75,8|0,0:0|0:0,0:0:0:0:
176,112,85330,2,0,P|159:168|124:215,1,118.75
48,316,85759,6,0,P|192:312|332:280,1,285
452,268,86616,2,0,B|453:256|453:256|442:254|442:254|444:243|444:243|432:241|432:241|434:230|434:230|424:229|424:229|426:218|426:218|414:216|414:216|416:205|416:205|405:203|405:203|406:192|406:192|395:190|395:190|397:179|397:179|386:177|386:177|387:166|387:166|376:164|376:164|377:154|377:154|367:151|367:151|368:140,1,213.750008153916,8|0,0:0|0:0,0:0:0:0:
256,92,87473,6,0,L|276:44,1,47.5
164,148,87687,2,0,L|208:112,1,47.5
56,120,87901,2,0,B|56:160|92:172|92:172|120:236|192:220,1,190,0|8,0:0|0:0,0:0:0:0:
336,244,88759,1,0,0:0:0:0:
236,320,88973,1,0,0:0:0:0:
164,220,89187,5,0,0:0:0:0:
236,320,89401,1,0,0:0:0:0:
256,196,89616,1,0,0:0:0:0:
236,320,89830,1,0,0:0:0:0:
336,244,90044,2,0,B|348:228|372:224|372:224|392:240|416:224|416:224|432:216|432:216|416:196|432:180|432:180|448:168|444:120,1,190,8|0,0:0|0:0,0:0:0:0:
136,80,90901,6,0,P|96:112|88:156,1,95
160,148,91330,2,0,P|149:193|111:221,1,95
260,144,91759,1,8,0:0:0:0:
216,260,91973,1,0,0:0:0:0:
264,212,92187,2,0,P|312:240|340:288,1,95
208,96,92616,6,0,B|287:28|385:81|385:81|335:178|424:251,1,380,0|8,0:0|0:0,0:0:0:0:
428,272,93580,1,0,0:0:0:0:
424,300,93687,1,0,0:0:0:0:
408,324,93794,1,0,0:0:0:0:
388,336,93901,2,0,P|340:316|292:332,1,95
204,248,94330,6,0,P|200:272|136:184,1,285
200,156,95187,2,0,B|232:132|236:104|236:104|256:108|256:108|268:96|268:96|280:100|280:100|296:96|296:96|308:96|308:96|344:120|372:168,1,213.750008153916,8|0,0:0|0:0,0:0:0:0:
400,260,96044,6,0,P|337:301|280:336,2,142.5,0|0|0,0:0|0:0|0:0,0:0:0:0:
276,244,96901,2,0,B|235:228|205:260|205:260|191:268|174:268|174:268|155:284|149:296|99:288,1,190,8|0,0:0|0:0,0:0:0:0:
80,104,97651,1,0,0:0:0:0:
88,124,97759,6,0,B|104:160|104:160|124:164|160:188,1,71.2500027179719
204,112,98187,2,0,P|224:148|224:184,1,71.2500027179719
320,180,98616,2,0,B|315:220|292:244|292:244|312:280|356:304,1,142.500005435944,8|0,0:0|0:0,0:0:0:0:
156,320,99473,6,0,P|120:264|128:188,1,142.500005435944
320,180,100330,2,0,P|252:184|216:156,2,106.875004076958,8|0|0,0:0|0:0|0:0,0:0:0:0:
283,109,101187,6,0,P|396:64|428:160,1,249.375009512902
357,131,102044,2,0,P|404:232|502:179,1,249.375009512902,8|0,0:0|0:0,0:0:0:0:
256,192,102901,12,0,104616,0:0:0:0:
256,64,105044,5,8,0:0:0:0:
256,320,105473,1,0,0:0:0:0:
338,93,105901,1,8,0:0:0:0:
173,290,106330,1,0,0:0:0:0:
382,169,106759,1,8,0:0:0:0:
129,214,107188,1,0,0:0:0:0:
366,255,107616,1,8,0:0:0:0:
256,192,108044,5,0,0:0:0:0:
104,192,108473,1,8,0:0:0:0:
256,192,108901,1,0,0:0:0:0:
256,40,109330,1,8,0:0:0:0:
256,192,109759,1,0,0:0:0:0:
408,192,110188,1,8,0:0:0:0:
256,192,110616,1,0,0:0:0:0:
256,344,111045,1,8,0:0:0:0:
32,300,111473,5,0,0:0:0:0:
96,84,111901,1,8,0:0:0:0:
160,300,112330,1,0,0:0:0:0:
224,84,112758,1,8,0:0:0:0:
288,300,113187,1,0,0:0:0:0:
352,84,113615,1,8,0:0:0:0:
416,300,114044,1,0,0:0:0:0:
480,84,114472,1,8,0:0:0:0:
304,192,114901,5,0,0:0:0:0:
312,192,115330,1,8,0:0:0:0:
320,192,115759,1,0,0:0:0:0:
328,192,116187,1,8,0:0:0:0:
208,192,116616,5,0,0:0:0:0:
200,192,117045,1,8,0:0:0:0:
192,192,117474,1,0,0:0:0:0:
184,192,117902,1,8,0:0:0:0:
276,344,118330,6,0,P|292:312|344:284,1,95
388,272,118651,1,0,0:0:0:0:
436,268,118759,2,0,P|416:225|376:201,1,95,8|0,0:0|0:0,0:0:0:0:
332,188,119080,1,0,0:0:0:0:
284,184,119187,2,0,P|300:152|352:124,1,95
396,108,119508,1,0,0:0:0:0:
444,108,119616,2,0,P|424:65|384:41,1,95,8|0,0:0|0:0,0:0:0:0:
340,36,119937,1,0,0:0:0:0:
292,56,120044,6,0,L|216:120,1,95
192,72,120473,2,0,L|150:162,1,95,8|0,0:0|0:0,0:0:0:0:
108,128,120901,2,0,L|108:227,1,95
55,214,121330,2,0,L|97:303,1,95,8|0,0:0|0:0,0:0:0:0:
216,344,121759,6,0,P|221:298|264:264,1,95
244,232,122080,1,0,0:0:0:0:
204,232,122187,2,0,P|231:195|285:186,1,95,8|0,0:0|0:0,0:0:0:0:
280,148,122508,1,0,0:0:0:0:
249,129,122616,2,0,P|291:111|342:130,1,95
360,96,122937,1,0,0:0:0:0:
338,61,123044,2,0,P|383:66|418:108,1,95,8|0,0:0|0:0,0:0:0:0:
440,172,123365,1,0,0:0:0:0:
460,184,123473,6,0,P|476:228|448:284,1,95
404,228,123901,2,0,P|388:272|404:315,1,95,8|0,0:0|0:0,0:0:0:0:
332,340,124330,2,0,L|236:328,1,95
288,272,124759,2,0,B|202:231|202:231|216:200|204:168,1,142.5,8|0,0:0|0:0,0:0:0:0:
188,164,125187,6,0,P|200:116|252:92,1,95
256,52,125509,1,0,0:0:0:0:
284,20,125616,2,0,P|332:56|336:104,1,95,8|0,0:0|0:0,0:0:0:0:
412,68,126044,2,0,P|404:127|347:167,1,95
437,205,126473,2,0,P|381:228|327:203,1,95,8|0,0:0|0:0,0:0:0:0:
292,328,126901,6,0,L|384:308,1,95
180,260,127330,2,0,L|280:264,1,95,8|0,0:0|0:0,0:0:0:0:
100,156,127759,2,0,L|196:196,1,95
64,36,128187,2,0,L|136:100,1,95,8|0,0:0|0:0,0:0:0:0:
328,64,128616,6,0,P|340:120|380:148,1,95
144,240,129044,2,0,P|177:273|184:320,1,95,8|0,0:0|0:0,0:0:0:0:
183,63,129473,2,0,P|177:110|144:143,1,95
367,240,129901,2,0,P|334:273|328:320,1,95,8|0,0:0|0:0,0:0:0:0:
256,192,130330,12,0,131616,0:0:0:0:
140,220,132044,6,0,P|156:152|220:124,1,142.5,2|0,0:0|0:0,0:0:0:0:
216,204,132473,2,0,P|200:272|136:300,1,142.5,2|0,0:0|0:0,0:0:0:0:
296,204,132901,2,0,P|312:272|376:300,1,142.5,2|0,0:0|0:0,0:0:0:0:
372,220,133330,2,0,P|356:152|292:124,1,142.5,2|0,0:0|0:0,0:0:0:0:
288,48,133759,6,0,P|428:120|428:288,1,332.5,2|0,0:0|0:0,0:0:0:0:
432,279,134616,1,8,0:0:0:0:
72,336,135473,6,0,B|100:268|100:268|72:204,1,142.5,2|0,0:0|0:0,0:0:0:0:
164,112,135901,2,0,B|136:180|136:180|164:244,1,142.5,2|0,0:0|0:0,0:0:0:0:
220,336,136330,2,0,B|248:268|248:268|220:204,1,142.5,2|0,0:0|0:0,0:0:0:0:
312,112,136758,2,0,B|284:180|284:180|312:244,1,142.5,2|0,0:0|0:0,0:0:0:0:
372,348,137187,2,0,B|456:264|456:264|456:120|456:120|372:36,1,380,2|0,0:0|0:0,0:0:0:0:
420,254,138901,6,0,B|384:213|340:204|340:204|323:172|331:140,1,142.5,2|0,0:0|0:0,0:0:0:0:
400,148,139330,2,0,B|405:135|388:102|388:102|344:93|309:53,1,142.5,2|0,0:0|0:0,0:0:0:0:
204,52,139759,2,0,B|168:92|124:101|124:101|107:133|113:146,1,142.5,2|0,0:0|0:0,0:0:0:0:
183,158,140187,2,0,B|188:170|171:203|171:203|127:212|92:252,1,142.5,2|0,0:0|0:0,0:0:0:0:
144,316,140616,2,0,B|232:276|252:208|252:208|256:176|256:176|260:208|260:208|280:276|368:316,1,380,2|0,0:0|0:0,0:0:0:0:
96,60,142330,6,0,B|132:52|168:60|168:60|204:68|240:60,1,142.5,2|0,0:0|0:0,0:0:0:0:
276,112,142759,2,0,B|309:119|345:111|345:111|381:103|417:111,1,142.5,2|0,0:0|0:0,0:0:0:0:
417,183,143187,2,0,B|381:175|345:183|345:183|309:191|276:184,1,142.5,2|0,0:0|0:0,0:0:0:0:
237,236,143616,2,0,B|204:244|168:236|168:236|132:228|96:236,1,142.5,2|0,0:0|0:0,0:0:0:0:
256,192,144044,12,8,144901,0:0:0:0:
372,76,145759,6,0,P|424:100|436:160,2,95,2|0|2,0:0|0:0|0:0,0:0:0:0:
152,192,146616,1,2,0:0:0:0:
348,236,147901,6,0,P|364:236|316:300,1,190,0|2,0:0|0:0,0:0:0:0:
140,272,149187,6,0,L|48:248,2,95,2|0|2,0:0|0:0|0:0,0:0:0:0:
372,192,150044,1,2,0:0:0:0:
256,64,150687,5,0,0:0:0:0:
172,52,150901,2,0,P|192:124|268:148,2,142.5,0|0|0,0:0|0:0|0:0,0:0:0:0:
256,64,151759,1,2,0:0:0:0:
468,192,152187,1,0,0:0:0:0:
256,320,152509,1,0,0:0:0:0:
256,320,152616,6,0,P|208:320|160:296,2,95,0|0|0,0:0|0:0|0:0,0:0:0:0:
380,296,153473,1,2,0:0:0:0:
24,192,154116,1,0,0:0:0:0:
396,192,154759,1,0,0:0:0:0:
148,192,155187,1,2,0:0:0:0:
404,92,156044,6,0,P|372:128|364:184,1,95
292,152,156473,2,0,P|292:200|323:247,1,95,0|0,0:0|0:0,0:0:0:0:
108,92,156901,2,0,P|140:128|148:184,1,95
220,152,157330,2,0,P|219:200|188:247,1,95
76,300,157759,5,0,0:0:0:0:
192,344,157973,1,0,0:0:0:0:
316,344,158187,1,8,0:0:0:0:
432,300,158401,1,0,0:0:0:0:
424,176,158616,5,0,0:0:0:0:
408,200,158723,1,0,0:0:0:0:
380,212,158830,1,0,0:0:0:0:
352,204,158937,1,0,0:0:0:0:
340,180,159044,1,8,0:0:0:0:
256,192,159473,5,0,0:0:0:0:
160,280,186901,6,0,P|176:224|288:200,1,142.5
248,276,187330,2,0,L|340:244,1,95,8|0,0:0|0:0,0:0:0:0:
392,132,187759,1,0,0:0:0:0:
280,40,187973,1,0,0:0:0:0:
276,68,188080,1,0,0:0:0:0:
260,92,188187,2,0,P|200:104|160:132,1,95,8|0,0:0|0:0,0:0:0:0:
88,192,188616,6,0,L|52:152,1,47.5
76,272,188830,2,0,L|32:248,1,47.5
120,340,189044,2,0,P|156:312|216:304,1,95,8|0,0:0|0:0,0:0:0:0:
324,328,189473,1,0,0:0:0:0:
300,316,189580,1,0,0:0:0:0:
376,216,189794,1,0,0:0:0:0:
348,216,189901,1,8,0:0:0:0:
324,92,190116,1,0,0:0:0:0:
208,48,190330,6,0,B|184:80|184:96|184:96|164:120|132:112,1,95
64,136,190651,1,0,0:0:0:0:
64,160,190759,2,0,P|92:196|136:224,1,95,8|0,0:0|0:0,0:0:0:0:
232,148,191187,2,0,L|232:200,1,47.5,0|0,0:0|0:0,0:0:0:0:
296,232,191401,2,0,L|264:272,1,47.5
200,304,191616,2,0,P|232:336|292:336,1,95,8|0,0:0|0:0,0:0:0:0:
400,320,192044,6,0,L|440:232,1,95
400,64,192473,2,0,L|440:152,1,95,8|0,0:0|0:0,0:0:0:0:
328,100,192901,2,0,P|252:120|184:88,1,142.5
136,76,193330,2,0,P|96:124|92:164,1,95,8|0,0:0|0:0,0:0:0:0:
192,312,193759,5,0,0:0:0:0:
88,244,193973,1,0,0:0:0:0:
112,228,194080,1,0,0:0:0:0:
120,200,194187,2,0,P|168:188|216:216,1,95,8|0,0:0|0:0,0:0:0:0:
316,264,194616,1,0,0:0:0:0:
340,248,194723,1,0,0:0:0:0:
352,220,194830,1,0,0:0:0:0:
348,192,194937,1,0,0:0:0:0:
328,172,195044,2,0,P|348:132|404:116,1,95,8|0,0:0|0:0,0:0:0:0:
300,48,195473,6,0,P|256:72|232:112,1,95
176,264,195901,2,0,P|220:240|244:200,1,95,8|0,0:0|0:0,0:0:0:0:
404,120,196330,2,0,P|360:144|336:184,1,95
280,336,196758,2,0,P|324:312|348:272,1,95,8|0,0:0|0:0,0:0:0:0:
200,340,197187,6,0,P|152:324|104:336,1,95
124,276,197509,1,0,0:0:0:0:
116,256,197616,2,0,L|48:184,1,95,8|0,0:0|0:0,0:0:0:0:
124,88,198044,2,0,P|176:72|224:100,1,95
168,144,198366,1,0,0:0:0:0:
184,168,198473,2,0,L|240:244,1,95,8|0,0:0|0:0,0:0:0:0:
256,192,198901,12,8,199759,0:0:0:0:
188,192,200616,5,0,0:0:0:0:
324,192,201044,1,8,0:0:0:0:
160,104,201473,1,0,0:0:0:0:
352,280,201901,1,8,0:0:0:0:
320,52,202330,2,0,B|252:96|256:192|256:192|260:288|192:332,1,323.000006160736
60,192,204044,6,0,B|124:120|176:156|256:128,1,201.87500385046,0|0,0:0|0:0,0:0:0:0:
228,112,204687,2,0,P|272:88|324:116,1,80.750001540184,8|0,0:0|0:0,0:0:0:0:
428,328,205544,1,0,0:0:0:0:
420,332,205759,5,0,0:0:0:0:
324,240,206080,1,8,0:0:0:0:
188,240,206401,1,0,0:0:0:0:
256,340,206616,2,0,L|256:176,1,161.500003080368,0|8,0:0|0:0,0:0:0:0:
388,92,207366,1,0,0:0:0:0:
372,76,207473,6,0,L|292:72,1,80.750001540184
280,92,207794,1,0,0:0:0:0:
212,76,207901,2,0,P|204:120|176:152,1,80.750001540184,8|0,0:0|0:0,0:0:0:0:
140,88,208330,2,0,P|116:119|110:159,1,80.750001540184
104,280,208759,2,0,L|160:216,1,80.750001540184,8|0,0:0|0:0,0:0:0:0:
216,308,209187,6,0,B|276:348|372:316|372:316|344:232|436:164,1,323.000006160736,0|8,0:0|0:0,0:0:0:0:
136,120,210901,6,0,B|160:160|196:164|196:164|212:200|200:272,1,161.500003080368,0|8,0:0|0:0,0:0:0:0:
376,120,211759,2,0,B|352:160|316:164|316:164|300:200|312:272,1,161.500003080368,0|8,0:0|0:0,0:0:0:0:
256,44,212616,1,0,0:0:0:0:
296,304,213044,1,8,0:0:0:0:
280,324,213151,1,0,0:0:0:0:
256,332,213259,1,0,0:0:0:0:
232,328,213366,1,0,0:0:0:0:
220,308,213473,1,8,0:0:0:0:
256,140,214330,5,6,0:0:0:0:
