osu file format v14

[General]
AudioFilename: Sis puella magica!-.mp3
AudioLeadIn: 0
PreviewTime: 67901
Countdown: 1
SampleSet: Soft
StackLeniency: 0.7
Mode: 0
LetterboxInBreaks: 1
WidescreenStoryboard: 1

[Editor]
DistanceSpacing: 1
BeatDivisor: 4
GridSize: 4
TimelineZoom: 1.3

[Metadata]
Title:Sis puella magica!
TitleUnicode:Sis puella magica!
Artist:Yuki Kajiura
ArtistUnicode:梶浦由記
Creator:Ayakura Mei
Version:Insane
Source:Puella Magi Madoka Magica
Tags:
BeatmapID:530519
BeatmapSetID:227698

[Difficulty]
HPDrainRate:5
CircleSize:3.6
OverallDifficulty:8
ApproachRate:9
SliderMultiplier:2.2
SliderTickRate:1

[Events]
//Background and Video events
0,0,"madoka.jpg",0,0
//Break Periods
2,45195,48855
//Storyboard Layer 0 (Background)
//Storyboard Layer 1 (Fail)
//Storyboard Layer 2 (Pass)
//Storyboard Layer 3 (Foreground)
//Storyboard Sound Samples
Sample,3239,0,"sis pue.ogg",45
Sample,31211,0,"soft-hitclap.wav",35
Sample,119184,0,"soft-hitwhistle3.wav",35
Sample,119387,0,"soft-hitwhistle3.wav",35
Sample,123036,0,"soft-hitwhistle3.wav",35
Sample,125468,0,"soft-hitwhistle3.wav",35
Sample,127900,0,"soft-hitwhistle3.wav",35
Sample,130333,0,"soft-hitwhistle3.wav",35

[TimingPoints]
3239,1621.62162162162,4,2,1,35,1,0
16820,-100,4,2,1,5,0,0
17022,-100,4,2,1,35,0,0
30603,-100,4,2,1,27,0,0
31009,-100,4,2,1,19,0,0
31414,-100,4,2,1,35,0,0
49455,405.405405405405,4,2,2,35,1,0
49657,-100,4,2,1,35,0,0
50569,-83.3333333333333,4,2,1,35,0,0
51076,-100,4,2,1,35,0,0
53002,-83.3333333333333,4,2,1,35,0,0
53509,-100,4,2,1,35,0,0
54218,-200,4,2,2,35,0,0
54421,-200,4,2,1,35,0,0
55130,-100,4,2,1,35,0,0
55536,-83.3333333333333,4,2,1,35,0,0
55941,-100,4,2,1,35,0,0
59083,-100,4,2,2,35,0,0
59286,-100,4,2,1,35,0,0
60299,-83.3333333333333,4,2,1,35,0,0
60806,-100,4,2,1,35,0,0
62732,-83.3333333333333,4,2,1,35,0,0
63238,-83.3333333333333,4,2,1,35,0,0
63948,-200,4,2,2,35,0,0
64150,-200,4,2,1,35,0,0
64759,-100,4,2,1,35,0,0
65265,-83.3333333333333,4,2,1,35,0,0
65671,-100,4,2,1,35,0,0
68914,-55.5555555555556,4,2,2,35,0,1
69015,-55.5555555555556,4,2,1,35,0,1
69421,-100,4,2,1,35,0,1
70029,-55.5555555555556,4,2,2,25,0,1
70232,-55.5555555555556,4,2,2,35,0,1
71346,-55.5555555555556,4,2,2,35,0,1
71448,-55.5555555555556,4,2,2,35,0,1
72461,-200,4,2,1,35,0,1
73779,-55.5555555555556,4,2,2,35,0,1
73880,-55.5555555555556,4,2,1,35,0,1
74286,-100,4,2,1,35,0,1
74894,-55.5555555555556,4,2,2,25,0,1
75096,-55.5555555555556,4,2,1,35,0,1
76211,-55.5555555555556,4,2,2,35,0,1
76313,-55.5555555555556,4,2,1,35,0,1
77326,-200,4,2,1,35,0,1
78542,-55.5555555555556,4,2,2,35,0,1
78745,-55.5555555555556,4,2,1,35,0,1
79150,-100,4,2,1,35,0,1
79759,-100,4,2,2,35,0,1
79961,-100,4,2,1,35,0,1
80975,-55.5555555555556,4,2,2,35,0,1
81177,-55.5555555555556,4,2,1,35,0,1
81380,-200,4,2,1,35,0,1
82191,-55.5555555555556,4,2,1,35,0,1
82596,-200,4,2,1,35,0,1
83407,-55.5555555555556,4,2,1,35,0,1
83813,-200,4,2,1,35,0,1
84623,-55.5555555555556,4,2,1,35,0,1
85029,-200,4,2,1,35,0,1
85840,-83.3333333333333,4,2,1,35,0,1
88373,-83.3333333333333,4,2,2,35,0,1
88475,-83.3333333333333,4,2,1,35,0,1
89488,-83.3333333333333,4,2,2,25,0,1
89691,-83.3333333333333,4,2,1,35,0,1
90806,-83.3333333333333,4,2,2,35,0,0
90907,-83.3333333333333,4,2,1,35,0,0
98407,-200,4,2,1,35,0,0
100536,-83.3333333333333,4,2,2,35,0,0
100637,-83.3333333333333,4,2,1,35,0,0
108137,-200,4,2,1,35,0,0
110265,-55.5555555555556,4,2,2,35,0,1
110569,-55.5555555555556,4,2,3,35,0,1
111177,-55.5555555555556,4,2,1,35,0,1
111380,-55.5555555555556,4,2,2,25,0,1
111583,-55.5555555555556,4,2,1,35,0,1
111786,-55.5555555555556,4,2,3,35,0,1
112394,-55.5555555555556,4,2,1,35,0,1
112698,-55.5555555555556,4,2,2,35,0,1
112799,-55.5555555555556,4,2,3,35,0,1
113204,-200,4,2,3,35,0,1
115130,-55.5555555555556,4,2,2,35,0,1
115232,-55.5555555555556,4,2,3,35,0,1
115840,-55.5555555555556,4,2,1,35,0,1
116245,-55.5555555555556,4,2,2,25,0,1
116448,-55.5555555555556,4,2,3,35,0,1
117056,-55.5555555555556,4,2,1,35,0,1
117563,-55.5555555555556,4,2,2,35,0,1
117664,-55.5555555555556,4,2,3,35,0,1
118069,-200,4,2,3,35,0,1
119894,-55.5555555555556,4,2,2,35,0,1
120096,-55.5555555555556,4,2,3,35,0,1
120502,-83.3333333333333,4,2,3,35,0,1
121110,-83.3333333333333,4,2,2,25,0,1
121313,-83.3333333333333,4,2,3,35,0,1
122123,-55.5555555555556,4,2,2,35,0,1
122529,-55.5555555555556,4,2,1,35,0,1
122833,-200,4,2,3,35,0,1
123542,-55.5555555555556,4,2,1,35,0,1
124049,-200,4,2,3,35,0,1
124759,-55.5555555555556,4,2,1,35,0,1
125265,-200,4,2,3,35,0,1
125975,-83.3333333333333,4,2,3,35,0,1
129725,-83.3333333333333,4,2,2,35,0,1
129826,-83.3333333333333,4,2,3,35,0,1
130840,-83.3333333333333,4,2,2,25,0,1
131042,-83.3333333333333,4,2,3,35,0,1
132157,-200,4,2,2,20,0,0
132259,-200,4,2,3,30,0,0
158813,-200,4,2,1,15,0,0

[HitObjects]
432,196,3239,6,0,P|460:192|488:176,1,55,4|2,0:0|0:0,0:0:0:0:
320,172,3847,1,0,0:0:0:0:
216,208,4049,1,0,0:0:0:0:
152,300,4252,1,4,0:0:0:0:
76,220,4455,2,0,P|56:204|24:196,1,55,8|6,0:0|0:0,0:0:0:0:
152,304,5063,1,0,0:0:0:0:
416,268,5266,1,0,0:0:0:0:
104,52,5671,6,0,P|76:44|44:44,1,55,0|6,0:0|0:0,0:0:0:0:
188,132,6279,1,0,0:0:0:0:
296,156,6482,1,4,0:0:0:0:
404,124,6684,1,0,0:0:0:0:
320,208,6887,2,0,P|308:232|304:268,1,55,8|6,0:0|0:0,0:0:0:0:
376,344,7495,1,0,0:0:0:0:
332,80,7698,1,0,0:0:0:0:
68,328,8103,6,0,L|56:296,1,27.5,4|0,0:0|0:0,0:0:0:0:
176,268,8509,2,0,L|172:236,1,27.5,2|0,0:0|0:0,0:0:0:0:
432,240,8914,1,0,0:0:0:0:
328,312,9117,1,4,0:0:0:0:
240,136,9320,2,0,P|236:108|240:76,1,55,8|6,0:0|0:0,0:0:0:0:
496,192,10130,1,0,0:0:0:0:
68,244,10536,5,4,0:0:0:0:
228,360,10738,1,2,0:0:0:0:
336,72,10941,2,0,P|332:44|320:20,1,55,4|0,0:0|0:0,0:0:0:0:
248,216,11549,1,0,0:0:0:0:
448,228,11752,2,0,P|476:224|504:208,1,55,10|2,0:0|0:0,0:0:0:0:
268,128,12563,1,0,0:0:0:0:
72,264,12968,6,0,P|48:256|16:260,1,55,4|2,0:0|0:0,0:0:0:0:
172,320,13576,1,0,0:0:0:0:
288,280,13779,1,0,0:0:0:0:
332,168,13982,1,4,0:0:0:0:
424,92,14184,6,0,P|452:84|488:84,1,55,8|6,0:0|0:0,0:0:0:0:
292,284,14793,1,0,0:0:0:0:
156,56,14995,2,0,P|180:40|208:32,1,55
296,288,15806,5,6,0:0:0:0:
160,224,16009,1,0,0:0:0:0:
300,104,16211,1,6,0:0:0:0:
444,328,16617,2,0,L|452:284,1,41.25,8|0,0:0|0:0,0:0:0:0:
336,288,17022,2,0,L|344:232,1,55,4|2,0:0|0:0,0:0:0:0:
36,284,17833,6,0,L|32:252,1,27.5,4|0,0:0|0:0,0:0:0:0:
160,300,18238,2,0,L|156:336,1,27.5,2|0,0:0|0:0,0:0:0:0:
180,64,18644,1,0,0:0:0:0:
52,116,18847,1,4,0:0:0:0:
168,216,19049,2,0,P|200:224|228:224,1,55,8|6,0:0|0:0,0:0:0:0:
452,164,19860,1,0,0:0:0:0:
256,40,20266,5,4,0:0:0:0:
360,200,20468,1,2,0:0:0:0:
164,332,20671,2,0,P|136:336|104:328,1,55,4|0,0:0|0:0,0:0:0:0:
240,268,21279,1,0,0:0:0:0:
468,312,21482,2,0,P|448:336|424:348,1,55,10|2,0:0|0:0,0:0:0:0:
344,292,22090,1,2,0:0:0:0:
240,268,22293,1,0,0:0:0:0:
136,292,22495,1,2,0:0:0:0:
56,360,22698,6,0,L|44:296,1,55,4|2,0:0|0:0,0:0:0:0:
56,84,23306,2,0,L|52:116,1,27.5,0|0,0:0|0:0,0:0:0:0:
196,120,23711,1,6,0:0:0:0:
344,108,23914,2,0,P|372:100|392:84,1,55,8|6,0:0|0:0,0:0:0:0:
396,76,24725,1,2,0:0:0:0:
44,288,25130,5,2,0:0:0:0:
248,348,25333,1,0,0:0:0:0:
92,136,25536,2,0,P|60:128|36:128,1,55,4|6,0:0|0:0,0:0:0:0:
152,296,26144,1,0,0:0:0:0:
200,64,26347,2,0,P|196:36|180:8,1,55,8|6,0:0|0:0,0:0:0:0:
232,236,26955,2,0,L|268:248,1,27.5
480,192,27360,1,2,0:0:0:0:
316,56,27563,6,0,P|312:84|312:112,1,55,4|2,0:0|0:0,0:0:0:0:
396,300,28171,2,0,L|416:332,1,27.5
264,336,28576,1,6,0:0:0:0:
116,336,28779,2,0,P|88:332|64:320,1,55,8|6,0:0|0:0,0:0:0:0:
60,316,29590,1,2,0:0:0:0:
428,96,29995,5,4,0:0:0:0:
296,56,30198,1,0,0:0:0:0:
444,84,30401,5,6,0:0:0:0:
24,160,30806,1,2,0:0:0:0:
476,288,31211,6,0,P|448:292|416:288,1,55,2|2,0:0|0:0,0:0:0:0:
328,244,31820,1,2,0:0:0:0:
224,244,32022,1,0,0:0:0:0:
132,292,32225,1,2,0:0:0:0:
72,208,32428,6,0,P|56:188|32:168,1,55,4|2,0:0|0:0,0:0:0:0:
28,168,33238,1,0,0:0:0:0:
136,192,33441,1,6,0:0:0:0:
244,172,33644,2,0,P|272:164|296:148,1,55,8|6,0:0|0:0,0:0:0:0:
424,28,34455,1,2,0:0:0:0:
420,24,34860,5,2,0:0:0:0:
296,96,35063,1,0,0:0:0:0:
148,88,35266,2,0,P|120:80|92:60,1,55,4|6,0:0|0:0,0:0:0:0:
152,92,36076,5,10,0:0:0:0:
312,120,36279,1,0,0:0:0:0:
444,212,36482,2,0,P|468:232|488:260,1,55,4|2,0:0|0:0,0:0:0:0:
440,208,37293,5,2,0:0:0:0:
240,232,37496,1,0,0:0:0:0:
68,304,37698,2,0,P|44:316|24:336,1,55,4|6,0:0|0:0,0:0:0:0:
72,308,38509,5,10,0:0:0:0:
228,344,38711,1,0,0:0:0:0:
388,328,38914,2,0,P|416:320|440:304,1,55,4|2,0:0|0:0,0:0:0:0:
392,324,39725,5,0,0:0:0:0:
252,288,39928,1,0,0:0:0:0:
108,288,40130,6,0,P|84:288|52:300,1,55,4|6,0:0|0:0,0:0:0:0:
180,348,40738,1,0,0:0:0:0:
136,136,40941,2,0,P|124:112|104:88,2,55,8|6|0,0:0|0:0|0:0,0:0:0:0:
56,360,42157,5,4,0:0:0:0:
176,240,42360,1,0,0:0:0:0:
48,48,42563,2,0,P|40:76|40:104,1,55,2|0,0:0|0:0,0:0:0:0:
180,236,43171,1,4,0:0:0:0:
416,184,43374,2,0,P|440:176|472:172,1,55,10|6,0:0|0:0,0:0:0:0:
244,320,44184,1,0,0:0:0:0:
60,60,44590,2,0,L|68:28,3,18.3333333333333,0|0|0|0,0:0|0:0|0:0|0:0,0:0:0:0:
48,340,49455,5,4,0:0:0:0:
432,40,49860,5,0,0:0:0:0:
328,200,50063,1,0,0:0:0:0:
504,152,50265,1,0,0:0:0:0:
124,64,50671,6,0,P|84:44|100:136,1,197.99999395752
200,124,51076,2,0,B|260:116|296:76|296:76|280:128|288:196,1,220
48,340,51887,5,0,0:0:0:0:
456,288,52292,5,0,0:0:0:0:
492,136,52495,1,0,0:0:0:0:
416,304,52698,1,0,0:0:0:0:
96,136,53103,2,0,B|144:156|176:196|176:196|172:144|192:96,1,197.99999395752
260,24,53509,2,0,P|300:8|276:108,1,220
48,340,54319,6,0,L|52:276,1,55,4|0,0:0|0:0,0:0:0:0:
248,304,54725,2,0,L|264:364,1,55
284,100,55130,2,0,B|224:104|174:81|174:81|209:121,1,165
288,188,55536,2,0,B|336:176|368:136|368:136|360:188|376:236,1,197.99999395752
428,324,55941,2,0,P|456:336|444:232,1,220
48,340,56752,5,0,0:0:0:0:
224,248,56954,1,0,0:0:0:0:
40,96,57157,2,0,B|24:176|40:240|40:240|48:200|80:176,1,220
260,116,57765,1,0,0:0:0:0:
408,312,57968,2,0,B|380:308|380:308|352:312|352:312|324:300|292:308,2,110,0|0|0,0:0|0:0|0:0,0:0:0:0:
368,68,58576,2,0,B|404:68|404:68|440:52|440:52|476:48,1,110
48,48,59184,5,4,0:0:0:0:
448,264,59590,5,0,0:0:0:0:
264,172,59792,1,0,0:0:0:0:
332,352,59995,1,0,0:0:0:0:
472,84,60400,2,0,B|428:36|372:32|372:32|344:64|344:108,1,197.99999395752
408,340,60806,2,0,B|412:264|464:228|464:228|420:204|408:152,1,220
48,48,61617,5,0,0:0:0:0:
440,64,62022,5,0,0:0:0:0:
368,204,62225,1,0,0:0:0:0:
408,28,62427,1,0,0:0:0:0:
180,224,62833,2,0,B|144:185|89:197|89:197|83:250|132:292,1,197.99999395752
256,268,63238,2,0,B|316:258|380:294|380:294|343:227|338:168,1,263.99999194336
48,48,64049,6,0,L|60:104,1,55,4|0,0:0|0:0,0:0:0:0:
204,336,64454,2,0,L|212:272,1,55
356,72,64860,2,0,B|396:44|444:40|444:40|416:68|412:104,1,165
424,216,65265,2,0,B|424:264|448:316|448:316|408:276|364:272,1,197.99999395752
260,272,65671,2,0,B|200:284|172:336|172:336|164:280|208:236,1,220
48,48,66482,5,0,0:0:0:0:
168,220,66684,1,0,0:0:0:0:
388,164,66887,2,0,B|348:128|316:132|316:132|332:164|316:200|316:200|316:240|348:264,1,220
472,112,67495,1,0,0:0:0:0:
280,108,67698,2,0,P|332:116|404:84,1,110
224,24,68103,5,0,0:0:0:0:
120,44,68306,5,0,0:0:0:0:
36,168,68509,5,0,0:0:0:0:
76,344,68711,5,0,0:0:0:0:
316,176,68914,6,0,P|301:51|131:184,1,395.999987915039,4|0,0:0|0:0,0:0:0:0:
284,288,69522,2,0,P|340:292|388:264,1,110,0|0,0:0|0:0,0:0:0:0:
224,120,69927,1,0,0:0:0:0:
0,236,70130,6,0,B|88:268|148:360|148:360|116:256|144:156,1,395.999987915039,8|0,0:0|0:0,0:0:0:0:
4,240,70738,1,0,0:0:0:0:
244,356,70941,1,0,0:0:0:0:
360,72,71144,2,0,P|408:64|464:72,1,98.9999969787599
472,300,71346,2,0,P|440:320|492:208,1,395.999987915039,2|0,0:0|0:0,0:0:0:0:
476,304,71954,5,0,0:0:0:0:
364,264,72157,1,0,0:0:0:0:
248,272,72360,1,0,0:0:0:0:
144,328,72563,2,0,P|124:312|96:300,1,55
160,88,72968,2,0,P|157:62|145:34,1,55
368,136,73373,2,0,P|352:157|341:185,1,55
512,140,73779,6,0,P|496:84|216:96,1,395.999987915039,4|0,0:0|0:0,0:0:0:0:
272,272,74387,2,0,P|284:320|276:380,1,110
188,168,74792,1,0,0:0:0:0:
464,136,74995,6,0,B|397:229|289:177|289:177|310:53|420:56,1,395.999987915039,8|0,0:0|0:0,0:0:0:0:
468,144,75603,1,0,0:0:0:0:
328,340,75806,1,0,0:0:0:0:
164,40,76009,2,0,P|148:88|148:136,1,98.9999969787599
372,176,76211,2,0,P|400:96|256:176,1,395.999987915039,2|0,0:0|0:0,0:0:0:0:
364,180,76819,5,0,0:0:0:0:
412,288,77022,1,0,0:0:0:0:
312,352,77225,1,0,0:0:0:0:
196,328,77427,2,0,L|224:232,1,82.5
112,288,77833,2,0,L|140:196,1,82.5
32,240,78238,2,0,L|52:180,1,55
88,28,78644,6,0,P|16:76|168:240,1,395.999987915039,4|0,0:0|0:0,0:0:0:0:
296,140,79252,2,0,P|292:88|272:24,1,110,0|0,0:0|0:0,0:0:0:0:
256,304,79657,1,0,0:0:0:0:
500,216,79860,2,0,B|444:232|408:276|408:276|424:220|408:168,2,220,8|0|0,0:0|0:0|0:0,0:0:0:0:
168,96,81076,6,0,P|148:140|144:200,1,98.9999969787599,2|0,0:0|0:0,0:0:0:0:
156,276,81279,2,0,P|172:328|204:368,1,98.9999969787599
348,20,81482,6,0,P|288:20|236:44,1,110
144,232,82090,1,0,0:0:0:0:
140,68,82292,6,0,P|106:102|81:157,1,98.9999969787599
67,233,82495,2,0,P|64:287|80:335,1,98.9999969787599
335,58,82698,6,0,P|278:37|221:42,1,110
70,187,83306,1,0,0:0:0:0:
220,316,83509,2,0,P|268:324|332:308,1,98.9999969787599
400,272,83711,2,0,P|440:248|476:208,1,98.9999969787599
60,204,83914,6,0,P|88:252|136:284,1,110
360,296,84522,1,0,0:0:0:0:
372,136,84725,6,0,B|468:104,1,98.9999969787599
256,120,84927,6,0,B|160:152,1,98.9999969787599
348,228,85130,6,0,P|404:224|452:184,1,110
232,56,85738,1,0,0:0:0:0:
136,280,85941,6,0,P|128:212|112:148,1,131.99999597168
56,320,86346,2,0,P|104:364|220:248,1,263.99999194336
168,56,86954,1,0,0:0:0:0:
16,228,87157,5,0,0:0:0:0:
136,280,87360,1,0,0:0:0:0:
20,224,87563,1,0,0:0:0:0:
140,288,87765,1,0,0:0:0:0:
336,200,87968,2,0,P|304:144|180:144,1,197.99999395752
220,228,88373,5,4,0:0:0:0:
368,364,88576,1,0,0:0:0:0:
464,144,88779,2,0,B|492:80|472:12|472:12|400:0|336:40,1,263.99999194336
178,203,89387,5,0,0:0:0:0:
444,321,89590,1,8,0:0:0:0:
256,80,89792,1,0,0:0:0:0:
104,328,89995,1,0,0:0:0:0:
420,180,90198,1,0,0:0:0:0:
100,32,90400,1,0,0:0:0:0:
288,368,90603,1,0,0:0:0:0:
416,92,90806,6,0,P|404:52|316:148,1,263.99999194336,4|0,0:0|0:0,0:0:0:0:
420,180,91414,2,0,P|480:156|504:92,1,131.99999597168
140,68,92022,2,0,B|168:20|224:28|224:28|244:80|200:124,1,197.99999395752
132,188,92427,2,0,B|86:191|36:170|36:170|68:213|73:264,1,197.99999395752
40,348,92833,2,0,P|144:276|132:340,1,263.99999194336
488,160,93644,5,0,0:0:0:0:
320,208,93846,1,0,0:0:0:0:
416,28,94049,1,0,0:0:0:0:
396,324,94454,2,0,B|340:336|292:328|292:328|252:340|200:332,1,197.99999395752
140,248,94860,2,0,P|132:196|248:192,1,197.99999395752
344,232,95265,2,0,B|424:264|464:208|464:208|424:136|352:152,1,263.99999194336
256,212,95873,5,0,0:0:0:0:
140,184,96076,1,0,0:0:0:0:
56,100,96279,1,0,0:0:0:0:
0,208,96482,2,0,B|32:264|28:336|28:336|52:268|124:228,1,263.99999194336
256,212,97090,1,0,0:0:0:0:
372,280,97292,1,0,0:0:0:0:
36,336,97698,1,0,0:0:0:0:
456,112,98103,5,0,0:0:0:0:
280,48,98306,1,0,0:0:0:0:
380,236,98509,2,0,L|388:176,1,55
256,300,98914,2,0,L|244:244,1,55
384,368,99319,5,0,0:0:0:0:
480,208,99522,1,0,0:0:0:0:
264,120,99725,1,0,0:0:0:0:
384,268,99927,1,0,0:0:0:0:
480,32,100130,2,0,P|444:16|396:12,1,82.5
360,188,100536,6,0,P|410:207|366:103,1,263.99999194336,4|0,0:0|0:0,0:0:0:0:
288,244,101144,1,0,0:0:0:0:
460,352,101346,1,0,0:0:0:0:
504,64,101752,2,0,P|448:16|332:40,1,197.99999395752
268,132,102157,2,0,B|242:179|200:203|200:203|155:198|120:147,1,197.99999395752
88,48,102563,2,0,B|96:28|88:8|60:4|44:20|36:52|56:72|56:72|24:100|8:144|20:188|52:228,1,263.99999194336
420,344,103373,5,0,0:0:0:0:
488,116,103576,1,0,0:0:0:0:
328,244,103779,1,0,0:0:0:0:
0,56,104184,6,0,B|48:96|48:96|100:48|180:48,1,197.99999395752
320,56,104590,2,0,B|372:60|392:112|392:112|360:156|300:148,1,197.99999395752
200,144,104995,2,0,B|124:136|80:192|80:192|144:212|156:292,1,263.99999194336
84,384,105603,5,0,0:0:0:0:
80,264,105806,1,0,0:0:0:0:
176,176,106009,1,0,0:0:0:0:
316,152,106211,2,0,B|392:136|424:204|424:204|408:280|328:280,1,263.99999194336
208,280,106819,1,0,0:0:0:0:
104,196,107022,1,0,0:0:0:0:
480,32,107427,1,0,0:0:0:0:
136,304,107833,5,0,0:0:0:0:
284,360,108036,1,0,0:0:0:0:
488,288,108238,2,0,L|540:264,1,55
312,192,108644,2,0,L|372:204,1,55
96,244,109049,2,0,L|152:228,1,55
28,100,109454,5,0,0:0:0:0:
8,220,109657,5,0,0:0:0:0:
96,336,109860,5,0,0:0:0:0:
268,368,110063,5,0,0:0:0:0:
464,216,110265,6,0,P|440:136|352:292,1,395.999987915039,4|2,0:0|0:0,0:0:0:0:
460,316,110873,1,2,0:0:0:0:
360,72,111076,1,0,0:0:0:0:
344,360,111279,1,0,0:0:0:0:
456,128,111482,6,0,B|364:96|304:8|304:8|340:108|316:204,1,395.999987915039,8|2,0:0|0:0,0:0:0:0:
240,340,112090,1,2,0:0:0:0:
456,128,112292,1,0,0:0:0:0:
160,16,112495,2,0,P|112:8|48:20,1,98.9999969787599
40,228,112698,2,0,P|92:260|36:132,1,395.999987915039,2|2,0:0|0:0,0:0:0:0:
40,228,113306,5,2,0:0:0:0:
112,324,113509,1,0,0:0:0:0:
232,344,113711,1,2,0:0:0:0:
356,336,113914,2,0,P|384:324|404:308,1,55
164,152,114319,2,0,P|160:179|163:206,1,55,2|2,0:0|0:0,0:0:0:0:
400,72,114725,2,0,P|378:55|352:44,1,55
288,40,115029,1,0,0:0:0:0:
232,72,115130,6,0,P|220:128|460:176,1,395.999987915039,4|2,0:0|0:0,0:0:0:0:
224,76,115738,1,2,0:0:0:0:
352,344,115941,1,0,0:0:0:0:
360,40,116144,1,0,0:0:0:0:
236,296,116346,6,0,B|240:196|132:140|132:140|80:252|140:328,1,395.999987915039,8|2,0:0|0:0,0:0:0:0:
240,292,116954,1,2,0:0:0:0:
504,164,117157,1,0,0:0:0:0:
148,28,117360,2,0,P|124:72|116:128,1,98.9999969787599
320,200,117563,2,0,P|355:161|215:183,1,395.999987915039,2|2,0:0|0:0,0:0:0:0:
324,208,118171,5,2,0:0:0:0:
428,152,118373,1,0,0:0:0:0:
336,228,118576,1,2,0:0:0:0:
216,248,118779,2,0,P|168:228|160:72,1,220
312,16,119792,1,0,0:0:0:0:
412,176,119995,6,0,P|312:140|204:360,1,395.999987915039,4|2,0:0|0:0,0:0:0:0:
492,240,120603,2,0,P|512:184|492:112,1,131.99999597168,2|0,0:0|0:0,0:0:0:0:
364,20,121009,1,0,0:0:0:0:
112,132,121211,2,0,B|172:156|212:216|212:216|204:148|232:80,2,263.99999194336,8|2|0,0:0|0:0|0:0,0:0:0:0:
144,300,122427,6,0,P|188:316|244:316,1,98.9999969787599,2|0,0:0|0:0,0:0:0:0:
420,248,122630,2,0,P|380:280|332:296,1,98.9999969787599
80,244,122833,6,0,P|132:224|192:228,1,110,2|0,0:0|0:0,0:0:0:0:
376,312,123441,1,0,0:0:0:0:
104,352,123644,6,0,P|160:368|216:364,1,98.9999969787599,0|0,0:0|0:0,0:0:0:0:
400,304,123846,2,0,P|352:292|296:296,1,98.9999969787599
60,296,124049,6,0,P|112:276|176:276,1,110,2|0,0:0|0:0,0:0:0:0:
396,332,124657,1,0,0:0:0:0:
88,260,124860,6,0,P|136:268|192:260,1,98.9999969787599
388,200,125063,2,0,P|348:228|300:240,1,98.9999969787599
60,208,125265,6,0,P|108:192|168:188,1,110,2|0,0:0|0:0,0:0:0:0:
352,252,125873,1,0,0:0:0:0:
352,80,126076,6,0,P|308:32|232:116,1,197.99999395752
300,216,126482,2,0,B|321:268|296:314|296:314|246:315|211:271,1,197.99999395752,0|0,0:0|0:0,0:0:0:0:
248,132,126887,2,0,P|280:104|360:252,1,263.99999194336
244,352,127495,1,0,0:0:0:0:
44,268,127698,6,0,P|8:220|140:124,1,263.99999194336,2|0,0:0|0:0,0:0:0:0:
280,220,128306,1,2,0:0:0:0:
440,136,128509,1,0,0:0:0:0:
296,56,128711,1,0,0:0:0:0:
452,132,128914,1,2,0:0:0:0:
292,68,129117,1,2,0:0:0:0:
160,252,129319,6,0,P|184:312|304:336,1,197.99999395752,0|0,0:0|0:0,0:0:0:0:
368,272,129725,1,4,0:0:0:0:
200,88,129927,1,0,0:0:0:0:
36,208,130130,2,0,B|4:272|20:340|20:340|80:364|148:348,1,263.99999194336,2|0,0:0|0:0,0:0:0:0:
488,224,130738,5,2,0:0:0:0:
100,32,130941,1,8,0:0:0:0:
196,368,131144,1,0,0:0:0:0:
352,120,131346,5,2,0:0:0:0:
136,193,131549,5,2,0:0:0:0:
354,261,131752,5,0,0:0:0:0:
217,78,131954,5,0,0:0:0:0:
220,306,132157,5,4,0:0:0:0:
220,306,132563,2,0,P|276:310|332:286,1,110
148,204,133171,1,0,0:0:0:0:
40,260,133373,2,0,L|64:368,2,110,0|0|0,0:0|0:0|0:0,0:0:0:0:
128,164,134590,2,0,L|188:152,1,55
312,128,134995,2,0,P|289:166|269:60,1,275
247,58,136211,5,0,0:0:0:0:
312,128,136414,1,0,0:0:0:0:
340,220,136617,1,0,0:0:0:0:
416,164,136820,1,0,0:0:0:0:
512,156,137022,6,0,L|488:44,1,110
384,272,137630,2,0,L|392:216,1,55
288,116,138036,1,0,0:0:0:0:
76,224,138238,2,0,B|104:216|104:216|128:220|128:220|148:216|184:216,2,110,0|0|0,0:0|0:0|0:0,0:0:0:0:
192,328,139454,5,0,0:0:0:0:
304,352,139657,1,0,0:0:0:0:
380,264,139860,2,0,L|392:168,1,82.5
292,232,140265,2,0,L|304:136,1,82.5
204,196,140671,2,0,L|212:140,1,55
192,56,141076,5,0,0:0:0:0:
108,104,141279,1,0,0:0:0:0:
76,196,141482,1,0,0:0:0:0:
88,292,141684,1,0,0:0:0:0:
160,356,141887,2,0,P|216:364|272:344,1,110,0|2,0:0|0:0,0:0:0:0:
428,264,142495,2,0,L|424:320,1,55,2|0,0:0|0:0,0:0:0:0:
328,160,142900,1,0,0:0:0:0:
488,32,143103,2,0,B|453:21|428:25|428:25|405:13|405:13|378:8,2,110,0|0|0,0:0|0:0|0:0,0:0:0:0:
328,160,144319,6,0,L|264:144,1,55
380,256,144725,2,0,L|432:272,1,55,2|2,0:0|0:0,0:0:0:0:
288,312,145130,2,0,L|204:284,1,82.5
128,260,145536,6,0,L|112:316,1,55
156,148,145941,2,0,L|115:106,1,55,2|0,0:0|0:0,0:0:0:0:
236,224,146346,2,0,L|316:204,1,82.5
400,172,146752,6,0,L|416:236,1,55
276,128,147157,2,0,L|292:184,1,55,2|2,0:0|0:0,0:0:0:0:
152,88,147563,2,0,L|176:176,1,82.5
200,256,147968,5,0,0:0:0:0:
288,304,148171,1,0,0:0:0:0:
388,296,148373,1,2,0:0:0:0:
480,256,148576,1,0,0:0:0:0:
512,160,148779,2,0,L|488:80,1,82.5
412,36,149184,6,0,L|428:-24,1,55
308,156,149590,2,0,L|296:96,1,55,2|2,0:0|0:0,0:0:0:0:
296,96,150198,1,2,0:0:0:0:
132,68,150400,2,0,L|208:80,2,55,2|0|0,0:0|0:0|0:0,0:0:0:0:
180,236,151009,2,0,L|172:176,2,55,2|0|0,0:0|0:0|0:0,0:0:0:0:
316,320,151617,6,0,L|256:316,1,55
420,360,152022,1,2,0:0:0:0:
496,284,152225,6,0,L|500:224,1,55,2|0,0:0|0:0,0:0:0:0:
508,136,152630,1,2,0:0:0:0:
392,220,152833,2,0,L|396:160,1,55,2|0,0:0|0:0,0:0:0:0:
404,72,153238,1,2,0:0:0:0:
284,152,153441,2,0,L|288:92,1,55,2|0,0:0|0:0,0:0:0:0:
296,4,153846,1,0,0:0:0:0:
144,96,154049,6,0,L|156:168,1,55
32,236,154454,2,0,L|76:276,1,55,2|2,0:0|0:0,0:0:0:0:
80,280,155063,1,2,0:0:0:0:
256,220,155265,6,0,L|188:240,2,55,2|0|0,0:0|0:0|0:0,0:0:0:0:
448,232,155873,2,0,L|380:256,2,55,2|0|0,0:0|0:0|0:0,0:0:0:0:
360,76,156482,2,0,L|380:136,1,55
248,48,156887,1,2,0:0:0:0:
192,140,157090,1,2,0:0:0:0:
88,112,157292,2,0,L|36:96,1,55
108,216,157698,1,2,0:0:0:0:
212,188,157900,2,0,L|264:172,1,55
192,304,158306,2,0,L|124:292,1,55,2|2,0:0|0:0,0:0:0:0:
32,272,158711,1,0,0:0:0:0:
144,96,158914,6,0,L|168:60,3,36.6666666666667,0|0|0|0,0:0|0:0|0:0|0:0,0:0:0:0:
