osu file format v5

[General]
AudioFilename: madlax002.mp3
AudioLeadIn: 0
PreviewTime: -1
Countdown: 1
SampleSet: Normal
StackLeniency: 0.7
Mode: 0
LetterboxInBreaks: 1
EditorBookmarks: 65898,71608,90963,105382,108576,145156

[Metadata]
Title:Nowhere
Artist:Yuki Kajiura
Creator:ignorethis
Version:Normal
Source:Madlax
Tags:Madlax Yuki Kajiura Nowhere

[Difficulty]
HPDrainRate:5
CircleSize:4
OverallDifficulty:5
SliderMultiplier:1.3
SliderTickRate:2

[Events]
//Background and Video events
0,0,"1.jpg"
//Break Periods
2,38131,49268
2,65615,71289
2,96959,107753
//Storyboard Layer 0 (Background)
4,0,0,"1.jpg",0,0 F,0,0,0,0,1 F,0,64605,65605,1,0
4,0,0,"2.jpg",0,0 F,0,65705,66705,0,1 F,0,146282,147282,1,0
4,0,0,"3.jpg",0,0 F,0,147382,148382,0,1 F,0,217398,225750,1,0
//Storyboard Layer 1 (Failing)
//Storyboard Layer 2 (Passing)
//Storyboard Layer 3 (Foreground)
//Storyboard Sound Samples
//Background Colour Transformations
3,100,0,0,0

[TimingPoints]
13147,387.096774193548,4,1,0,79,1

[Colours]
Combo1 : 255,0,128
Combo2 : 5,240,5
Combo3 : 5,5,240
Combo4 : 240,5,5
Combo5 : 255,150,0

[HitObjects]
88,88,13340,2,0,B|184:88,3,65
280,96,14308,2,0,B|336:96|368:120,2,65
248,216,15082,1,0
208,336,15469,2,0,B|160:360|120:320,4,65,0|0|0|0|2
400,328,16824,6,0,B|448:272,1,65
392,240,17211,2,0,B|328:200,1,65
280,168,17598,2,0,B|208:192,1,65
96,232,18179,1,0
96,104,18566,2,0,B|144:64|168:64,4,65,0|0|0|0|2
96,296,19921,5,0
160,296,20114,1,0
224,296,20308,1,0
288,296,20501,2,0,B|360:296,2,65
288,168,21276,1,0
288,40,21663,2,0,B|248:32|216:48,4,65
416,184,23017,5,6
336,280,23405,5,0
296,232,23598,1,0
256,184,23792,1,0
224,128,23985,2,0,B|152:112|104:184,4,130,2|2|2|2|6
224,64,25727,5,0
288,64,25921,2,0,B|328:56|368:80,2,65
224,208,26888,1,0
224,272,27082,2,0,B|264:296|304:272,3,65
286,280,27856,2,0,B|328:264|368:280,3,65
408,288,28630,1,6
408,96,29211,5,0
344,96,29405,2,0,B|312:64|272:64,1,65
224,72,29792,1,0
160,88,29985,1,0
96,112,30179,2,2,B|64:184|128:240,2,130
136,160,31146,1,0
168,216,31340,2,2,B|216:208|248:256,1,65
280,264,31727,1,6
424,136,32308,5,0
368,104,32501,2,0,B|320:72|280:88,1,65
240,88,32888,2,0,B|184:96|152:120,1,65
120,136,33276,2,0,B|80:144|56:176,1,65
32,224,33663,1,0
152,264,34050,2,0,B|208:304|288:296,2,130,0|0|2
288,120,35405,5,0
400,192,35792,2,0,B|360:224|312:208,1,65
272,224,36179,1,0
208,232,36372,2,0,B|176:248|128:232,3,65
80,232,37146,1,4
96,168,37340,1,4
112,104,37534,1,4
136,48,37727,1,4
200,48,37921,1,4
256,80,49921,5,0
224,136,50114,1,0
288,136,50308,2,0,B|336:184|328:272,2,130
160,136,51469,1,0
224,144,51663,1,0
288,136,51856,2,0,B|360:160|424:128,2,130
208,240,53017,1,2
112,328,53405,6,0,B|56:272,1,65
24,232,53792,2,0,B|96:176|88:176,1,65
128,160,54179,2,0,B|200:152,1,65
256,152,54566,2,0,B|328:160,1,65
376,192,54953,2,0,B|440:248,1,65
448,296,55340,2,2,B|352:312,2,65
408,168,56114,5,0
352,136,56308,1,0
288,136,56501,2,0,B|224:112|152:152,2,130
328,88,57469,1,0
392,72,57663,1,0
440,112,57856,1,0
440,176,58050,2,2,B|424:248|336:272,2,130
312,176,59211,5,4
184,176,59598,6,0,B|136:136|176:48,1,130
240,56,60179,1,0
176,56,60372,2,0,B|104:40|32:96,2,130
240,56,61340,1,0
304,56,61534,2,0,B|376:48|432:88,1,130
376,272,62501,5,0
328,232,62695,2,0,B|376:184|296:104,2,130
272,200,63663,1,0
216,160,63856,2,0,B|176:136|128:152,2,65
272,200,64437,1,0
328,232,64630,1,4
328,232,64824,1,4
328,232,65017,1,4
328,232,65211,1,4
328,232,65405,1,6
256,328,72179,6,0,B|296:264,1,65
328,216,72566,2,0,B|256:176,1,65
336,72,73147,2,0,B|264:32,1,65
216,40,73534,1,0
96,96,73921,1,0
96,224,74308,1,0
96,224,74501,1,0
96,224,74695,1,0
96,224,74888,1,0
96,224,75082,1,2
256,304,75663,5,0
312,272,75856,2,0,B|376:248,2,65
256,304,76437,1,0
192,312,76630,2,0,B|152:248|176:168,1,130
200,128,77211,2,0,B|280:104,1,65
320,128,77598,1,0
376,152,77792,1,0
432,176,77985,1,0
488,208,78179,1,6
304,280,78759,6,0,B|232:216,1,65
192,224,79147,1,0
144,184,79340,2,0,B|208:128,1,65
240,96,79727,2,0,B|312:40|384:104,1,130
408,208,80501,1,0
408,208,80695,1,0
408,208,80888,1,0
408,208,81082,1,0
408,208,81276,2,4,B|336:200|280:256,1,130
232,280,81856,5,0
152,176,82243,2,0,B|184:128|208:136,3,65
328,120,83211,1,0
456,120,83598,1,0
392,232,83985,1,0
328,120,84372,1,2
272,80,84566,5,0
224,120,84759,1,0
192,64,84953,1,0
144,104,85147,2,0,B|88:128|168:176|72:216,1,130
136,256,85727,1,0
184,296,85921,1,0
248,296,86114,1,0
248,296,86211,1,0
248,296,86308,1,0
312,296,86501,1,0
368,264,86695,1,0
424,232,86888,1,0
432,168,87082,1,0
440,104,87276,1,0
376,120,87469,1,2
184,80,88050,5,0
136,128,88243,1,0
136,128,88340,1,0
136,128,88437,1,0
96,176,88630,1,0
96,176,88727,1,0
96,176,88824,1,0
144,224,89017,2,0,B|208:248|288:232,2,130
184,272,89985,1,0
240,304,90179,2,0,B|256:256,2,32.5
304,320,90566,1,2
384,144,91147,5,0
336,104,91340,2,0,B|400:40,2,65
288,64,91921,1,0
224,64,92114,2,0,B|160:88|96:64,2,130
224,128,93082,1,0
224,192,93276,2,0,B|160:208|80:184,1,130
96,320,94050,1,0
224,320,94437,1,0
224,320,94630,1,0
224,320,94824,1,0
224,320,95017,1,0
224,320,95211,1,0
336,248,95598,1,2
440,176,95985,1,2
336,96,96372,1,2
232,176,96759,1,6
64,120,108953,6,0,B|120:56|192:48,1,130
248,48,109534,2,0,B|344:48,1,65
392,48,109921,1,0
456,88,110114,1,0
392,128,110308,1,0
456,168,110501,1,0
456,248,110695,2,4,B|400:280|304:280,3,130
248,280,112050,1,4
168,280,112243,6,0,B|168:144,1,130
312,88,113017,2,0,B|312:232,1,130
456,272,113792,2,4,B|456:120,3,130
256,192,115340,12,6,120372
472,312,120759,6,0,L|328:312,2,130
472,248,121727,5,0
472,184,121921,1,0
472,120,122114,1,0
472,56,122308,2,0,C|408:32|328:56,1,130
232,104,123082,1,0
104,104,123469,1,0
104,232,123856,1,0
232,240,124243,1,0
360,240,124630,6,4,C|456:152,2,130
232,240,125792,1,0
104,240,126179,1,4
104,112,126953,5,0
208,32,127340,1,0
312,112,127727,2,0,C|384:72|448:96,1,130
448,216,128501,2,0,C|376:272|312:256,1,130
208,248,129276,2,0,C|104:256|88:232,1,130
96,104,130050,2,0,C|184:128|240:96,1,130
344,96,130824,1,0
344,96,131017,1,0
344,96,131211,1,0
344,224,131598,1,0
344,224,131792,1,0
344,224,131985,1,0
216,224,132372,1,6
104,160,133146,6,0,B|200:104|304:104,1,195
344,104,133921,2,0,B|344:40,2,32.5
392,104,134308,2,0,B|440:96|472:128,1,65
456,168,134695,2,0,B|512:168,2,32.5
416,200,135082,2,0,C|344:256,1,65
312,248,135469,1,0
288,248,135566,1,0
264,248,135663,1,0
224,216,135856,2,0,C|224:296,1,65
176,264,136243,2,0,C|176:336,1,65
120,320,136630,1,0
120,216,137017,6,2,C|200:208|248:152,3,130,0|2|2|2
336,176,138566,1,2
440,176,138953,1,6
256,192,139340,12,2,144759
256,192,145534,5,0
40,48,146308,5,6
40,336,147082,5,6
480,344,147856,5,6
480,32,148630,5,6
384,112,149017,6,12,C|272:216,1,130
