osu file format v5

[General]
AudioFilename: madlax002.mp3
AudioLeadIn: 0
PreviewTime: -1
Countdown: 1
SampleSet: Normal
StackLeniency: 0.5
Mode: 0
LetterboxInBreaks: 1
EditorBookmarks: 11501,25340,49437,65985,71792,94340,120469,145243,154534,178921,192179

[Metadata]
Title:Nowhere
Artist:Yuki Kajiura
Creator:ignorethis
Version:Hard
Source:Madlax
Tags:Madlax Nowhere Yuki Kajiura

[Difficulty]
HPDrainRate:8
CircleSize:5
OverallDifficulty:7
SliderMultiplier:1.4
SliderTickRate:2

[Events]
//Background and Video events
0,0,"1.jpg"
//Break Periods
2,38121,49021
2,65605,71279
2,96959,108246
2,149605,154892
//Storyboard Layer 0 (Background)
4,0,0,"1.jpg",0,0 F,0,0,0,0,1 F,0,64605,65605,1,0
4,0,0,"2.jpg",0,0 F,0,65705,66705,0,1 F,0,146282,147282,1,0
4,0,0,"3.jpg",0,0 F,0,147382,148382,0,1 F,0,217398,225750,1,0
//Storyboard Layer 1 (Failing)
//Storyboard Layer 2 (Passing)
//Storyboard Layer 3 (Foreground)
//Storyboard Sound Samples
//Background Colour Transformations
3,100,0,0,0

[TimingPoints]
13147,387.096774193548,4,1,0,79,1
158792,387.096774193548,4,2,0,79,0
161888,387.096774193548,4,1,0,79,0
164985,387.096774193548,4,2,0,79,0
168091,387.096774193548,4,1,0,79,0
170985,387.096774193548,4,2,0,79,0
174284,387.096774193548,4,1,0,79,0

[Colours]
Combo1 : 255,0,128
Combo2 : 5,240,5
Combo3 : 5,5,240
Combo4 : 240,5,5
Combo5 : 255,150,0

[HitObjects]
80,96,13340,1,0
152,96,13534,1,0
224,96,13727,1,0
296,96,13921,1,0
376,208,14308,1,0
304,208,14501,1,0
232,208,14695,1,0
80,320,15082,1,0
152,320,15276,1,0
224,320,15469,2,0,L|296:320,1,70
360,320,15856,2,0,L|440:320,1,70
360,320,16243,1,4
360,112,16824,5,0
288,112,17017,1,0
232,160,17211,1,0
288,200,17405,2,0,L|376:200,1,70
416,240,17792,2,4,L|368:304|280:304,1,140
224,304,18372,1,4
152,304,18566,1,4
152,232,18759,1,0
152,160,18953,1,0
152,88,19146,1,0
152,16,19340,1,0
360,24,19921,5,0
416,64,20114,2,4,L|344:104,1,70
354,97,20501,2,4,L|432:144,1,70
416,136,20888,1,4
416,272,21276,1,0
272,272,21663,2,4,L|184:272|248:176|168:176,1,280
352,72,23017,5,0
440,176,23405,1,0
368,176,23598,1,0
296,176,23792,1,0
224,176,23985,2,4,L|152:176|152:248,3,140
288,240,25534,5,0
360,240,25727,1,0
432,240,25921,2,0,C|464:176|424:96,1,140
368,120,26501,1,0
296,120,26695,1,0
224,136,26888,1,0
152,168,27082,6,0,B|104:168|104:216,1,70
144,280,27469,1,0
216,280,27663,1,0
288,280,27856,1,0
352,248,28050,1,0
352,176,28243,1,4
352,104,28437,1,4
352,32,28630,1,4
160,112,29211,5,0
96,152,29405,2,0,B|24:192,1,70
80,232,29792,2,0,B|160:264,1,70
216,256,30179,1,0
288,256,30372,2,0,B|352:216,1,70
416,216,30759,1,0
416,144,30953,2,0,B|336:104,1,70
280,112,31340,1,4
208,112,31534,1,4
136,112,31727,1,4
328,192,32308,5,0
256,192,32501,2,0,B|176:192,2,70
328,192,33082,1,0
400,192,33276,2,0,B|448:256|384:328,2,140
400,120,34243,1,0
328,120,34437,1,0
256,120,34630,2,4,B|168:120,1,70
72,296,35405,5,0
208,296,35792,1,0
280,296,35985,1,0
352,296,36179,1,0
424,296,36372,2,0,B|480:224,1,70
400,208,36759,2,0,B|336:160,1,70
384,104,37146,2,0,B|440:48,1,70
480,104,37534,1,4
456,128,37630,1,4
432,152,37727,1,4
408,176,37824,1,4
384,200,37921,1,4
48,72,49921,5,0
104,112,50114,1,0
160,144,50308,2,0,L|216:184|296:128,2,140,2|2|2
160,280,51469,1,0
224,312,51663,1,0
288,280,51856,2,0,L|360:280|360:208,1,140,0|0
360,72,52630,2,6,B|216:72,1,140
80,72,53405,6,0,B|80:152,1,70
152,144,53792,1,0
224,144,53985,2,0,B|224:240,2,70
224,216,54566,1,0
224,288,54759,2,0,B|312:288,1,70
296,288,55146,1,0
352,240,55340,2,0,B|432:176|328:104,1,140
208,120,56114,5,0
256,72,56308,1,0
304,120,56501,2,0,B|464:144|464:248|312:288,1,280
272,280,57469,1,0
200,280,57663,2,0,B|120:280,1,70
128,216,58050,2,0,B|200:184|280:224,2,140
128,216,59017,1,2
128,216,59211,1,2
128,216,59405,1,2
128,144,59598,6,0,B|216:144,1,70
264,144,59985,1,0
336,144,60179,1,0
408,144,60372,2,0,B|464:208,2,70
352,192,60953,2,2,B|296:240,1,70
240,280,61340,1,2
240,208,61534,2,6,B|192:144|296:88,1,140
72,64,62501,5,0
72,136,62695,1,0
72,272,63082,2,4,B|192:360,1,140
232,304,63663,1,0
280,256,63856,1,0
224,208,64050,1,0
160,168,64243,2,0,B|208:96,1,70
232,40,64630,2,0,B|528:40,1,280
72,64,72179,6,0,B|72:160,3,70
192,64,73147,1,0
264,64,73340,1,0
336,64,73534,1,0
440,152,73921,1,0
368,152,74114,1,0
312,192,74308,1,0
368,232,74501,1,0
312,272,74695,1,0
240,272,74888,1,0
168,272,75082,1,2
48,104,75663,6,0,B|128:56,1,70
176,64,76050,2,0,B|256:64,1,70
312,64,76437,2,0,B|360:128,1,70
352,256,77017,1,0
280,256,77211,1,0
208,256,77405,2,0,B|144:256,1,35
136,256,77598,1,0
136,184,77792,2,0,B|192:184,1,35
208,184,77985,1,0
280,184,78179,1,2
440,48,78759,5,0
400,104,78953,2,0,B|320:184,2,105
352,152,79727,2,0,B|256:256,2,140
280,152,80695,1,0
208,136,80888,1,0
136,152,81082,1,0
80,192,81276,2,2,B|120:112|224:136,1,140
152,184,81856,6,0,B|184:144,2,35
192,248,82243,1,0
240,192,82437,1,0
312,192,82630,1,0
384,192,82824,2,0,B|440:256,2,70
384,120,83405,2,0,B|448:64,2,70
312,120,83985,2,2,B|168:120,1,140
168,192,84566,5,0
168,264,84759,1,0
232,232,84953,1,0
296,200,85147,2,0,B|344:200,2,35
296,128,85534,1,0
352,88,85727,1,0
408,128,85921,1,0
408,200,86114,1,0
408,272,86308,1,0
352,312,86501,1,0
288,272,86695,2,0,B|224:272,2,35
288,200,87082,2,0,B|344:200,2,35
288,128,87469,1,2
96,40,88050,5,0
152,80,88243,1,0
96,120,88437,1,0
152,160,88630,1,0
96,200,88824,1,0
152,232,89017,1,0
288,232,89405,1,2
424,232,89792,1,0
480,192,89985,1,0
424,152,90179,1,0
480,112,90372,1,2
424,72,90566,1,2
216,72,91147,5,0
152,112,91340,2,0,B|152:200,2,70
88,144,91921,1,0
32,184,92114,2,0,B|112:224,1,70
160,248,92501,2,0,B|224:208,1,70
280,168,92888,1,0
336,128,93082,1,0
392,88,93276,1,4
424,88,93372,1,4
456,88,93469,1,4
488,88,93566,1,4
512,88,93663,1,4
440,208,94050,5,0
296,208,94437,1,0
224,208,94630,1,0
152,208,94824,1,0
192,152,95017,1,0
264,152,95211,1,0
400,152,95598,1,0
400,288,95985,1,0
256,192,96179,12,4,96759
80,96,109147,6,0,B|168:96|272:208,1,210
320,232,109921,1,0
368,184,110114,2,0,B|408:56|168:40,1,280
176,112,111082,2,2,B|176:184,1,70
176,248,111469,2,2,B|248:248,1,70
312,248,111856,2,2,B|376:184,1,70
408,144,112243,6,0,B|336:80|272:80,3,140
216,80,113598,1,0
144,80,113792,2,0,B|72:104|40:176,3,140
80,232,115147,1,0
136,272,115340,2,0,B|200:320|280:264,1,140
328,240,115921,1,0
376,192,116114,2,0,B|424:128|352:48,1,140
296,64,116695,1,0
224,64,116888,2,0,B|144:88,1,70
88,112,117276,2,0,B|56:192,1,70
64,248,117663,2,0,B|144:280,1,70
200,280,118050,2,0,B|272:264,1,70
336,272,118437,5,0
400,240,118630,1,0
336,208,118824,1,0
400,176,119017,1,0
336,144,119211,1,0
400,120,119405,1,0
336,80,119598,1,2
304,96,119695,1,0
272,112,119792,1,2
240,128,119888,1,0
208,144,119985,1,2
256,192,120082,12,6,120566
88,80,120759,6,0,B|184:72|168:168,2,140
88,152,121727,1,0
88,224,121921,1,0
88,296,122114,1,0
160,296,122308,2,0,B|248:296|256:176,1,140
256,136,122888,1,0
256,64,123082,2,0,B|376:88|376:216,1,210
376,280,123856,2,0,B|256:352|96:272,1,280
112,208,124824,1,0
112,136,125017,1,0
112,64,125211,1,0
176,96,125405,2,2,B|320:96,1,140
312,232,126179,1,6
80,72,126953,6,0,B|232:72,2,140
8,72,127921,2,0,B|-16:144|16:216,1,140
80,208,128501,2,0,B|224:208,2,140
8,208,129469,2,0,B|-8:280|8:352,1,140
80,344,130050,1,0
216,344,130437,1,0
352,344,130824,2,0,B|352:48,2,280
208,336,132759,1,2
64,336,133147,5,0
64,192,133534,1,0
64,48,133921,2,2,B|352:48,1,280
456,128,135082,1,0
352,200,135469,2,2,B|48:200,1,280
72,336,136630,1,0
208,336,137017,2,2,L|440:336|224:80,1,560
88,80,138953,5,0
88,216,139340,2,0,L|160:176,1,70
216,192,139727,2,0,L|280:248,1,70
336,240,140114,2,0,L|464:240|312:160,3,280
248,168,142630,1,0
248,96,142824,1,0
176,96,143017,1,0
104,96,143211,2,0,L|64:224|208:296,1,280
248,248,144179,1,0
304,208,144372,1,0
360,168,144566,1,0
416,128,144759,1,2
136,128,145534,1,2
256,192,146308,12,4,149405
72,72,155792,5,0
144,72,155985,1,0
216,72,156179,1,0
288,72,156372,2,0,L|360:136,1,70,0|0
384,168,156759,1,0
320,208,156953,1,0
264,248,157147,1,0
136,192,157534,6,0,L|72:144,1,70,0|0
128,96,157921,1,0
184,56,158114,1,0
240,96,158308,1,0
296,56,158501,1,0
352,96,158695,2,0,B|424:136,1,70,0|0
352,176,159082,5,0
416,208,159276,1,0
416,280,159469,2,0,L|328:280,3,70,2|0|0|0
272,280,160243,2,0,L|176:280,2,70,2|0|0
272,280,160824,1,0
272,280,161017,2,0,L|272:176,2,70,2|0|0
272,280,161598,1,4
272,280,161792,1,4
344,280,161985,5,0
400,240,162179,1,0
344,200,162372,1,0
280,160,162566,1,0
256,136,162663,1,0
232,112,162759,1,0
104,48,163147,5,0
104,112,163340,2,0,L|104:192,1,70,0|0
144,240,163727,2,0,L|208:288,1,70
272,280,164114,1,0
328,240,164308,1,0
356,221,164405,1,0
384,200,164501,1,0
392,272,164695,1,0
448,232,164888,1,4
448,160,165082,6,0,L|376:104,1,70
320,104,165469,2,0,L|248:104,1,70,0|2
176,112,165856,2,0,L|112:168,1,70
176,208,166243,2,0,L|248:256,1,70,0|2
304,248,166630,2,0,L|392:192,1,70
416,168,167017,2,0,L|344:120,1,70,0|2
352,56,167405,2,0,L|256:88,1,70
224,104,167792,1,0
160,128,167985,1,0
136,192,168179,6,0,L|224:192,3,70,0|0|0|0
272,192,168953,1,0
344,192,169147,1,0
416,192,169340,1,0
416,120,169534,2,0,L|336:120,3,70,0|0|0|0
272,120,170308,1,0
208,136,170501,1,0
175,147,170598,1,0
144,160,170695,1,0
80,192,170888,1,0
16,224,171082,6,0,L|18:153|96:96,1,140,2|0
136,88,171663,1,0
200,64,171856,2,0,L|304:56|360:80,1,140,2|0
392,104,172437,1,0
392,176,172630,2,0,L|392:256,2,70,2|0|0
328,208,173211,1,0
264,232,173405,2,0,L|264:320,2,70,2|0|0
192,248,173985,1,4
120,264,174179,1,4
48,264,174372,5,0
80,200,174566,1,0
94,169,174663,1,0
112,136,174759,1,0
128,64,174953,2,0,L|208:80,1,70,0|0
264,96,175340,1,0
328,120,175534,1,0
392,152,175727,2,0,B|464:184,1,70,0|0
392,208,176114,1,0
328,232,176308,1,0
264,256,176501,1,0
200,280,176695,1,0
136,304,176888,1,0
72,328,177082,1,0
120,272,177276,2,0,L|264:200,1,140,2|0
304,184,177856,2,0,L|392:136,1,70,0|0
304,112,178243,1,0
256,64,178437,1,0
208,112,178630,1,0
168,168,178824,5,4
456,336,179211,1,4
456,32,179598,1,0
336,104,179985,5,0
280,144,180179,1,0
224,184,180372,2,0,B|152:216|56:168,2,140,0|0|0
328,272,181534,1,0
384,232,181727,1,0
384,160,181921,2,4,B|416:96|376:16,2,140
384,160,182888,1,0
384,160,183082,1,0
384,160,183276,1,0
384,160,183469,6,0,B|304:160,1,70
240,160,183856,1,0
176,128,184050,1,0
176,200,184243,2,0,B|176:280,1,70
240,296,184630,1,0
304,264,184824,2,4,B|392:256|448:176,1,140
376,152,185405,2,4,B|352:96|352:96|272:48,1,140
144,56,186179,5,0
80,88,186372,1,0
144,120,186566,2,0,B|272:168|272:360,1,280
344,352,187534,1,0
408,352,187727,1,0
376,288,187921,1,0
352,224,188114,2,4,B|296:152|224:160,2,140
80,288,189663,6,0,B|48:208|96:128,1,140
144,120,190243,1,0
200,80,190437,2,0,B|272:72|360:112,1,140
392,136,191017,2,0,B|488:216|432:336,1,210
296,328,191985,1,4
88,328,192566,5,0
88,256,192759,2,0,B|200:232|304:72,1,280
440,88,193921,2,0,B|440:168,1,70
440,224,194308,2,0,B|368:256|288:224,2,140
176,320,195856,6,0,B|104:272,1,70
120,208,196243,1,0
120,136,196437,1,0
176,96,196630,1,0
312,96,197017,5,0
368,136,197211,1,0
360,272,197598,1,0
304,312,197792,1,0
208,208,198179,5,4
208,64,198566,6,0,B|136:64,2,70
336,104,199340,1,0
464,152,199727,1,0
336,208,200114,1,0
272,232,200308,1,0
208,256,200501,1,0
200,112,200888,1,0
336,72,201276,1,4
472,320,202050,6,0,B|320:312|272:144,2,280
400,320,203792,1,0
328,328,203985,2,0,B|288:320|248:336,1,70
192,352,204372,1,4
72,176,204953,5,0
128,128,205147,2,0,B|184:72|264:80,2,140
128,264,206308,1,0
200,264,206501,1,0
272,264,206695,2,0,B|352:280|424:232,1,140
352,200,207276,1,0
296,160,207469,1,0
232,120,207663,1,0
176,80,207856,1,0
256,192,208146,12,4,214436
