osu file format v5

[General]
AudioFilename: madlax002.mp3
AudioLeadIn: 0
PreviewTime: -1
Countdown: 1
SampleSet: Normal
StackLeniency: 0.7
Mode: 0
LetterboxInBreaks: 1
EditorBookmarks: 65898

[Metadata]
Title:Nowhere
Artist:Yuki Kajiura
Creator:ignorethis
Version:Easy
Source:Madlax
Tags:Nowhere Madlax Yuki Kajiura

[Difficulty]
HPDrainRate:6
CircleSize:3
OverallDifficulty:2
SliderMultiplier:1
SliderTickRate:1

[Events]
//Background and Video events
0,0,"1.jpg"
//Break Periods
2,38131,49268
//Storyboard Layer 0 (Background)
4,0,0,"1.jpg",0,0 F,0,0,0,0,1 F,0,64605,65605,1,0
4,0,0,"2.jpg",0,0 F,0,65705,66705,0,1 F,0,146282,147282,1,0 F,0,147282,147469,0,0 M,0,147469,147469,0,0,0,0
4,0,0,"3.jpg",0,0 F,0,147382,148382,0,1 F,0,217398,225750,1,0
//Storyboard Layer 1 (Failing)
//Storyboard Layer 2 (Passing)
//Storyboard Layer 3 (Foreground)
//Storyboard Sound Samples
//Background Colour Transformations
3,100,0,0,0

[TimingPoints]
13147,387.096774193548,4,1,0,79,1

[Colours]
Combo1 : 255,0,128
Combo2 : 5,240,5
Combo3 : 5,5,240
Combo4 : 240,5,5
Combo5 : 255,150,0

[HitObjects]
72,96,13146,1,0
176,96,13921,1,0
280,96,14695,1,0
384,96,15469,2,2,B|384:216,1,100
384,248,16243,5,0
288,200,17017,1,0
192,152,17792,2,2,B|88:88,3,100
80,144,19340,1,4
80,248,20114,5,0
176,280,20888,1,0
272,240,21663,2,2,B|336:240,3,50
344,240,22437,1,0
464,88,23211,6,0,B|352:88,1,100
304,168,23985,1,0
216,216,24372,1,0
128,256,24759,1,0
64,184,25146,1,2
64,88,25534,1,4
256,48,26308,5,0
432,144,27082,1,0
256,224,27856,2,0,B|160:280,1,100
80,240,28630,1,2
176,64,29405,5,0
368,96,30179,1,0
328,288,30953,1,4
280,288,31146,1,4
232,288,31340,1,4
184,288,31534,1,4
136,288,31727,1,4
48,112,32501,5,0
240,112,33276,2,0,B|352:112,1,100
432,136,34050,1,0
392,168,34243,1,0
432,192,34437,1,0
392,224,34630,1,0
432,248,34824,1,4
256,336,35598,5,2
48,224,36372,2,0,B|400:-8,1,400
72,96,50308,6,2,B|168:144|280:88,2,200
72,192,52243,1,2
72,288,52630,1,6
256,352,53405,6,0,B|256:232|296:152,1,200
384,120,54566,2,0,B|432:88,2,50
424,160,55146,1,0
376,176,55340,1,0
280,208,55727,1,6
192,160,56114,5,0
104,120,56501,2,0,B|64:176|104:232,2,100
192,72,57663,1,0
272,120,58050,2,2,B|320:160|288:232,2,100
136,264,59598,6,4,B|232:328|336:256,3,200
464,208,62501,6,0,B|408:160,1,50
368,96,63082,1,0
272,88,63469,1,0
176,88,63856,1,0
80,88,64243,1,4
32,176,64630,1,4
112,224,65017,1,6
112,224,65211,1,6
112,224,65405,1,6
