osu file format v9

[General]
AudioFilename: Mezame.mp3
AudioLeadIn: 0
PreviewTime: 76280
Countdown: 0
SampleSet: Normal
StackLeniency: 1
Mode: 0
LetterboxInBreaks: 1
EpilepsyWarning: 1

[Editor]
Bookmarks: 7343,59014
DistanceSpacing: 1
BeatDivisor: 4
GridSize: 8

[Metadata]
Title:Mezame
Artist:Yuki Kajiura
Creator:mercury2004
Version:Natsuki
Source:Mai-HiME
Tags:My-HiME Victor Entertainment FLYING dog

[Difficulty]
HPDrainRate:4
CircleSize:4
OverallDifficulty:5
ApproachRate:8
SliderMultiplier:1.8
SliderTickRate:2

[Events]
//Background and Video events
0,0,"Natsuki.jpg"
//Break Periods
2,130480,150342
//Storyboard Layer 0 (Background)
Sprite,Background,Centre,"SB\Natsuki_sb.jpg",320,240 F,0,39859,40234,1,0 S,0,39859,40234,1,2.6704 F,0,52234,52609,1,0 S,0,52234,52609,1.002764,2.417165 F,0,63859,64234,1,0 S,0,63859,64234,0.996365,2.417165 S,0,64234,,2.417165 F,0,76234,76562,1,0 S,0,76234,76609,0.9963648,1.847565 F,0,85234,85609,1,0 S,0,85234,85609,1.004215,1.906615 F,0,100234,,1 F,0,100234,100609,1,0 S,0,100234,100609,0.9914154,2.277815 F,0,109234,109609,1,0 S,0,109234,109609,0.9978153,2.124215 F,0,180484,180859,1,0 S,0,180484,180859,0.9978154,1.874615 F,0,187234,187609,1,0.02133334 S,0,187234,187609,0.9978154,1.874615
Sprite,Background,Centre,"SB\natsuki_grey.jpg",320,240 F,0,15859,,1 F,0,28234,28515,0.7903999,0 S,0,28234,28515,1,2.990229 F,0,28515,,0 F,0,130234,,0 F,0,130234,,0 S,0,130234,,0.9998297 F,0,130234,149734,0,1 F,0,149734,152734,1 F,0,152734,153859,1 F,0,153859,178234,1
Sprite,Background,Centre,"SB\natsuki_grey_blur.jpg",320,240 F,0,152734,153859,0,1 F,0,153859,156390,1,0.9997231 F,0,156390,156484,0.9997231,0.3821129 F,0,156484,157234,0.3821129,1 F,0,157234,159390,1,0.9997262 F,0,159390,159484,0.9997262,0 F,0,159484,160234,0,0.9996191 F,0,160234,161265,0.9996191,0.9994881 F,0,161265,161359,0.9994881,0 F,0,161359,161734,0,0.9994286 F,0,161734,161827,0.9994286,0 F,0,161827,162109,0,0.9993809 F,0,162109,162202,0.9993809,0 F,0,162202,162484,0,0.9993333 F,0,162484,162577,0.9993333,0 F,0,162577,163234,0,0.9992381 F,0,163234,178187,0.9992381,0.9973392 F,0,178187,178234,0.9973392 F,0,178234,178609,0.9973392,0 S,0,178234,178609,1,1.384
//Storyboard Layer 1 (Fail)
//Storyboard Layer 2 (Pass)
//Storyboard Layer 3 (Foreground)
Sprite,Foreground,Centre,"flash.png",320,240 F,0,28187,28234,0.1093333,1 F,0,28234,,1 F,0,28234,28609,0.567312,0 F,0,28609,,0 F,0,39812,39859,0,1 F,0,39859,,1 F,0,39859,,0 F,0,39859,40234,1,0 F,0,52187,52234,0,1 F,0,52234,52609,1,0 F,0,63812,63859,0,1 F,0,63859,64234,1,0 F,0,76187,76224,0,1 F,0,76224,,1 F,0,76224,76609,1,0 F,0,83312,83349,0.5665714,1 F,0,83349,83724,1,0 F,0,83724,,0 F,0,84062,84099,0.5595238,1 F,0,84099,84474,1,0.03699198 F,0,84812,84849,0.5595238,1 F,0,84849,85130,1,0 F,0,85187,85224,0,1 F,0,85224,85609,1,0 F,0,100187,100224,0,1 F,0,100224,100609,1,0 F,0,102437,102474,0,1 F,0,102474,102859,1,0 F,0,105437,105474,0.06941563,1 F,0,105474,105859,1,0 F,0,107312,107349,0,1 F,0,107349,107734,1,0 F,0,108062,108099,0,1 F,0,108099,108484,1,0 F,0,108812,108849,0,1 F,0,108849,109140,1,0 F,0,109187,109224,0,1 F,0,109224,109692,1,0 F,0,112187,112224,0,0.7767093 F,0,112224,112599,0.7767093,0 F,0,178187,178224,0,1 F,0,178224,178599,1,0 F,0,180437,180474,0,0.97372 F,0,180474,180849,0.97372,0 F,0,183437,183474,0,1 F,0,183474,183849,1,0 F,0,185312,185349,0.01038635,0.488 F,0,185349,185359,0.488,1 F,0,185359,185536,1,0 F,0,185687,185724,0.03845922,0.4848 F,0,185724,185734,0.4848,1 F,0,185734,185911,1,0 F,0,186062,186099,0.02885915,0.7040591 F,0,186099,186109,0.7040591,1 F,0,186109,186286,1,0 F,0,186437,186474,0,0.5632593 F,0,186474,186484,0.5632593,1 F,0,186484,186661,1,0 F,0,186812,186849,0,0.505659 F,0,186849,186859,0.505659,1 F,0,186859,187036,1,0 F,0,187187,187224,0,1 F,0,187224,187234,1 F,0,187234,187609,1,0.231866
Sprite,Foreground,Centre,"blackout.png",320,240 F,0,0,342,0,1 F,0,15906,,1 F,0,15906,,1 F,0,15906,28234,1,0.5801418 F,0,28234,28281,0.5801418,0 F,0,28234,28281,0.5801418,0.01280014 F,0,28281,,0 F,0,28281,,0 F,0,50781,51531,0,1 F,0,51531,52234,1 F,0,52234,52275,1,0 F,0,99156,99906,0,1 F,0,99906,100234,1 F,0,100234,100281,1,0.002082327 F,0,130275,130368,0.05759995 F,0,130368,153525,0.05759995,0.3679999 F,0,153525,156437,0.3679999,0.4146861 F,0,156437,156531,0.4146861,0.2273931 F,0,156531,157281,0.2273931,0.4645692 F,0,157281,159437,0.4645692,0.4947809 F,0,159437,159531,0.4947809,0.2112981 F,0,159531,160281,0.2112981,0.5066077 F,0,160281,161312,0.5066077,0.5274547 F,0,161312,161406,0.5274547,0.4327722 F,0,161406,161781,0.4327722,0.5276269 F,0,161781,161874,0.5276269,0.3817301 F,0,161874,162531,0.3817301,0.5381365 F,0,162531,162624,0.5381365,0.3090397 F,0,162624,163281,0.3090397,0.5486462 F,0,163281,163374,0.5486462,0.3163493 F,0,163374,164031,0.3163493,0.5591558 F,0,164031,175281,0.5591558,0.7168 F,0,175281,177062,0.7168,1 F,0,177062,178181,1 F,0,178181,178187,0,1 F,0,178187,178275,1,0 F,0,178275,178281,0
//Storyboard Sound Samples
//Background Colour Transformations
3,100,163,162,255

[TimingPoints]
1280,375,4,1,2,50,1,0
75530,-200,4,1,2,50,0,0
75905,-100,4,1,2,60,0,0
76280,-100,4,1,2,60,0,1
100186,-100,4,1,2,60,0,0
100280,-100,4,1,2,60,0,1
130280,-100,4,1,2,60,0,0
150905,-100,4,1,2,10,0,0
154280,-200,4,2,2,40,0,0
177530,-200,4,1,2,40,0,0
178280,-100,4,1,2,65,0,1
208280,-100,4,1,2,65,0,0

[Colours]
Combo1 : 159,179,202
Combo2 : 15,78,153

[HitObjects]
256,192,26780,12,12,28280
336,16,28655,6,0,L|336:120|272:216,1,180,0|8
216,224,29217,1,0
208,320,29405,2,0,L|320:320,2,90,0|0|8
128,256,29967,1,0
200,184,30155,1,8
168,32,30530,6,0,L|240:88|336:16,2,180,8|0|12
120,120,31467,1,0
48,192,31655,1,0
120,256,31842,1,0
192,312,32030,2,0,L|192:112,2,180,8|0|8
280,312,32967,5,0
352,264,33155,1,8
280,200,33342,1,0
352,152,33530,1,12
280,96,33717,1,0
352,40,33905,1,8
224,144,34280,6,8,L|224:360,1,180,12|0
136,352,34842,1,0
64,296,35030,2,0,L|64:176,1,90,8|0
160,112,35405,2,0,L|48:112,2,90,0|0|8
136,208,35967,1,0
232,200,36155,2,0,L|312:128|408:128,2,180,8|8|8
320,216,37092,5,0
360,288,37280,2,0,L|272:320|168:280,2,180,8|0|8
272,232,38217,1,0
192,184,38405,2,0,L|272:152|392:192,1,180,0|8
368,96,38967,5,0
440,144,39155,1,0
440,232,39342,1,0
368,280,39530,1,8
408,88,39905,6,8,L|312:88|224:88|224:88,1,180,4|8
144,128,40467,1,0
216,184,40655,1,8
144,240,40842,1,0
216,288,41030,1,0
144,344,41217,1,0
232,368,41405,6,0,L|344:368|416:312,1,180,4|8
416,232,41967,2,0,L|368:208|368:144,1,90,0|8
368,171,42342,1,0
432,104,42530,2,0,L|376:64|224:64,1,180,8|0
93,121,43280,6,0,B|93:217|125:281|197:313|293:321|373:321,1,360,12|8
408,264,44217,1,0
344,208,44405,2,0,B|232:208,2,90,0|0|8
432,184,44967,1,0
360,128,45155,1,8
440,88,45342,1,0
368,40,45530,2,0,B|264:40|152:72|72:136|48:184|48:184,1,360,8|12
256,192,46373,12,12,47780
256,120,48155,5,0
328,192,48342,1,0
400,120,48530,1,8
328,192,48717,1,0
256,256,48905,1,0
184,192,49092,1,0
184,192,49280,2,8,L|64:192,2,90
88,280,49842,1,0
88,280,50030,2,8,L|208:280,2,90,8|0|8
144,352,50592,5,0
64,320,50780,2,0,L|24:232|56:112,1,180,8|0
128,120,51342,1,0
200,168,51530,2,0,L|277:213|370:165,2,180,8|0|12
128,224,52467,6,0,L|128:344,1,90
208,272,52842,1,0
288,224,53030,2,0,L|288:144|288:104,1,90,8|0
232,64,53405,2,0,L|128:64,2,90,0|0|8
288,136,53967,1,0
344,64,54155,1,8
440,248,54530,6,0,B|400:328|368:352|320:360|288:360,2,180,8|0|8
352,192,55467,1,0
264,248,55655,1,8
184,192,55842,1,0
96,144,56030,2,0,B|168:88|200:72|264:72|296:72,2,180,8|0|8
56,240,56967,5,0
128,312,57155,1,8
200,240,57342,1,0
272,312,57530,1,0
336,240,57717,1,0
400,312,57905,2,0,B|448:296|480:248,1,90,8|0
360,120,58280,6,0,B|264:80|152:128,2,180,12|0|8
408,208,59217,1,0
352,288,59405,2,0,B|256:328|144:280,1,180,8|12
104,200,59967,2,0,L|-8:200,2,90,0|8|0
104,96,60530,2,0,L|312:96,2,180,8|0|8
104,192,61467,1,0
184,248,61655,1,8
280,248,61842,1,0
360,184,62030,6,0,L|416:96|344:24,2,180,8|0|8
344,272,62967,2,0,L|264:336,1,90,0|8
240,256,63342,2,0,L|152:192,1,90,0|8
72,48,63905,6,0,L|160:32|264:48,1,180,0|8
296,120,64467,1,0
248,200,64655,2,0,L|152:200|88:144,1,180,8|8
32,216,65217,1,0
72,296,65405,2,0,L|136:360|248:360,1,180,8|8
320,360,65967,1,0
392,296,66155,1,8
312,232,66342,1,0
392,176,66530,1,8
312,120,66717,1,0
392,56,66905,1,8
192,40,67280,6,0,B|56:88|32:144|32:208|32:288|32:320|32:352,1,360,8|8
128,320,68217,1,0
192,248,68405,2,0,L|232:184|368:152,1,180,8|8
416,224,68967,1,0
424,320,69155,1,8
328,328,69342,1,0
312,232,69530,2,0,L|304:144|208:64,1,180,8|0
233,85,70280,1,12
256,192,70373,12,0,74780
256,128,75530,6,0,B|256:224,1,90,10|2
352,352,76280,5,10
256,344,76467,1,0
160,320,76655,2,0,B|96:280|176:232,1,90
88,168,77030,1,10
128,88,77217,1,0
208,136,77405,1,0
168,216,77592,1,0
208,288,77780,5,14
296,240,77967,2,0,B|376:144,1,90,0|10
208,32,78530,2,0,B|99:103|150:208,1,180,14|2
140,184,79092,2,0,B|184:280,1,90,2|14
264,312,79467,1,0
360,296,79655,5,0
448,248,79842,1,0
416,160,80030,1,14
328,176,80217,1,0
288,96,80405,1,0
200,128,80592,1,0
160,48,80780,1,14
72,48,80967,1,0
24,120,81155,1,10
88,184,81342,1,0
88,184,81530,6,0,B|168:96,1,90,10|2
160,208,81905,2,0,B|80:296,1,90,2|0
192,272,82280,2,0,B|272:184,1,90,14|0
320,136,82655,2,0,B|416:88|536:144,2,180,2|8|2
248,88,83592,6,0,B|160:16,1,90,0|10
128,112,83967,2,0,B|40:200,1,90,0|2
152,208,84342,2,0,B|240:280,1,90,0|10
256,176,84717,2,0,B|344:88,1,90,0|2
288,32,85092,1,0
216,112,85280,6,0,B|120:80|0:120,2,180,14|0|14
168,184,86217,2,0,B|64:192,1,90
168,184,86592,2,0,B|104:288,1,90,0|14
168,184,86967,2,0,B|232:288,1,90,0|10
272,328,87342,1,0
360,320,87530,1,12
368,232,87717,1,2
448,200,87905,1,10
464,112,88092,1,0
376,80,88280,6,0,B|272:136|168:72,1,180,14|2
128,136,88842,1,2
64,200,89030,2,0,B|168:256|272:216,1,180,14|2
296,296,89592,1,0
392,312,89780,2,0,B|488:256|480:152,2,180,14|0|14
320,240,90717,2,0,B|240:144,1,90
201,237,91092,2,0,B|113:165,1,90,0|10
88,272,91467,2,0,B|-24:224,1,90,0|8
40,144,91842,5,0
123,198,92030,1,10
207,146,92217,1,0
282,210,92405,1,2
366,158,92592,1,0
416,243,92780,2,4,B|352:328|232:328,1,180,14|4
176,296,93342,1,0
96,264,93530,1,10
136,184,93717,1,0
216,216,93905,1,6
424,288,94280,6,0,B|304:352|224:296,1,180,10|0
136,312,94842,1,0
40,344,95030,2,0,B|144:416|232:336,2,180,10|2|10
24,256,95967,2,0,B|112:192,1,90,2|8
120,112,96342,2,0,B|224:192,1,90,2|8
280,184,96717,1,0
288,64,96905,5,14
400,96,97092,2,0,B|312:168|296:168,1,90,0|10
408,192,97467,2,0,B|320:264|312:272,1,90,0|2
408,296,97842,2,0,B|320:368|304:368,1,90,0|10
248,352,98217,2,4,B|120:336|64:272,1,180,6|4
168,256,98780,2,0,B|56:168|40:104,1,180,10|6
256,192,99342,12,12,100280
240,88,100467,6,0,B|344:24,1,90,0|4
360,128,100842,2,0,B|456:208,1,90,0|2
352,240,101217,2,0,B|280:312,1,90,0|4
184,280,101592,2,0,B|88:312,1,90,0|10
56,200,101967,2,4,B|112:88,1,90,0|10
176,48,102342,1,0
256,112,102530,6,0,B|256:304,1,180,10|2
344,264,103092,2,0,B|344:160,1,90,2|10
424,104,103467,1,0
352,40,103655,1,4
272,104,103842,1,0
192,40,104030,1,14
112,104,104217,1,0
112,208,104405,6,0,B|16:208,2,90,0|0|10
160,296,104967,2,0,B|256:344|256:352,1,90,0|6
272,248,105342,1,0
320,168,105530,2,0,B|392:200|488:248,2,180,10|2|10
352,72,106467,2,0,B|272:0,1,90,0|2
208,72,106842,2,0,B|96:32,1,90,0|14
72,112,107217,1,0
120,184,107405,1,2
120,184,107592,6,0,B|168:208|248:176,1,90,0|10
256,64,107967,2,0,B|232:112|264:192,1,90,0|2
384,192,108342,2,8,B|336:168|256:200,1,90,8|10
256,320,108717,2,0,B|280:272|248:192,1,90,0|2
256,192,109092,5,0
256,192,109280,1,14
256,192,109373,12,8,111530
56,184,112280,6,0,B|56:64|160:32,2,180,2|2|2
96,264,113217,1,0
176,216,113405,2,0,B|192:152|264:152,2,90,0|0|10
248,264,113967,1,0
304,336,114155,1,2
384,288,114342,1,0
464,336,114530,2,0,B|520:272|512:128,1,180,14|0
416,232,115092,1,0
336,288,115280,2,0,B|280:224|288:80,1,180,14|0
88,40,115842,6,0,B|200:80,1,90,0|10
112,144,116217,2,0,B|224:112,1,90,0|8
192,216,116592,2,8,B|256:120,1,90,0|10
312,80,116967,1,0
376,16,117155,1,0
440,80,117342,1,2
376,144,117530,1,10
312,80,117717,1,0
224,80,117905,1,10
32,248,118280,6,0,B|96:336|208:336,1,180,10|0
184,240,118842,2,8,B|272:296,1,90,0|10
272,200,119217,2,0,B|336:304,1,90,0|2
368,200,119592,2,0,B|392:312,1,90,0|10
456,352,119967,1,0
496,272,120155,1,2
416,240,120342,1,2
480,176,120530,1,8
400,144,120717,1,2
448,64,120905,1,2
160,80,121280,6,0,B|24:200|168:312,2,270,10|0|10
344,80,122780,2,0,B|480:200|336:312,2,270,10|0|10
256,192,124280,1,14
256,192,124373,12,0,130280
256,192,151092,12,0,154280
80,104,154467,6,0,L|136:104,2,45
56,152,155030,1,2
80,200,155217,1,0
72,248,155405,1,0
120,280,155592,1,0
168,256,155780,1,2
216,280,155967,1,0
264,304,156155,1,0
312,280,156342,1,0
360,264,156530,6,0,L|360:368,2,90,2|0|2
408,280,157467,1,0
440,240,157655,1,0
400,208,157842,1,0
440,176,158030,1,2
400,144,158217,1,0
440,112,158405,1,0
400,80,158592,1,0
440,48,158780,1,2
392,24,158967,2,0,L|328:24,1,45,0|0
288,24,159342,1,0
256,64,159530,6,0,L|160:64,2,90,2|0|2
232,104,160467,2,2,L|184:104,1,45
200,152,160842,2,2,L|144:152,1,45,2|2
96,152,161217,1,0
96,200,161405,6,2,L|192:200,5,90,2|2|2|2|2|2
200,248,163467,1,0
200,296,163655,1,0
232,328,163842,1,0
272,296,164030,1,2
312,328,164217,1,0
352,296,164405,1,0
384,328,164592,2,0,L|384:272,1,45,0|2
432,288,164967,2,2,L|432:232,1,45
384,240,165342,2,2,L|384:176,1,45,2|2
432,200,165717,2,2,L|432:136,1,45,2|0
432,96,166092,1,0
432,48,166280,6,0,L|328:48,1,90,2|0
296,80,166842,1,0
264,48,167030,2,0,L|160:48,1,90,2|0
136,72,167592,1,0
152,120,167780,2,0,L|248:120,1,90,2|0
280,160,168342,1,0
256,208,168530,2,2,L|160:208,2,90,2|2|2
256,256,169467,5,0
256,304,169655,1,0
304,304,169842,1,0
344,328,170030,1,2
392,304,170217,1,0
432,328,170405,1,0
480,304,170592,1,0
480,256,170780,6,2,L|480:160,1,90,2|2
392,136,171530,1,2
312,96,171905,1,2
208,32,172280,6,0,L|112:32,1,90,2|0
72,72,172842,1,0
104,112,173030,1,2
72,152,173217,1,0
104,192,173405,1,0
72,224,173592,1,0
104,256,173780,2,0,B|160:256,1,45
160,296,174155,6,2,L|264:296|264:296,2,90,2|0|2
160,296,175092,5,0
176,256,175280,1,2
152,216,175467,1,0
176,176,175655,1,0
152,136,175842,1,0
176,96,176030,2,0,B|272:96,2,90,2|0|2
264,96,177155,1,2
336,200,177530,6,0,B|288:256|232:256|176:192,1,180,2|14
96,128,178467,5,0
96,128,178655,2,0,B|160:40,1,90,4|0
224,104,179030,2,0,B|344:120,1,90,10|0
264,192,179405,2,0,B|192:248,1,90,4|0
264,304,179780,2,0,B|360:344,1,90,10|0
432,312,180155,2,0,B|488:200,1,90,6|0
400,176,180530,6,0,B|288:176,1,90,10|2
344,96,180905,2,0,B|240:96,1,90,2|0
304,176,181280,2,0,B|192:176,1,90,10|0
144,120,181655,1,2
72,176,181842,1,0
136,240,182030,1,12
160,328,182217,1,0
160,328,182405,2,0,B|280:328,1,90,2|0
256,224,182780,2,0,B|352:160,1,90,10|0
280,88,183155,2,0,B|344:0,1,90,6|0
376,96,183530,6,0,B|408:192|384:296,2,180,10|2|10
304,160,184467,1,0
232,224,184655,1,6
152,160,184842,1,0
72,224,185030,1,10
0,160,185217,1,4
104,160,185405,6,0,B|200:96,1,90
184,224,185780,2,0,B|280:288,1,90,8|0
264,160,186155,2,0,B|360:96,1,90
352,232,186530,2,0,B|424:288,4,90,10|0|2|0|14
256,192,187373,12,8,190280
240,160,190655,1,2
152,128,190842,1,0
224,64,191030,2,0,B|360:24|432:32,2,180,14|2|14
240,160,191967,1,0
328,216,192155,1,0
400,144,192342,2,0,B|432:232|448:272|440:256,1,90,0|14
360,304,192717,2,0,B|240:336,1,90
184,272,193092,2,0,B|72:240,1,90,0|10
96,144,193467,6,0,B|24:80,2,90
96,144,194030,1,10
128,56,194217,1,0
224,48,194405,2,0,B|248:160,1,90
328,96,194780,2,0,B|272:176,1,90,10|0
376,160,195155,2,0,B|280:224,1,90
168,280,195530,5,10
40,216,195717,1,0
112,96,195905,1,14
328,8,196280,6,0,B|448:24|480:128,1,180,10|0
408,168,196842,1,0
480,224,197030,2,0,B|464:344|360:384,1,180,10|0
320,312,197592,1,0
248,368,197780,2,0,B|128:352|88:264,1,180,10|2
160,216,198342,1,0
80,168,198530,1,10
160,128,198717,1,0
80,88,198905,1,14
280,40,199280,6,0,B|464:40,1,180,10|0
408,112,199842,2,0,B|192:112,1,180,10|0
288,184,200405,2,0,B|96:184,2,180,10|8|10
320,272,201342,2,0,B|392:272,2,45,0|0|2
240,336,201717,1,0
160,280,201905,1,10
88,336,202092,1,0
16,280,202280,1,4
256,192,202373,12,4,208280
