osu file format v9

[General]
AudioFilename: Mezame.mp3
AudioLeadIn: 0
PreviewTime: 76280
Countdown: 0
SampleSet: Normal
StackLeniency: 1
Mode: 0
LetterboxInBreaks: 1
EpilepsyWarning: 1

[Editor]
Bookmarks: 7343,59014
DistanceSpacing: 1
BeatDivisor: 4
GridSize: 8

[Metadata]
Title:Mezame
Artist:Yuki Kajiura
Creator:mercury2004
Version:Mikoto
Source:Mai-HiME
Tags:My-HiME Victor Entertainment FLYING dog

[Difficulty]
HPDrainRate:3
CircleSize:3
OverallDifficulty:3
ApproachRate:3
SliderMultiplier:0.999999999999999
SliderTickRate:2

[Events]
//Background and Video events
0,0,"Mikoto.jpg"
//Break Periods
2,130480,147965
//Storyboard Layer 0 (Background)
Sprite,Background,Centre,"SB\Mikoto_sb.jpg",320,240 F,0,39859,40234,1,0 S,0,39859,40234,1,2.6704 F,0,52234,52609,1,0 S,0,52234,52609,1.002764,2.417165 F,0,63859,64234,1,0 S,0,63859,64234,0.996365,2.417165 S,0,64234,,2.417165 F,0,76234,76562,1,0 S,0,76234,76609,0.9963648,1.847565 F,0,85234,85609,1,0 S,0,85234,85609,1.004215,1.906615 F,0,100234,,1 F,0,100234,100609,1,0 S,0,100234,100609,0.9914154,2.277815 F,0,109234,109609,1,0 S,0,109234,109609,0.9978153,2.124215 F,0,180484,180859,1,0 S,0,180484,180859,0.9978154,1.874615 F,0,187234,187609,1,0.02133334 S,0,187234,187609,0.9978154,1.874615
Sprite,Background,Centre,"SB\mikoto_grey.jpg",320,240 F,0,15859,,1 F,0,28234,28515,0.7903999,0 S,0,28234,28515,1,2.990229 F,0,28515,,0 F,0,130234,,0 F,0,130234,,0 S,0,130234,,0.9998297 F,0,130234,149734,0,1 F,0,149734,152734,1 F,0,152734,153859,1 F,0,153859,178234,1
Sprite,Background,Centre,"SB\mikoto_grey_blur.jpg",320,240 F,0,152734,153859,0,1 F,0,153859,156390,1,0.9997231 F,0,156390,156484,0.9997231,0.3821129 F,0,156484,157234,0.3821129,1 F,0,157234,159390,1,0.9997262 F,0,159390,159484,0.9997262,0 F,0,159484,160234,0,0.9996191 F,0,160234,161265,0.9996191,0.9994881 F,0,161265,161359,0.9994881,0 F,0,161359,161734,0,0.9994286 F,0,161734,161827,0.9994286,0 F,0,161827,162109,0,0.9993809 F,0,162109,162202,0.9993809,0 F,0,162202,162484,0,0.9993333 F,0,162484,162577,0.9993333,0 F,0,162577,163234,0,0.9992381 F,0,163234,178187,0.9992381,0.9973392 F,0,178187,178234,0.9973392 F,0,178234,178609,0.9973392,0 S,0,178234,178609,1,1.384
//Storyboard Layer 1 (Fail)
//Storyboard Layer 2 (Pass)
//Storyboard Layer 3 (Foreground)
Sprite,Foreground,Centre,"flash.png",320,240 F,0,28187,28234,0.1093333,1 F,0,28234,,1 F,0,28234,28609,0.567312,0 F,0,28609,,0 F,0,39812,39859,0,1 F,0,39859,,1 F,0,39859,,0 F,0,39859,40234,1,0 F,0,52187,52234,0,1 F,0,52234,52609,1,0 F,0,63812,63859,0,1 F,0,63859,64234,1,0 F,0,76187,76224,0,1 F,0,76224,,1 F,0,76224,76609,1,0 F,0,83312,83349,0.5665714,1 F,0,83349,83724,1,0 F,0,83724,,0 F,0,84062,84099,0.5595238,1 F,0,84099,84474,1,0.03699198 F,0,84812,84849,0.5595238,1 F,0,84849,85130,1,0 F,0,85187,85224,0,1 F,0,85224,85609,1,0 F,0,100187,100224,0,1 F,0,100224,100609,1,0 F,0,102437,102474,0,1 F,0,102474,102859,1,0 F,0,105437,105474,0.06941563,1 F,0,105474,105859,1,0 F,0,107312,107349,0,1 F,0,107349,107734,1,0 F,0,108062,108099,0,1 F,0,108099,108484,1,0 F,0,108812,108849,0,1 F,0,108849,109140,1,0 F,0,109187,109224,0,1 F,0,109224,109692,1,0 F,0,112187,112224,0,0.7767093 F,0,112224,112599,0.7767093,0 F,0,178187,178224,0,1 F,0,178224,178599,1,0 F,0,180437,180474,0,0.97372 F,0,180474,180849,0.97372,0 F,0,183437,183474,0,1 F,0,183474,183849,1,0 F,0,185312,185349,0.01038635,0.488 F,0,185349,185359,0.488,1 F,0,185359,185536,1,0 F,0,185687,185724,0.03845922,0.4848 F,0,185724,185734,0.4848,1 F,0,185734,185911,1,0 F,0,186062,186099,0.02885915,0.7040591 F,0,186099,186109,0.7040591,1 F,0,186109,186286,1,0 F,0,186437,186474,0,0.5632593 F,0,186474,186484,0.5632593,1 F,0,186484,186661,1,0 F,0,186812,186849,0,0.505659 F,0,186849,186859,0.505659,1 F,0,186859,187036,1,0 F,0,187187,187224,0,1 F,0,187224,187234,1 F,0,187234,187609,1,0.231866
Sprite,Foreground,Centre,"blackout.png",320,240 F,0,0,342,0,1 F,0,15906,,1 F,0,15906,,1 F,0,15906,28234,1,0.5801418 F,0,28234,28281,0.5801418,0.01280014 F,0,28234,28281,0.5801418,0 F,0,28281,,0 F,0,28281,,0 F,0,50781,51531,0,1 F,0,51531,52234,1 F,0,52234,52275,1,0 F,0,99156,99906,0,1 F,0,99906,100234,1 F,0,100234,100281,1,0.002082327 F,0,130275,130368,0.05759995 F,0,130368,153525,0.05759995,0.3679999 F,0,153525,156437,0.3679999,0.4146861 F,0,156437,156531,0.4146861,0.2273931 F,0,156531,157281,0.2273931,0.4645692 F,0,157281,159437,0.4645692,0.4947809 F,0,159437,159531,0.4947809,0.2112981 F,0,159531,160281,0.2112981,0.5066077 F,0,160281,161312,0.5066077,0.5274547 F,0,161312,161406,0.5274547,0.4327722 F,0,161406,161781,0.4327722,0.5276269 F,0,161781,161874,0.5276269,0.3817301 F,0,161874,162531,0.3817301,0.5381365 F,0,162531,162624,0.5381365,0.3090397 F,0,162624,163281,0.3090397,0.5486462 F,0,163281,163374,0.5486462,0.3163493 F,0,163374,164031,0.3163493,0.5591558 F,0,164031,175281,0.5591558,0.7168 F,0,175281,177062,0.7168,1 F,0,177062,178181,1 F,0,178181,178187,0,1 F,0,178187,178275,1,0 F,0,178275,178281,0
//Storyboard Sound Samples
//Background Colour Transformations
3,100,163,162,255

[TimingPoints]
1280,375,4,1,2,55,1,0
76280,-100,4,1,2,60,0,1
100186,-100,4,1,2,60,0,0
100280,-100,4,1,2,60,0,1
130280,-100,4,1,2,60,0,0
149311,-100,4,2,2,50,0,0
153155,-166.666666666667,4,2,2,50,0,0
177436,-166.666666666667,4,1,2,50,0,0
178280,-100,4,1,2,70,0,1
208280,-100,4,1,2,50,0,0

[Colours]
Combo1 : 234,230,236
Combo2 : 179,54,205

[HitObjects]
256,192,26780,12,0,28280
72,248,29030,2,0,B|120:336|256:320,1,200,8|0
312,248,30155,1,8
392,320,30530,6,0,B|496:320,2,99.9999999999999
288,320,31655,1,8
232,240,32030,1,0
288,160,32405,1,8
288,64,32780,2,0,B|392:64,2,99.9999999999999
192,64,33905,6,0,B|104:88|96:120,1,99.9999999999999
104,208,34655,1,8
32,280,35030,1,0
104,352,35405,6,0,B|224:352,2,99.9999999999999
152,264,36530,2,4,B|184:224|256:224,2,99.9999999999999,0|0|4
136,168,37655,2,0,B|80:128|32:128,1,99.9999999999999,8|0
104,56,38405,1,8
200,72,38780,1,4
400,184,39905,6,0,B|400:304,1,99.9999999999999,0|4
304,312,40655,1,8
208,344,41030,1,0
112,312,41405,2,0,B|56:280|64:208,1,99.9999999999999,8|0
152,168,42155,1,8
80,96,42530,1,8
160,32,42905,1,8
256,32,43280,6,0,B|376:32|376:176,1,200
408,256,44405,1,8
324,308,44780,2,0,B|280:304|248:280|240:236,1,99.9999999999999
316,184,45530,2,0,B|360:188|392:212|400:256,1,99.9999999999999
256,192,46280,12,0,49655
256,192,50405,5,0
300,256,50780,2,0,B|260:296|212:256,1,99.9999999999999
208,128,51530,2,0,B|256:84|308:132,1,99.9999999999999
392,168,52280,1,4
456,240,52655,1,8
416,328,53030,1,0
320,320,53405,6,0,B|248:320|240:248,1,99.9999999999999,8|0
152,232,54155,1,0
88,152,54530,2,0,B|-16:152,2,99.9999999999999
168,96,55655,1,8
256,56,56030,2,0,B|368:56,2,99.9999999999999
256,152,57155,1,8
256,248,57530,1,0
336,312,57905,6,0,B|392:288|392:224,1,99.9999999999999,0|4
392,136,58655,2,0,B|384:80|320:56,1,99.9999999999999,8|0
240,64,59405,1,8
144,64,59780,1,0
48,64,60155,1,8
88,152,60530,6,0,B|-24:152,2,99.9999999999999,0|0|4
168,216,61655,1,8
256,272,62030,2,0,B|368:272,2,99.9999999999999,0|0|4
496,92,63905,6,0,B|464:36|408:20,1,99.9999999999999,0|4
352,144,64655,1,8
272,80,65030,1,0
192,144,65405,2,0,B|112:136|96:192,1,99.9999999999999,8|0
104,272,66155,1,8
168,344,66530,1,8
240,272,66905,1,8
304,344,67280,6,0,B|416:344,2,99.9999999999999,0|0|0
216,288,68405,1,8
128,232,68780,1,0
64,152,69155,2,0,B|88:72|128:72,1,99.9999999999999,8|0
216,64,69905,1,0
256,192,70280,12,0,74030
104,216,74780,6,0,B|152:264|248:264|288:208,1,200,8|0
392,216,75905,1,0
472,160,76280,5,10
392,96,76655,2,0,B|352:48|288:56,1,99.9999999999999,2|8
256,136,77405,1,0
156,140,77780,2,0,B|76:140|60:212,1,99.9999999999999,8|0
128,264,78530,6,0,B|24:264,2,99.9999999999999,0|0|8
184,344,79655,1,2
248,264,80030,1,8
344,296,80405,1,2
432,224,80780,2,0,B|480:168|432:112,1,99.9999999999999,10|0
344,128,81530,6,0,B|344:16,2,99.9999999999999,10|0|10
256,72,82655,1,2
176,136,83030,1,8
168,236,83405,2,0,B|-8:236,1,99.9999999999999,0|8
124,316,84155,2,0,B|240:316,2,99.9999999999999,0|8|0
120,216,85280,2,0,B|216:176|320:216,2,200,10|2|2
312,264,87530,6,8,B|216:304|112:264,1,200,2|6
228,100,89030,2,0,B|268:52|324:52,2,99.9999999999999,10|0|10
224,200,90155,2,0,B|256:264|320:240,2,99.9999999999999,0|10|0
312,144,91280,2,0,B|368:152|416:112,1,99.9999999999999,10|0
416,32,92030,1,8
320,32,92405,1,2
240,112,92780,6,0,B|128:112,1,99.9999999999999,8|0
176,208,93530,2,0,B|40:208,1,99.9999999999999,10|2
128,296,94280,6,0,B|0:296,2,99.9999999999999,10|2|8
224,336,95405,1,0
320,296,95780,2,0,B|424:296,2,99.9999999999999,10|2|10
224,264,96905,1,0
256,192,97092,12,8,98780
40,200,99530,6,0,B|40:88,2,99.9999999999999,10|2|14
144,200,100655,1,0
240,200,101030,1,10
328,144,101405,2,0,B|376:112|432:152,1,99.9999999999999,0|10
424,248,102155,2,0,B|368:288|312:240,1,99.9999999999999,0|10
248,200,102905,6,0,B|144:200,1,99.9999999999999,2|10
48,200,103655,1,0
96,112,104030,2,0,B|208:112,1,99.9999999999999,10|0
240,200,104780,2,0,B|128:200,1,99.9999999999999,10|0
96,288,105530,6,0,B|216:288,1,99.9999999999999,8|2
280,336,106280,1,10
360,288,106655,1,0
448,232,107030,2,0,B|360:160,3,99.9999999999999,8|2|10|2
296,104,108530,1,10
256,192,108905,12,8,110780
64,160,111530,2,0,B|64:56,2,99.9999999999999,8|0|10
120,240,112655,1,2
240,232,113030,2,0,B|352:232,1,99.9999999999999,10|0
256,176,113780,2,0,B|144:176,2,99.9999999999999,10|2|10
336,120,114905,1,0
424,160,115280,2,0,B|496:104|376:64,1,99.9999999999999,10|0
328,48,116030,1,10
240,96,116405,1,2
152,48,116780,1,14
64,256,118280,6,0,B|112:328|192:320,1,99.9999999999999,8|0
240,328,119030,1,8
336,328,119405,2,0,B|448:328,2,99.9999999999999,0|10|2
336,232,120530,1,8
248,192,120905,1,0
248,96,121280,6,0,B|48:96,1,200,10|10
96,184,122405,2,0,B|208:184,1,99.9999999999999,0|10
248,272,123155,2,0,B|392:272,2,99.9999999999999,2|10|2
256,192,124280,12,4,130280
256,192,149405,12,0,152780
208,128,153530,6,0,B|216:80|288:80|296:136,1,120.000002861023,2|2
304,208,154655,1,0
304,288,155030,1,2
224,264,155405,1,0
144,288,155780,2,0,B|144:224,1,60.0000014305114,2|0
144,144,156530,6,0,B|144:80|160:72|216:72,1,120.000002861023,0|2
304,64,157655,2,0,B|376:64,1,60.0000014305114,0|2
408,144,158405,2,0,B|336:144,1,60.0000014305114,0|2
256,144,159155,1,0
168,144,159530,6,0,B|112:144|96:160|96:216,1,120.000002861023,2|2
160,280,160655,2,0,B|232:280,1,60.0000014305114,0|2
272,208,161405,2,0,B|200:208,2,60.0000014305114,0|2|0
296,296,162530,6,0,B|352:296|368:272|368:208,1,120.000002861023,2|2
376,128,163655,1,0
288,128,164030,1,2
200,128,164405,1,0
112,128,164780,1,2
56,200,165155,1,0
144,200,165530,6,0,B|264:200,1,120.000002861023,2|2
312,272,166655,1,0
368,200,167030,2,0,B|368:128,1,60.0000014305114,2|0
280,136,167780,2,0,B|280:200,1,60.0000014305114,2|0
192,200,168530,6,0,B|192:72,1,120.000002861023,2|2
112,32,169655,1,0
48,96,170030,1,2
48,184,170405,5,0
104,256,170780,2,0,B|176:256,1,60.0000014305114,2|0
256,256,171530,2,0,B|320:256,1,60.0000014305114,2|0
408,256,172280,2,0,B|464:224|464:152,1,120.000002861023,2|2
376,136,173405,1,0
320,64,173780,2,0,B|264:96|264:168,1,120.000002861023,2|2
312,240,174905,1,0
256,192,175280,12,0,176780
256,256,177530,6,0,B|256:128,1,120.000002861023,2|6
176,72,178655,5,0
104,144,179030,1,10
104,240,179405,2,0,B|184:336,1,99.9999999999999,2|10
232,240,180155,2,0,B|320:176,1,99.9999999999999,0|2
400,224,180905,1,2
432,128,181280,6,0,B|384:80|296:80|240:136,2,200,10|10|10
392,224,183155,1,0
304,272,183530,2,0,B|160:272,2,99.9999999999999,10|2|10
392,224,184655,5,0
304,176,185030,1,10
208,176,185405,2,0,B|96:176,1,99.9999999999999,2|10
152,88,186155,2,0,B|264:88,1,99.9999999999999,2|10
352,88,186905,1,2
256,192,187280,12,0,190280
176,88,191030,6,0,B|56:88,2,99.9999999999999,2|2|10
232,168,192155,1,0
152,224,192530,2,0,B|168:264|240:264,1,99.9999999999999,10|0
328,312,193280,2,0,B|296:344|232:344,1,99.9999999999999,10|0
144,304,194030,1,10
96,216,194405,1,8
88,120,194780,6,0,B|104:64|144:32|184:24|248:24,2,200,10|10|10
152,200,196655,1,0
216,272,197030,2,0,B|296:352,1,99.9999999999999,10|0
360,272,197780,2,0,B|440:192,1,99.9999999999999,10|2
440,104,198530,1,10
336,104,198905,1,2
240,104,199280,6,0,B|72:104,2,150,10|2|2
240,200,200780,2,0,B|408:200,2,150,10|2|2
256,192,202280,12,4,208280
