osu file format v9

[General]
AudioFilename: Mezame.mp3
AudioLeadIn: 15
PreviewTime: 76280
Countdown: 0
SampleSet: Normal
StackLeniency: 1
Mode: 0
LetterboxInBreaks: 1
EpilepsyWarning: 1

[Editor]
Bookmarks: 16325,45593,60593,107656,107937,184738,209863
DistanceSpacing: 1
BeatDivisor: 4
GridSize: 16

[Metadata]
Title:Mezame
Artist:Yuki Kajiura
Creator:mercury2004
Version:Mai
Source:Mai-HiME
Tags:My-HiME Victor Entertainment FLYING dog

[Difficulty]
HPDrainRate:7
CircleSize:4
OverallDifficulty:7
ApproachRate:9
SliderMultiplier:2
SliderTickRate:2

[Events]
//Background and Video events
0,0,"Mai.jpg"
//Break Periods
2,130480,150492
//Storyboard Layer 0 (Background)
Sprite,Background,Centre,"SB\Mai_sb.jpg",320,240 F,0,39906,40281,1,0 S,0,39906,40281,1,2.6704 F,0,52281,52656,1,0 S,0,52281,52656,1.002764,2.417165 F,0,63906,64281,1,0 S,0,63906,64281,0.996365,2.417165 S,0,64281,,2.417165 F,0,76281,76609,1,0 S,0,76281,76656,0.9963648,1.847565 F,0,85281,85656,1,0 S,0,85281,85656,1.004215,1.906615 F,0,100281,,1 F,0,100281,100656,1,0 S,0,100281,100656,0.9914154,2.277815 F,0,109281,109656,1,0 S,0,109281,109656,0.9978153,2.124215 F,0,180531,180906,1,0 S,0,180531,180906,0.9978154,1.874615 F,0,187281,187656,1,0.02133334 S,0,187281,187656,0.9978154,1.874615
Sprite,Background,Centre,"SB\mai_grey.jpg",320,240 F,0,15906,,1 F,0,28281,28562,0.7903999,0 S,0,28281,28562,1,2.990229 F,0,28562,,0 F,0,130281,,0 F,0,130281,,0 S,0,130281,,0.9998297 F,0,130281,149781,0,1 F,0,149781,152781,1 F,0,152781,153906,1 F,0,153906,178281,1
Sprite,Background,Centre,"SB\mai_grey_blur.jpg",320,240 F,0,152781,153906,0,1 F,0,153906,156437,1,0.9997231 F,0,156437,156531,0.9997231,0.3821129 F,0,156531,157281,0.3821129,1 F,0,157281,159437,1,0.9997262 F,0,159437,159531,0.9997262,0 F,0,159531,160281,0,0.9996191 F,0,160281,161312,0.9996191,0.9994881 F,0,161312,161406,0.9994881,0 F,0,161406,161781,0,0.9994286 F,0,161781,161874,0.9994286,0 F,0,161874,162156,0,0.9993809 F,0,162156,162249,0.9993809,0 F,0,162249,162531,0,0.9993333 F,0,162531,162624,0.9993333,0 F,0,162624,163281,0,0.9992381 F,0,163281,178234,0.9992381,0.9973392 F,0,178234,178281,0.9973392 F,0,178281,178656,0.9973392,0 S,0,178281,178656,1,1.384
//Storyboard Layer 1 (Fail)
//Storyboard Layer 2 (Pass)
//Storyboard Layer 3 (Foreground)
Sprite,Foreground,Centre,"flash.png",320,240 F,0,28234,28281,0.1093333,1 F,0,28281,,1 F,0,28281,28656,0.567312,0 F,0,28656,,0 F,0,39859,39906,0,1 F,0,39906,,1 F,0,39906,,0 F,0,39906,40281,1,0 F,0,52234,52281,0,1 F,0,52281,52656,1,0 F,0,63859,63906,0,1 F,0,63906,64281,1,0 F,0,76234,76271,0,1 F,0,76271,,1 F,0,76271,76656,1,0 F,0,83359,83396,0.5665714,1 F,0,83396,83771,1,0 F,0,83771,,0 F,0,84109,84146,0.5595238,1 F,0,84146,84521,1,0.03699198 F,0,84859,84896,0.5595238,1 F,0,84896,85177,1,0 F,0,85234,85271,0,1 F,0,85271,85656,1,0 F,0,100234,100271,0,1 F,0,100271,100656,1,0 F,0,102484,102521,0,1 F,0,102521,102906,1,0 F,0,105484,105521,0.06941563,1 F,0,105521,105906,1,0 F,0,107359,107396,0,1 F,0,107396,107781,1,0 F,0,108109,108146,0,1 F,0,108146,108531,1,0 F,0,108859,108896,0,1 F,0,108896,109187,1,0 F,0,109234,109271,0,1 F,0,109271,109739,1,0 F,0,112234,112271,0,0.7767093 F,0,112271,112646,0.7767093,0 F,0,178234,178271,0,1 F,0,178271,178646,1,0 F,0,180484,180521,0,0.97372 F,0,180521,180896,0.97372,0 F,0,183484,183521,0,1 F,0,183521,183896,1,0 F,0,185359,185396,0.01038635,0.488 F,0,185396,185406,0.488,1 F,0,185406,185583,1,0 F,0,185734,185771,0.03845922,0.4848 F,0,185771,185781,0.4848,1 F,0,185781,185958,1,0 F,0,186109,186146,0.02885915,0.7040591 F,0,186146,186156,0.7040591,1 F,0,186156,186333,1,0 F,0,186484,186521,0,0.5632593 F,0,186521,186531,0.5632593,1 F,0,186531,186708,1,0 F,0,186859,186896,0,0.505659 F,0,186896,186906,0.505659,1 F,0,186906,187083,1,0 F,0,187234,187271,0,1 F,0,187271,187281,1 F,0,187281,187656,1,0.231866
Sprite,Foreground,Centre,"blackout.png",320,240 F,0,0,342,0,1 F,0,15906,,1 F,0,15906,,1 F,0,15906,28234,1,0.5801418 F,0,28234,28281,0.5801418,0 F,0,28234,28281,0.5801418,0.01280014 F,0,28281,,0 F,0,28281,,0 F,0,50781,51531,0,1 F,0,51531,52234,1 F,0,52234,52275,1,0 F,0,99156,99906,0,1 F,0,99906,100234,1 F,0,100234,100281,1,0.002082327 F,0,130275,130368,0.05759995 F,0,130368,153525,0.05759995,0.3679999 F,0,153525,156437,0.3679999,0.4146861 F,0,156437,156531,0.4146861,0.2273931 F,0,156531,157281,0.2273931,0.4645692 F,0,157281,159437,0.4645692,0.4947809 F,0,159437,159531,0.4947809,0.2112981 F,0,159531,160281,0.2112981,0.5066077 F,0,160281,161312,0.5066077,0.5274547 F,0,161312,161406,0.5274547,0.4327722 F,0,161406,161781,0.4327722,0.5276269 F,0,161781,161874,0.5276269,0.3817301 F,0,161874,162531,0.3817301,0.5381365 F,0,162531,162624,0.5381365,0.3090397 F,0,162624,163281,0.3090397,0.5486462 F,0,163281,163374,0.5486462,0.3163493 F,0,163374,164031,0.3163493,0.5591558 F,0,164031,175281,0.5591558,0.7168 F,0,175281,177062,0.7168,1 F,0,177062,178181,1 F,0,178181,178187,0,1 F,0,178187,178275,1,0 F,0,178275,178281,0
//Storyboard Sound Samples
//Background Colour Transformations
3,100,163,162,255

[TimingPoints]
1280,375,4,1,0,30,1,0
11686,-100,4,2,2,5,0,0
15998,-100,4,1,2,26,0,0
16233,-100,4,2,2,50,0,0
21155,-100,4,2,2,50,0,0
26545,-100,4,2,2,40,0,0
26686,-200,4,2,2,50,0,0
27858,-200,4,2,2,15,0,0
27998,-100,4,1,2,45,0,0
28280,-100,4,1,2,45,0,0
30483,-100,4,1,2,45,0,0
30576,-100,4,1,2,40,0,0
30670,-100,4,1,2,45,0,0
30764,-100,4,1,2,55,0,0
30858,-100,4,1,2,45,0,0
30951,-100,4,1,2,40,0,0
50733,-200,4,2,2,40,0,0
51149,-100,4,2,2,40,0,0
51530,-200,4,2,2,40,0,0
51905,-100,4,2,2,35,0,0
52139,-100,4,1,2,50,0,0
74686,-100,4,1,2,35,0,0
74873,-100,4,1,2,50,0,0
76280,-66.6666666666667,4,1,2,50,0,1
78436,-66.6666666666667,4,1,2,50,0,1
78576,-66.6666666666667,4,1,2,10,0,1
78670,-66.6666666666667,4,1,2,50,0,1
78764,-66.6666666666667,4,1,2,70,0,1
78858,-66.6666666666667,4,1,2,50,0,1
78951,-66.6666666666667,4,1,2,35,0,1
79045,-66.6666666666667,4,1,2,50,0,1
79139,-66.6666666666667,4,1,2,50,0,1
98780,-100,4,1,2,50,0,1
99155,-66.6666666666667,4,1,2,50,0,1
100186,-66.6666666666667,4,1,2,50,0,0
100280,-66.6666666666667,4,1,2,60,0,1
124373,-66.6666666666667,4,1,2,5,0,1
130280,-66.6666666666667,4,1,2,50,0,0
150998,-66.6666666666667,4,2,2,5,0,0
153436,-200,4,2,2,25,0,0
177342,-66.6666666666667,4,1,2,65,0,0
178280,-66.6666666666667,4,1,2,55,0,1
202373,-66.6666666666667,4,1,2,60,0,1
208280,-100,4,1,2,50,0,0

[Colours]
Combo1 : 179,57,57
Combo2 : 220,122,24
Combo3 : 171,232,250

[HitObjects]
256,192,11780,12,2,15905
32,256,16280,5,2
32,256,16655,1,0
160,192,17030,1,2
160,192,17405,1,0
288,256,17780,5,2
288,256,18155,1,0
416,192,18530,1,2
416,192,18905,1,0
352,64,19280,5,2
160,64,19655,1,0
352,64,20030,1,2
160,64,20405,1,0
416,192,20780,5,2
96,192,21155,1,0
448,256,21530,1,2
64,256,21905,1,0
176,120,22280,6,0,B|128:24,1,100,2|0
72,111,22655,2,2,B|40:231,1,100,0|0
144,232,23030,2,0,B|248:256,1,100,2|0
208,349,23405,6,0,B|224:229,1,100,0|0
312,288,23780,2,0,B|416:288,1,100,2|0
360,208,24155,2,0,B|312:112,1,100,0|0
256,141,24530,5,2
205,191,24717,1,0
256,242,24905,1,0
306,191,25092,1,0
193,129,25280,5,2
193,254,25467,1,0
318,254,25655,1,0
318,129,25842,1,0
155,191,26030,5,2
256,292,26217,1,0
356,191,26405,1,0
256,91,26592,1,0
256,192,26780,12,2,27905
48,80,28280,6,0,B|144:32,1,100,4|0
144,168,28655,1,8
56,248,28842,1,0
56,248,28936,1,4
56,248,29030,1,0
144,320,29217,1,0
208,240,29405,1,8
224,240,29498,1,4
240,240,29592,1,0
208,152,29780,2,0,L|256:128|296:152,1,100,4|0
320,40,30155,5,8
336,40,30248,1,0
352,40,30342,1,0
480,128,30530,1,0
368,216,30717,1,0
480,304,30905,1,8
320,336,31092,5,0
256,248,31280,2,0,L|144:248,2,100,0|0|8
312,160,31842,1,0
400,160,32030,1,4
416,160,32123,1,0
432,160,32217,1,0
448,160,32311,2,0,B|512:160,1,50,0|8
416,72,32592,1,0
304,24,32780,5,12
280,64,32873,1,0
304,104,32967,1,0
392,160,33155,1,0
472,216,33342,1,12
508,251,33436,1,0
480,288,33530,1,0
392,160,33717,1,0
408,256,33905,2,0,L|312:288|312:288|208:256,1,200,12|0
128,304,34467,5,0
120,288,34561,1,0
112,272,34655,1,8
184,208,34842,1,0
272,160,35030,1,8
264,144,35123,1,0
256,128,35217,1,0
208,40,35405,2,0,B|104:40,2,100,8|0|0
320,64,35967,6,0,B|376:24,2,50,0|0|8
376,144,36342,1,0
328,232,36530,2,0,L|368:264,2,50,0|0|0
232,208,36905,1,8
232,112,37092,1,0
136,160,37280,2,0,L|32:200|32:312,1,200,12|8
128,304,37842,5,0
232,304,38030,2,4,B|232:165,2,100,12|0|8
232,304,38592,1,0
336,304,38780,2,0,L|384:336,2,50,8|0|0
328,208,39155,1,0
328,112,39342,2,0,B|368:72,2,50,8|0|0
296,208,39717,1,0
192,208,39905,2,4,L|136:208,2,50,4|4|0
408,304,40280,6,0,L|408:192|328:104,1,200,4|8
280,56,40842,2,0,L|328:12,2,50,0|0|0
200,120,41217,1,0
128,192,41405,2,0,L|56:260|128:344,1,200,12|0
228,351,41967,5,8
280,368,42061,1,4
328,352,42155,1,8
392,280,42342,1,4
456,200,42530,1,8
472,152,42623,1,4
448,104,42717,1,0
344,104,42905,1,8
344,208,43092,1,0
424,264,43280,6,0,L|496:216|496:72,1,200,4|8
416,40,43842,1,4
400,40,43936,1,0
384,40,44030,1,0
288,40,44217,1,0
184,40,44405,6,8,L|112:120|112:232,1,200,8|0
112,312,44967,1,0
144,344,45061,1,4
184,312,45155,1,0
280,344,45342,1,0
280,344,45530,2,0,L|376:344|472:272|472:272,1,200,12|0
456,184,46092,1,0
384,120,46280,2,0,L|288:120|192:192|192:192,1,200,12|0
118,232,46842,1,0
52,308,47030,1,8
128,368,47217,1,0
192,296,47405,1,8
128,192,47592,5,0
168,104,47780,2,0,L|272:80|400:112,1,200,12|0
416,184,48342,1,0
360,272,48530,2,4,L|256:296|128:264,1,200,4|0
88,216,49092,2,0,L|40:184|40:104,1,100,0|8
128,96,49467,5,0
288,32,49655,1,0
448,96,49842,1,0
288,160,50030,1,8
192,96,50217,5,0
288,32,50405,1,12
384,96,50592,1,0
336,152,50780,6,0,L|336:264,1,100,2|0
256,320,51342,1,0
176,256,51530,2,0,L|176:144,1,100,2|0
208,64,52092,1,0
264,144,52280,6,0,L|320:144|352:96,1,100,4|0
440,40,52655,2,0,L|480:144|432:224,1,200,8|0
384,304,53217,1,0
296,256,53405,2,0,C|208:256,2,50,8|0|0
352,176,53780,2,0,B|344:136|320:104|264:80,1,100,8|0
184,48,54155,1,12
160,48,54248,1,0
136,48,54342,1,4
192,128,54530,5,0
32,176,54717,1,0
192,224,54905,1,8
64,256,55092,1,0
240,328,55280,2,4,L|360:328,2,100,0|0|8
192,224,55842,1,0
112,120,56030,2,0,L|0:120,2,100,8|0|8
272,184,56592,1,0
200,64,56780,5,12
160,40,56873,1,0
120,64,56967,1,0
64,144,57155,1,0
64,248,57342,1,12
40,288,57436,1,0
64,328,57530,1,0
144,272,57717,1,0
184,176,57905,2,0,B|264:56|352:192,1,200,8|0
304,272,58467,5,0
400,312,58655,2,0,B|456:312|456:312,1,50,8|0
440,264,58842,2,0,B|488:248,1,50,0|4
456,208,59030,2,0,B|496:176,1,50,0|0
456,160,59217,2,0,B|480:112,1,50,0|4
472,112,59405,2,0,L|376:88|272:112,1,200,12|0
192,64,59967,6,0,B|136:24,2,50,0|0|8
136,144,60342,1,0
184,232,60530,2,0,L|144:264,2,50,0|0|0
280,208,60905,1,8
280,112,61092,1,0
384,208,61280,6,0,B|488:288,1,100,12|0
376,112,61655,2,0,B|272:32,1,100,4|0
384,208,62030,6,4,B|528:208,2,100,12|0|12
272,208,62592,1,0
176,304,62780,2,0,L|128:336,2,50,8|0|0
216,208,63155,1,0
184,112,63342,2,0,B|144:72,2,50,8|0|0
216,208,63717,1,0
320,208,63905,1,12
352,208,63998,1,0
384,208,64092,1,0
480,192,64280,6,0,L|408:144|264:144,1,200,4|8
232,56,64842,2,0,L|176:16,2,50,0|0|0
336,56,65217,1,0
400,128,65405,2,0,L|336:192|216:192,1,200,12|0
136,152,65967,5,4
88,136,66061,1,0
48,160,66155,1,8
16,256,66342,1,0
64,344,66530,1,12
104,368,66623,1,0
152,344,66717,1,0
232,288,66905,1,8
264,192,67092,1,0
264,192,67280,6,0,B|264:80|128:80,1,200,0|8
96,184,67842,1,0
112,168,67936,1,0
128,152,68030,1,0
192,72,68217,1,0
264,136,68405,2,0,B|376:136,2,100,8|0|0
184,200,68967,6,0,B|120:200,2,50,0|0|8
264,256,69342,1,0
232,344,69530,2,0,L|136:344|40:272|40:272,1,200,4|8
56,184,70092,1,0
128,120,70280,2,0,L|224:120|320:192|320:192,1,200,4|8
344,272,70842,5,0
448,272,71030,2,0,B|488:320,2,50,8|0|8
368,208,71405,1,8
448,152,71592,1,0
344,104,71780,2,4,L|248:80|112:112,1,200,4|8
96,184,72342,1,0
152,272,72530,2,4,L|252:296|384:264,1,200,4|12
384,192,73092,2,0,B|512:192,1,100,0|0
320,128,73467,6,0,B|320:0,1,100,0|8
192,128,73842,2,0,B|64:128,1,100,0|8
192,256,74217,2,0,B|192:384,1,100,0|8
320,256,74592,2,0,B|448:256,1,100,8|8
256,192,74873,12,2,75905
112,72,76280,5,6
112,72,76467,2,0,B|160:32|208:32|264:88,1,150,0|8
392,24,76842,2,0,B|432:72|432:120|376:176,1,150,0|6
264,224,77217,1,0
248,208,77311,1,0
232,192,77405,1,12
152,336,77592,2,0,B|200:376|248:376|304:320,1,150,0|2
408,304,77967,2,0,B|496:304,2,75,0|0|8
360,160,78342,1,0
176,192,78530,6,0,B|-16:192,1,149.999995529652,14|0
336,192,78905,2,0,B|528:192,1,149.999995529652,14|0
256,96,79280,1,10
64,48,79467,6,0,B|64:128,2,75
176,80,79842,2,0,L|328:80|328:80,1,150,0|14
440,176,80217,2,0,B|440:96,2,75
328,184,80592,2,0,L|264:224|192:184,1,149.999995529652,0|6
256,48,80967,1,0
256,48,81061,1,0
256,48,81155,1,8
256,192,81342,5,0
144,192,81530,2,0,B|144:364,1,149.999995529652,14|0
368,192,81905,2,0,B|368:32,1,149.999995529652,10|0
256,192,82280,1,14
344,336,82467,5,0
344,320,82561,1,0
344,304,82655,1,10
208,232,82842,1,2
64,304,83030,1,10
64,288,83123,1,0
64,272,83217,1,0
160,192,83405,6,0,B|-16:192,1,149.999995529652,6|0
352,192,83780,2,0,B|544:192,1,149.999995529652,14|0
192,128,84155,2,0,B|80:16,1,149.999995529652,6|0
320,128,84530,2,0,B|448:0,1,149.999995529652,10|0
256,224,84905,2,0,B|256:384,2,149.999995529652,6|0|10
256,224,85467,6,0,B|256:120,2,75,4|0|2
184,304,85842,2,0,L|256:336|328:304,1,150,0|2
488,224,86217,2,0,B|488:120,2,75,0|0|2
360,144,86592,2,4,L|296:112|224:144,1,150,0|12
88,200,86967,2,0,L|56:120,2,74.9999977648259,0|0|2
200,304,87342,1,0
344,264,87530,5,14
384,256,87623,1,0
392,216,87717,1,0
280,136,87905,1,10
168,184,88092,1,0
112,312,88280,2,4,B|240:416|408:312,1,299.999991059304,14|12
336,224,88842,5,0
256,96,89030,1,0
176,224,89217,1,10
168,156,89405,6,0,B|64:4,1,149.999995529652,14|0
344,156,89780,2,0,B|448:4,1,149.999995529652,14|0
160,288,90155,1,0
352,288,90342,1,0
256,192,90530,6,0,B|256:352,2,149.999995529652,10|0|2
256,192,91092,1,0
136,224,91280,6,4,B|216:328|312:328|392:200,1,300,14|4
448,136,91842,2,0,L|408:88|320:88,1,150,0|2
240,216,92217,2,0,L|160:200|136:136,1,150
168,32,92592,2,0,L|72:32,2,74.9999977648259,4|0|14
256,152,92967,6,0,L|256:312,1,150,0|0
104,296,93342,1,0
104,296,93436,1,0
104,296,93530,1,10
24,168,93717,1,0
160,96,93905,1,10
232,224,94092,1,4
344,296,94280,6,0,B|480:360,1,149.999995529652,14|0
448,168,94655,2,0,B|408:8,1,149.999995529652,2|0
264,56,95030,2,0,B|80:0,1,149.999995529652,14|2
120,160,95405,2,0,B|24:320,1,149.999995529652,2|2
192,296,95780,2,0,B|360:376,1,149.999995529652,14|2
192,296,96155,1,2
192,296,96248,1,0
192,296,96342,1,2
96,192,96530,2,0,B|24:264,2,74.9999977648259,8|0|2
96,192,96905,5,2
256,128,97092,1,0
416,192,97280,1,10
256,248,97467,5,0
160,96,97655,1,2
352,96,97842,1,2
176,256,98030,5,8
256,176,98217,1,2
336,256,98405,1,0
256,336,98592,1,2
256,256,98780,6,0,B|256:56,1,200,2|2
360,112,99530,6,0,B|424:184|352:256,1,149.999995529652,2|0
224,304,99905,2,0,B|152:232|152:88|240:32,1,299.999991059304,2|6
352,176,100467,6,0,L|440:176,2,75,4|0|10
256,64,100842,2,0,L|184:32|112:32,1,149.999995529652,0|6
80,176,101217,2,0,L|0:176,2,75,0|0|10
136,312,101592,2,0,L|216:352|280:352,1,150,0|6
264,200,101967,1,0
264,200,102061,1,0
264,200,102155,1,10
416,192,102342,1,0
416,192,102530,5,10
288,64,102717,1,0
192,192,102905,1,10
96,64,103092,1,0
96,64,103280,1,14
96,64,103467,6,0,L|96:144,2,75,0|0|2
176,176,103842,1,4
328,176,104030,1,14
256,256,104217,1,0
256,272,104311,1,0
256,288,104405,1,10
176,176,104592,5,4
328,176,104780,1,6
416,48,104967,2,0,L|416:128,2,75,0|0|10
256,96,105342,1,0
128,192,105530,5,10
256,288,105717,1,0
384,192,105905,1,10
256,96,106092,1,0
128,192,106280,1,10
276,170,106467,5,0
276,154,106561,1,0
276,138,106655,1,10
181,22,106842,1,2
80,128,107030,1,10
80,144,107123,1,0
80,160,107217,1,0
160,320,107405,6,0,B|-16:320,1,149.999995529652,14|0
352,320,107780,2,0,B|544:320,1,149.999995529652,6|0
320,176,108155,2,0,B|432:56,1,149.999995529652,14|0
192,176,108530,2,0,B|64:48,1,149.999995529652,6|0
320,176,108905,5,10
256,32,109092,1,0
193,176,109280,1,6
56,112,109467,6,0,L|56:32,2,75,0|0|14
192,176,109842,2,0,L|232:104|320:104,1,150,0|6
320,240,110217,2,0,L|320:336,2,74.9999977648259,0|0|14
440,168,110592,2,0,L|392:104|312:104,1,150,0|6
184,192,110967,6,0,B|240:112,2,75,0|0|10
64,288,111342,1,2
24,144,111530,1,14
24,144,111623,1,0
24,144,111717,1,2
184,192,111905,1,10
24,144,112092,1,4
112,56,112280,6,0,B|416:56,1,300,10|10
328,176,112842,1,0
176,176,113030,1,10
256,288,113217,1,0
224,16,113405,6,0,B|104:164,1,149.999995529652,10|0
288,96,113780,2,0,B|408:244,1,149.999995529652,2|0
224,176,114155,2,0,B|104:324,1,149.999995529652,10|0
288,256,114530,2,0,B|408:404,1,149.999995529652,2|0
383,374,114905,1,10
288,256,115092,1,0
432,160,115280,5,4
336,48,115467,1,0
240,160,115655,1,10
144,48,115842,1,0
48,160,116030,5,4
144,272,116217,1,0
240,160,116405,1,10
352,272,116592,1,0
368,160,116780,6,0,B|480:40,1,149.999995529652,10|0
144,160,117155,2,0,B|32:280,1,149.999995529652,10|0
256,88,117530,1,10
256,352,117717,5,0
256,352,117811,1,0
256,352,117905,1,2
256,200,118092,1,2
400,160,118280,5,0
256,48,118467,1,2
112,160,118655,1,8
48,256,118842,6,0,L|96:320|40:368,2,150,2|2|2
184,184,119405,2,0,L|256:152|312:216,1,150,12|2
376,304,119780,5,2
376,304,119873,1,0
376,304,119967,1,0
472,192,120155,1,8
368,88,120342,1,2
368,88,120436,1,0
368,88,120530,1,0
224,96,120717,2,0,B|64:96,2,149.999995529652,2|8|2
240,248,121280,6,0,B|240:392|488:360|424:200,1,299.999991059304,6|8
336,128,121842,2,0,B|328:-16|88:16|152:176,1,299.999991059304,6|0
232,248,122405,2,0,B|224:392|-16:360|48:200,1,299.999991059304,14|0
224,192,122967,5,0
384,192,123155,1,10
160,192,123342,5,0
320,192,123530,1,10
96,192,123717,5,6
192,64,123905,1,8
288,192,124092,1,2
384,64,124280,1,6
256,192,124373,12,4,130280
256,192,151092,12,0,153342
112,72,153530,6,2,L|176:72|200:96|192:96,1,100,2|0
240,120,154092,1,0
272,160,154280,1,2
240,200,154467,2,0,L|176:200,3,50,0|0|0|2
184,248,155217,2,0,L|120:248,3,50,0|0|0|2
96,280,155967,1,0
64,240,156155,1,0
96,200,156342,1,0
64,160,156530,6,0,B|32:120|32:120|64:80,1,100,2|0
96,40,157092,1,0
128,80,157280,1,2
176,64,157467,1,0
208,96,157655,1,0
256,96,157842,1,0
288,128,158030,1,2
328,152,158217,2,0,B|328:216,2,50
376,136,158780,1,2
408,168,158967,2,0,B|408:112,2,50,2|0|2
376,208,159530,6,0,B|304:240|264:208,1,100,2|0
224,224,160092,2,0,B|224:152,1,50,0|2
176,176,160467,2,0,B|176:88|176:120,1,50,0|2
224,144,160842,2,0,B|224:88,1,50,0|2
240,48,161217,1,0
288,80,161405,6,0,B|400:80|400:80,2,100,0|2|0
240,80,162342,1,0
224,128,162530,2,0,B|176:160,1,50
240,176,162905,2,2,B|280:208,1,50
304,248,163280,5,2
344,216,163467,1,0
384,184,163655,1,0
416,160,163842,1,0
384,128,164030,1,2
344,96,164217,1,0
304,96,164405,1,0
256,72,164592,1,0
224,112,164780,1,2
192,72,164967,1,0
160,112,165155,2,0,B|160:168,3,50,2|2|2|0
133,217,165905,6,0,B|189:217,1,50,2|0
176,280,166280,2,0,B|288:280,1,100,2|0
296,328,166842,1,0
320,280,167030,2,0,B|432:280,1,100,2|0
432,240,167592,1,0
432,192,167780,2,0,B|368:192|320:192,1,100,2|0
288,168,168342,2,2,B|240:168|240:168|224:168,2,50,0|2|0
336,144,168905,1,0
336,96,169092,1,0
296,64,169280,6,0,B|344:80|408:64,1,100,2|0
384,112,169842,2,0,B|384:168,3,50,0|2|0|0
384,224,170592,1,0
384,272,170780,2,0,B|344:296|288:272,3,100,2|0|2|0
272,224,172092,1,0
224,224,172280,5,2
224,176,172467,1,0
176,176,172655,1,0
176,128,172842,1,0
128,128,173030,2,0,L|128:232,2,100,2|0|2
128,80,173967,1,0
176,64,174155,1,0
224,80,174342,5,0
256,112,174530,2,0,L|312:112|312:112,1,50,2|0
312,160,174905,2,0,L|376:160,1,50,2|0
408,168,175280,2,0,L|408:272|368:320|368:352,1,200,2|2
320,336,176217,1,0
296,296,176405,1,2
320,248,176592,1,0
280,216,176780,2,0,L|168:216,1,100,2|0
320,80,177530,5,6
192,80,177717,1,0
80,192,177905,1,2
256,256,178092,1,0
432,192,178280,1,6
256,128,178467,6,0,B|256:48,2,74.9999977648259,0|0|2
192,264,178842,2,0,L|288:264|320:192,1,150,0|6
464,208,179217,1,4
464,192,179311,1,0
464,176,179405,1,10
368,88,179592,1,0
336,232,179780,5,6
256,352,179967,1,0
240,352,180061,1,0
224,352,180155,1,14
112,232,180342,1,0
80,120,180530,6,0,B|240:120,1,149.999995529652,10|0
440,120,180905,2,0,B|270:120,1,149.999995529652,10|0
256,160,181280,1,2
176,216,181467,5,0
160,216,181561,1,0
144,216,181655,1,10
256,336,181842,1,0
256,336,182030,1,6
336,216,182217,1,0
352,216,182311,1,0
368,216,182405,1,10
256,80,182592,1,0
256,80,182780,5,6
256,80,182967,2,0,L|256:168,2,75,0|0|10
256,80,183342,1,0
160,192,183530,6,0,B|0:192,1,149.999995529652,10|0
352,192,183905,2,0,B|528:192,1,149.999995529652,10|0
256,168,184280,1,2
256,336,184467,5,0
256,304,184561,1,0
256,272,184655,1,10
256,168,184842,1,6
256,16,185030,1,0
256,48,185123,1,0
256,80,185217,1,6
176,208,185405,6,0,B|32:104,1,149.999995529652,10|0
336,208,185780,2,0,B|496:104,1,149.999995529652,10|0
256,112,186155,1,10
144,320,186342,5,0
376,320,186530,1,10
256,176,186717,1,0
136,88,186905,2,4,B|256:-32|408:88,1,299.999991059304,14|14
128,240,187467,6,0,L|48:168,2,75,0|0|2
256,320,187842,1,0
256,168,188030,1,6
384,240,188217,2,0,L|464:168,2,75,0|0|10
256,320,188592,5,0
184,184,188780,1,2
336,136,188967,1,2
224,32,189155,1,12
208,56,189248,1,0
192,80,189342,1,2
176,104,189436,1,0
160,128,189530,1,2
64,248,189717,5,2
168,360,189905,1,14
296,288,190092,1,4
392,176,190280,2,0,B|280:88|280:88|120:88,1,299.999991059304
64,248,190842,1,4
154,196,191030,5,10
282,99,191217,1,0
339,249,191405,1,10
154,196,191592,1,0
282,99,191780,1,10
120,112,191967,5,0
104,128,192061,1,0
88,144,192155,1,14
176,264,192342,2,0,L|112:328,2,74.9999977648259,0|0|6
312,200,192717,1,0
328,184,192811,1,0
344,168,192905,1,14
464,256,193092,2,0,B|536:184,2,74.9999977648259,0|0|10
368,304,193467,2,0,L|368:400,2,74.9999977648259,0|0|14
368,152,193842,1,0
256,304,194030,6,0,L|256:152,1,150,2|0
256,24,194405,1,10
256,24,194592,1,0
164,140,194780,2,0,B|32:292,1,149.999995529652,14|0
348,140,195155,2,0,B|480:292,1,149.999995529652,14|0
256,152,195530,1,14
256,152,195717,6,0,L|256:240,2,75,0|0|10
256,328,196092,1,2
192,192,196280,5,4
96,256,196467,1,2
96,128,196655,1,10
256,96,196842,5,0
320,192,197030,5,6
416,256,197217,1,0
416,128,197405,1,10
256,96,197592,5,0
192,224,197780,6,0,B|0:224,1,149.999995529652,6|0
256,96,198155,1,12
320,224,198342,2,0,B|512:224,1,149.999995529652,2|4
352,160,198717,5,0
256,32,198905,1,10
160,160,199092,1,0
256,280,199280,6,8,B|88:280,2,149.999995529652,14|0|10
408,280,199842,2,0,B|520:128|384:8,1,299.999991059304,6|0
248,64,200405,1,10
248,64,200592,1,0
248,64,200780,2,8,B|200:168|304:240,2,149.999995529652,14|0|10
168,192,201343,1,6
168,176,201436,1,0
168,160,201530,1,10
257,63,201717,1,14
336,152,201904,5,0
336,168,201998,1,0
336,184,202092,1,0
256,280,202280,1,6
256,192,202373,12,4,208280
