osu file format v7

[General]
AudioFilename: 8fa6e4dfd702.mp3
AudioLeadIn: 0
PreviewTime: 3435
Countdown: 1
SampleSet: Normal
StackLeniency: 0.7
Mode: 0
LetterboxInBreaks: 1

[Editor]
DistanceSpacing: 0.800000011920929
BeatDivisor: 4
GridSize: 8

[Metadata]
Title:Bloody Rabbit
Artist:Yuki Kajiura
Creator:[DBF]
Version:Normal
Source:Pandora Hearts
Tags:Alice

[Difficulty]
HPDrainRate:6
CircleSize:4
OverallDifficulty:6
SliderMultiplier:1
SliderTickRate:1

[Events]
//Background and Video events
0,0,"bg.jpg"
//Break Periods
2,41142,50392
//Storyboard Layer 0 (Background)
//Storyboard Layer 1 (Fail)
//Storyboard Layer 2 (Pass)
//Storyboard Layer 3 (Foreground)
//Storyboard Sound Samples
//Background Colour Transformations
3,100,0,0,0

[TimingPoints]
442,375,4,2,0,0,1,0
4747,-100,4,2,0,70,0,0
28747,-200,4,1,0,40,0,0
40935,-200,4,1,0,40,0,0
54247,-100,4,2,0,70,0,0
63997,-100,4,2,0,50,0,0
64372,-100,4,2,0,40,0,0
64747,-100,4,2,0,30,0,0
65497,-100,4,2,0,70,0,0
83122,-200,4,1,0,70,0,1
94747,-100,4,2,0,70,0,0

[Colours]
Combo1 : 151,203,255
Combo2 : 255,255,255
Combo3 : 82,82,252

[HitObjects]
256,192,2317,12,0,4567
176,128,4942,6,2,B|160:184|176:248,1,100,2|0
248,152,5692,2,0,B|264:104|248:48,1,100,2|0
320,176,6442,2,0,B|336:224|328:288,1,100,2|0
256,296,7192,5,2
256,296,7567,1,0
256,296,7942,2,4,B|112:232,2,150
256,224,9442,2,4,B|400:160,2,150
192,192,10942,5,4
192,192,11317,2,0,B|168:240,1,50,0|4
248,96,12067,2,0,B|296:80|368:96,1,100,2|0
376,160,12817,2,0,B|328:184|264:160,2,100,2|0|2
432,112,13942,6,2,B|464:208|432:320,1,200
376,208,15067,1,4
312,112,15442,2,2,B|288:208|328:320,1,200
376,208,16567,5,4
376,208,16942,2,2,B|328:184|256:192,1,100
296,264,17692,2,0,B|256:280|184:256,1,100,2|0
168,192,18442,2,0,B|176:136|232:96,1,100,2|0
160,224,19192,6,2,B|200:256|264:256,2,100
256,192,20035,12,2,21067
256,192,22192,5,2
256,192,22567,1,0
256,192,22942,2,4,B|232:120|296:120|240:48,2,150,4|4|0
328,176,24442,2,0,B|368:216|352:288,1,100,2|0
280,264,25192,6,0,B|264:320|208:344,2,100,2|0|2
256,192,26035,12,2,28567
112,104,28942,6,0,B|104:168,1,50,0|8
176,184,29692,2,0,B|192:136,1,50
264,160,30442,2,0,B|280:216|264:264,1,100,0|8
264,160,31942,1,0
400,128,32692,1,8
368,240,33442,6,0,B|320:272,1,50
256,240,34192,2,0,B|200:232,1,50,8|0
144,192,34942,2,0,B|120:144|136:88,2,100,0|8|0
216,168,36817,1,0
216,168,37192,5,10
288,168,37567,1,0
288,168,37942,1,2
360,168,38317,1,0
360,168,38692,1,10
360,240,39067,1,0
360,240,39442,2,2,B|344:288|296:320,2,100,2|10|0
256,192,51442,12,4,52942
256,192,53504,6,0,B|256:280,1,75,4|0
328,280,54442,2,0,B|360:240|360:176,1,100,2|0
296,144,55192,2,2,B|272:192|208:208,1,100,2|0
160,160,55942,2,0,B|128:208|144:280,2,100,2|0|2
139,255,57067,1,2
256,192,57442,12,4,58942
368,192,60442,6,0,B|376:240|352:296,1,100,2|0
296,192,61192,2,0,B|296:136|272:88,1,100,2|0
224,192,61942,2,0,B|224:256|192:304,2,100,2|0|2
208,120,63067,2,0,B|256:104|320:120,1,100,2|0
176,128,63817,1,2
216,192,64192,5,4
200,264,64567,1,4
240,328,64942,2,0,B|296:336|352:304,1,100,6|0
312,240,65692,2,0,B|360:208|408:208,1,100,2|0
280,256,66442,6,2,B|216:216|200:120,1,150
280,256,67567,1,2
280,256,67942,2,2,B|320:216|392:216,1,100
384,216,68504,2,2,B|392:144|352:64,1,150
288,104,69442,6,2,B|248:128|184:120,1,100
176,120,70004,2,2,B|168:176|200:224,1,100
200,232,70567,2,2,B|264:240|312:216,2,100,2|0|2
160,168,71692,2,0,B|112:160|48:184,2,100,0|2|0
232,184,72817,2,0,B|248:128|232:72,1,100,2|0
235,85,73567,5,2
235,85,73942,2,0,B|264:184|248:288,1,200
280,176,75067,1,2
280,176,75442,2,0,B|264:232|272:296,2,100
352,192,76567,1,2
352,192,76942,2,0,B|368:144|360:80,1,100
288,104,77692,2,0,B|272:152|216:176,1,100,0|2
176,112,78442,2,0,B|128:120|80:160,1,100
112,224,79192,2,0,B|96:272|112:336,2,100,8|2|4
256,192,80317,12,0,81442
256,192,81535,12,4,82942
144,192,83317,6,0,B|144:248,1,50
216,240,84067,2,0,B|216:184,1,50
216,120,84817,1,0
288,120,85192,1,0
144,312,85942,5,0
144,240,86317,1,0
144,168,86692,1,0
216,168,87067,2,0,B|216:224,1,50
216,288,87817,2,0,B|272:288,1,50
144,288,88942,5,0
144,216,89317,1,0
144,144,89692,1,0
144,216,90067,2,0,B|200:216,1,50
264,216,90817,2,0,B|320:216,1,50
104,216,91942,6,0,B|104:160,1,50
104,96,92692,2,2,B|160:96,1,50,0|0
256,192,93442,12,0,94567
336,128,94942,6,0,B|352:184|336:248,1,100,2|0
264,152,95692,2,0,B|248:104|264:48,1,100,2|0
192,176,96442,2,0,B|176:224|184:288,1,100,2|0
256,296,97192,5,2
256,296,97567,1,0
256,296,97942,2,4,B|400:232,2,150
256,224,99442,2,4,B|112:160,2,150
320,192,100942,5,4
320,192,101317,2,0,B|344:240,1,50,0|4
264,96,102067,2,2,B|216:80|144:96,1,100
136,160,102817,2,2,B|184:184|248:160,2,100
80,112,103942,6,2,B|48:208|80:320,1,200
136,208,105067,1,4
200,112,105442,2,2,B|224:208|184:320,1,200
136,208,106567,5,4
136,208,106942,2,2,B|184:184|256:192,1,100
216,264,107692,2,0,B|256:280|328:256,1,100,0|2
344,192,108442,2,0,B|336:136|280:96,1,100,0|2
352,224,109192,6,2,B|312:256|248:256,2,100
256,192,110035,12,2,111067
256,192,112192,5,2
256,192,112567,1,0
256,192,112942,2,4,B|280:120|216:120|272:48,2,150,4|4|0
184,176,114442,2,2,B|144:216|160:288,1,100
232,264,115192,6,0,B|248:320|304:344,2,100,2|0|2
256,192,116035,12,4,118942
256,192,119035,12,4,121942
256,192,122035,12,4,127942
