osu file format v12

[General]
AudioFilename: wo shi nv sheng.mp3
AudioLeadIn: 0
PreviewTime: 62497
Countdown: 0
SampleSet: Soft
StackLeniency: 0.7
Mode: 0
LetterboxInBreaks: 0
WidescreenStoryboard: 0

[Editor]
DistanceSpacing: 0.5
BeatDivisor: 8
GridSize: 8
TimelineZoom: 1

[Metadata]
Title:Wo Shi Nv Sheng
TitleUnicode:我是女生
Artist:Yuki Hsu
ArtistUnicode:徐怀钰
Creator:Hollow Wings
Version:Hard
Source:
Tags:徐怀钰 Yuki 第一张个人专辑 Xu Huai Yu taiwan
BeatmapID:359480
BeatmapSetID:144812

[Difficulty]
HPDrainRate:6
CircleSize:4
OverallDifficulty:7
ApproachRate:8
SliderMultiplier:1.6
SliderTickRate:1

[Events]
//Background and Video events
0,0,"wo shi nan sheng.jpg",0,0
//Break Periods
//Storyboard Layer 0 (Background)
//Storyboard Layer 1 (Fail)
//Storyboard Layer 2 (Pass)
//Storyboard Layer 3 (Foreground)
//Storyboard Sound Samples
//Background Colour Transformations
3,100,163,162,255

[TimingPoints]
-945,705.052878965922,4,2,1,100,1,0
1170,-100,4,2,1,70,0,0
1875,-100,4,2,1,60,0,0
13156,-66.6666666666667,4,2,1,80,0,0
24436,-100,4,2,1,60,0,0
35717,-100,4,2,1,50,0,0
41358,-66.6666666666667,4,2,1,70,0,0
52639,-66.6666666666667,4,2,1,80,0,0
62686,-50,4,2,1,80,0,0
63919,-50,4,2,1,90,0,1
83661,-100,4,2,1,50,0,0

[Colours]
Combo1 : 255,166,255
Combo2 : 255,255,77
Combo3 : 176,255,98
Combo4 : 255,192,166

[HitObjects]
121,97,1170,6,0,P|81:145|72:216,1,120,0|0,0:0|0:0,0:0:0:0:
104,245,1875,6,0,L|153:229,1,40,0|0,0:0|0:0,0:0:0:0:
221,247,2227,2,0,L|265:254,1,40,2|0,0:0|0:0,0:0:0:0:
338,228,2580,1,0,0:0:0:0:
383,212,2756,1,0,0:0:0:0:
455,248,2932,2,0,L|499:255,1,40,2|2,0:0|0:0,0:0:0:0:
438,267,3285,6,0,L|477:273,1,40,0|0,0:0|0:0,0:0:0:0:
321,247,3637,1,2,0:0:0:0:
366,231,3813,1,0,0:0:0:0:
204,266,3990,2,0,L|243:272,1,40,0|0,0:0|0:0,0:0:0:0:
87,264,4342,2,0,L|125:251,1,40,2|2,0:0|0:0,0:0:0:0:
94,184,4695,5,0,0:0:0:0:
101,104,4871,1,0,0:0:0:0:
109,24,5047,1,2,0:0:0:0:
109,24,5400,1,0,0:0:0:0:
101,104,5576,1,0,0:0:0:0:
94,184,5752,1,2,0:0:0:0:
87,264,5929,1,2,0:0:0:0:
81,344,6105,6,0,L|131:328,1,40,0|0,0:0|0:0,0:0:0:0:
223,288,6458,2,0,L|183:281,1,40,2|0,0:0|0:0,0:0:0:0:
301,260,6810,1,0,0:0:0:0:
376,232,6986,2,0,L|415:238,1,40,0|2,0:0|0:0,0:0:0:0:
310,180,7339,1,2,0:0:0:0:
235,209,7515,6,0,L|196:221,1,40,0|0,0:0|0:0,0:0:0:0:
206,121,7868,2,0,L|256:137,1,40,2|0,0:0|0:0,0:0:0:0:
124,143,8221,1,0,0:0:0:0:
79,159,8397,1,0,0:0:0:0:
103,50,8573,2,0,L|141:62,1,40,2|2,0:0|0:0,0:0:0:0:
149,302,9102,5,0,0:0:0:0:
181,195,9278,2,0,L|219:207,1,40,2|0,0:0|0:0,0:0:0:0:
101,228,9630,1,0,0:0:0:0:
56,244,9806,1,0,0:0:0:0:
75,133,9982,2,0,L|113:145,1,40,2|2,0:0|0:0,0:0:0:0:
352,212,10512,5,0,0:0:0:0:
320,105,10688,2,0,L|281:117,1,40,2|0,0:0|0:0,0:0:0:0:
400,138,11040,1,0,0:0:0:0:
445,154,11216,1,0,0:0:0:0:
428,44,11392,2,0,L|389:56,1,40,2|2,0:0|0:0,0:0:0:0:
190,363,12098,6,0,L|200:300,1,60,2|0,0:0|0:0,0:0:0:0:
207,255,12451,2,0,P|233:281|265:295,1,60,0|0,0:0|0:0,0:0:0:0:
302,293,12803,2,0,L|353:293,1,40,2|0,0:0|0:0,0:0:0:0:
229,153,13156,6,0,P|275:184|323:187,1,90.0000034332277,0|0,0:0|0:0,0:0:0:0:
340,162,13508,2,0,L|405:163,1,60.0000022888184,0|0,0:0|0:0,0:0:0:0:
465,218,13861,1,8,0:0:0:0:
286,292,14213,2,0,L|351:293,1,60.0000022888184,0|0,0:0|0:0,0:0:0:0:
411,348,14566,1,0,0:0:0:0:
411,348,14918,1,0,0:0:0:0:
219,337,15271,2,0,P|192:337|152:318,1,60.0000022888184,8|0,0:0|0:0,0:0:0:0:
120,252,15623,2,0,P|97:270|82:296,1,60.0000022888184,2|0,0:0|0:0,0:0:0:0:
189,167,15976,6,0,L|129:165,1,60.0000022888184
230,91,16328,2,0,L|170:89,1,60.0000022888184
51,133,16681,1,8,0:0:0:0:
368,126,17033,2,0,L|308:124,1,60.0000022888184
189,168,17386,1,0,0:0:0:0:
189,168,17738,1,0,0:0:0:0:
427,198,18091,2,0,P|452:173|463:130,1,60.0000022888184,8|8,0:0|0:0,0:0:0:0:
396,34,18443,2,0,P|423:46|444:68,1,60.0000022888184,2|8,0:0|0:0,0:0:0:0:
368,126,18796,5,0,0:0:0:0:
394,294,19149,2,0,P|373:265|365:218,2,60.0000022888184,0|0|8,0:0|0:0|0:0,0:0:0:0:
240,366,19854,2,0,P|253:332|254:303,1,60.0000022888184,0|0,0:0|0:0,0:0:0:0:
211,210,20206,2,0,P|198:176|197:147,1,60.0000022888184,0|0,0:0|0:0,0:0:0:0:
103,293,20559,2,0,P|119:250|117:188,1,90.0000034332277,0|0,0:0|0:0,0:0:0:0:
111,157,20911,2,0,P|100:125|80:97,2,60.0000022888184,8|0|2,0:0|0:0|0:0,0:0:0:0:
41,28,21616,6,0,L|59:90,1,60.0000022888184,0|0,0:0|0:0,0:0:0:0:
58,232,21969,2,0,L|85:163,1,60.0000022888184,0|0,0:0|0:0,0:0:0:0:
165,110,22321,1,8,0:0:0:0:
183,155,22497,1,0,0:0:0:0:
251,310,22674,2,0,L|278:241,1,60.0000022888184,0|0,0:0|0:0,0:0:0:0:
336,98,23026,2,0,L|366:192,1,90.0000034332277,8|0,0:0|0:0,0:0:0:0:
405,217,23379,2,0,P|433:245|413:304,1,90.0000034332277,2|0,0:0|0:0,0:0:0:0:
380,317,23731,2,0,P|350:307|329:275,2,60.0000022888184,0|0|0,0:0|0:0|0:0,0:0:0:0:
196,200,24436,5,4,0:0:0:0:
129,328,24789,2,0,L|160:289,1,40,0|0,0:0|0:0,0:0:0:0:
204,234,25141,1,0,0:0:0:0:
136,363,25494,2,0,L|167:324,1,40,0|0,0:0|0:0,0:0:0:0:
211,269,25847,2,0,P|242:280|281:280,1,60,0|0,0:0|0:0,0:0:0:0:
309,275,26199,2,0,P|341:269|381:275,1,60,0|0,0:0|0:0,0:0:0:0:
408,278,26552,2,0,L|420:236,1,40,4|0,0:0|0:0,0:0:0:0:
356,191,26904,2,0,L|368:149,1,40,2|0,0:0|0:0,0:0:0:0:
314,94,27257,5,4,0:0:0:0:
381,222,27610,2,0,L|350:183,1,40,0|0,0:0|0:0,0:0:0:0:
306,128,27962,1,0,0:0:0:0:
374,257,28315,2,0,L|343:218,1,40,0|0,0:0|0:0,0:0:0:0:
299,163,28668,2,0,P|277:126|246:114,1,60,0|0,0:0|0:0,0:0:0:0:
225,107,29020,2,0,P|188:108|163:122,1,60,2|0,0:0|0:0,0:0:0:0:
140,148,29373,1,4,0:0:0:0:
108,221,29549,2,0,L|55:240,2,40,0|2|2,0:0|0:0|0:0,0:0:0:0:
59,159,30077,5,4,0:0:0:0:
277,260,30429,1,0,0:0:0:0:
198,250,30606,1,0,0:0:0:0:
247,186,30782,1,0,0:0:0:0:
430,207,31134,1,0,0:0:0:0:
351,197,31311,1,0,0:0:0:0:
400,133,31487,2,0,L|447:126,1,40
380,267,31839,2,0,L|333:274,1,40,2|0,0:0|0:0,0:0:0:0:
245,284,32192,2,0,L|202:291,1,40,4|0,0:0|0:0,0:0:0:0:
151,191,32545,2,0,L|207:208,1,40,2|0,0:0|0:0,0:0:0:0:
288,149,32897,5,0,0:0:0:0:
73,288,33250,2,0,L|24:269,2,40,0|0|4,0:0|0:0|0:0,0:0:0:0:
74,128,33955,2,0,L|126:110,1,40
201,78,34307,2,0,L|269:54,1,60,0|0,0:0|0:0,0:0:0:0:
305,70,34660,2,0,L|347:55,1,40,2|0,0:0|0:0,0:0:0:0:
261,160,35012,2,0,L|308:167,1,40
348,236,35365,2,0,L|391:243,1,40,2|2,0:0|0:0,0:0:0:0:
266,244,35717,6,0,L|226:237,1,40,0|0,0:0|0:0,0:0:0:0:
156,304,36070,2,0,L|195:310,1,40,0|0,0:0|0:0,0:0:0:0:
273,326,36422,1,0,0:0:0:0:
352,341,36599,1,0,0:0:0:0:
348,260,36775,1,0,0:0:0:0:
426,277,36951,1,0,0:0:0:0:
401,196,37127,6,0,L|354:155,1,60,4|0,0:0|0:0,0:0:0:0:
307,158,37480,1,0,0:0:0:0:
479,63,37832,1,0,0:0:0:0:
398,47,38009,1,0,0:0:0:0:
424,123,38186,1,0,0:0:0:0:
445,201,38361,1,0,0:0:0:0:
445,201,38714,5,0,0:0:0:0:
424,123,38890,1,0,0:0:0:0:
398,47,39067,1,0,0:0:0:0:
346,108,39243,1,0,0:0:0:0:
267,123,39420,1,0,0:0:0:0:
271,42,39596,1,0,0:0:0:0:
193,59,39772,1,0,0:0:0:0:
142,120,39948,6,0,P|126:104|117:78,2,40,4|0|0,0:0|0:0|0:0,0:0:0:0:
101,194,40476,2,0,P|85:184|70:167,1,40,4|0,0:0|0:0,0:0:0:0:
170,239,40829,1,0,0:0:0:0:
249,251,41005,1,2,0:0:0:0:
329,260,41181,1,2,0:0:0:0:
447,240,41357,5,4,0:0:0:0:
234,201,41710,2,0,L|310:215,1,60.0000022888184
364,226,42063,1,0,0:0:0:0:
178,113,42415,2,0,L|254:127,1,60.0000022888184
310,134,42768,2,0,P|340:127|384:67,1,90.0000034332277,0|0,0:0|0:0,0:0:0:0:
389,37,43120,2,0,P|434:60|460:106,1,90.0000034332277,2|0,0:0|0:0,0:0:0:0:
460,140,43473,1,4,0:0:0:0:
448,223,43649,1,0,0:0:0:0:
323,217,43825,1,2,0:0:0:0:
335,302,44002,1,2,0:0:0:0:
212,274,44178,6,0,P|148:285|115:306,1,90.0000034332277,4|0,0:0|0:0,0:0:0:0:
93,322,44530,1,0,0:0:0:0:
226,174,44883,2,0,L|167:162,1,60.0000022888184,0|0,0:0|0:0,0:0:0:0:
104,201,45235,2,0,L|44:191,1,60.0000022888184,0|0,0:0|0:0,0:0:0:0:
37,118,45588,2,0,P|53:75|96:56,1,90.0000034332277,0|0,0:0|0:0,0:0:0:0:
139,50,45941,2,0,L|217:44,1,60.0000022888184,2|0,0:0|0:0,0:0:0:0:
255,178,46293,2,0,P|225:171|183:109,1,90.0000034332277,4|0,0:0|0:0,0:0:0:0:
256,104,46646,2,0,P|262:75|277:49,1,60.0000022888184,2|2,0:0|0:0,0:0:0:0:
398,15,46998,6,0,P|445:47|456:77,1,90.0000034332277,4|0,0:0|0:0,0:0:0:0:
455,119,47351,1,0,0:0:0:0:
375,94,47527,1,2,0:0:0:0:
306,141,47703,2,0,P|326:180|388:197,1,90.0000034332277,0|0,0:0|0:0,0:0:0:0:
353,238,48056,2,0,P|314:253|262:242,1,90.0000034332277,2|0,0:0|0:0,0:0:0:0:
222,213,48408,2,0,P|215:246|223:275,1,60.0000022888184,2|0,0:0|0:0,0:0:0:0:
157,358,48761,1,0,0:0:0:0:
248,313,48937,1,0,0:0:0:0:
338,360,49113,2,0,P|383:346|423:296,1,90.0000034332277,4|0,0:0|0:0,0:0:0:0:
432,272,49466,2,0,L|506:292,1,60.0000022888184,2|0,0:0|0:0,0:0:0:0:
463,196,49818,5,0,0:0:0:0:
294,286,50171,2,0,L|368:306,1,60.0000022888184,2|0,0:0|0:0,0:0:0:0:
325,210,50523,1,4,0:0:0:0:
154,297,50876,2,0,L|228:317,1,60.0000022888184,2|0,0:0|0:0,0:0:0:0:
185,221,51228,1,0,0:0:0:0:
17,314,51581,2,0,L|91:334,1,60.0000022888184,2|0,0:0|0:0,0:0:0:0:
154,297,51933,2,0,L|228:317,1,60.0000022888184,6|0,0:0|0:0,0:0:0:0:
48,238,52286,2,0,P|34:191|49:136,1,90.0000034332277,0|0,0:0|0:0,0:0:0:0:
64,115,52639,6,0,P|98:100|159:106,1,90.0000034332277,2|0,0:0|0:0,0:0:0:0:
198,96,52991,2,0,P|231:78|271:81,1,60.0000022888184,0|0,0:0|0:0,0:0:0:0:
250,161,53344,2,0,P|294:157|335:173,1,90.0000034332277,4|0,0:0|0:0,0:0:0:0:
384,180,53696,2,0,P|428:176|454:185,1,60.0000022888184,2|0,0:0|0:0,0:0:0:0:
414,256,54049,2,0,P|370:274|322:272,1,90.0000034332277,0|0,0:0|0:0,0:0:0:0:
283,258,54401,2,0,P|247:255|219:229,1,60.0000022888184,2|0,0:0|0:0,0:0:0:0:
72,347,54930,1,2,0:0:0:0:
159,369,55106,1,0,0:0:0:0:
243,339,55282,1,2,0:0:0:0:
283,258,55459,6,0,P|289:230|287:193,1,60.0000022888184,2|0,0:0|0:0,0:0:0:0:
373,200,55811,2,0,P|366:172|348:139,1,60.0000022888184
291,85,56164,2,0,P|249:67|198:74,1,90.0000034332277,4|0,0:0|0:0,0:0:0:0:
167,88,56516,2,0,P|136:88|105:76,1,60.0000022888184
108,203,56869,2,0,P|136:193|166:193,1,60.0000022888184,2|0,0:0|0:0,0:0:0:0:
244,156,57221,2,0,P|282:170|311:204,1,60.0000022888184
381,180,57574,2,0,P|407:217|420:275,1,90.0000034332277,4|0,0:0|0:0,0:0:0:0:
416,303,57926,2,0,L|442:233,1,60.0000022888184,2|0,0:0|0:0,0:0:0:0:
319,281,58279,6,0,P|277:297|206:293,1,90.0000034332277,0|0,0:0|0:0,0:0:0:0:
192,286,58631,2,0,L|130:304,1,60.0000022888184,0|2,0:0|0:0,0:0:0:0:
53,251,58983,1,4,0:0:0:0:
161,258,59160,1,0,0:0:0:0:
270,265,59337,2,0,L|345:272,1,60.0000022888184,0|2,0:0|0:0,0:0:0:0:
153,241,59865,5,0,0:0:0:0:
262,248,60042,2,0,L|337:255,1,60.0000022888184
374,133,60394,2,0,L|314:143,1,60.0000022888184,6|2,0:0|0:0,0:0:0:0:
373,250,60747,2,0,L|433:240,1,60.0000022888184,0|2,0:0|0:0,0:0:0:0:
325,179,61099,6,0,P|351:146|352:88,1,90.0000034332277,0|0,0:0|0:0,0:0:0:0:
313,99,61452,2,0,L|248:76,1,60.0000022888184,0|2,0:0|0:0,0:0:0:0:
148,143,61804,2,0,L|207:144,1,60.0000022888184,4|0,0:0|0:0,0:0:0:0:
144,227,62157,2,0,L|86:245,1,60.0000022888184,0|2,0:0|0:0,0:0:0:0:
369,288,62686,6,0,L|344:238,2,40,2|0|0,0:0|0:0|0:0,0:0:0:0:
377,304,63038,1,2,0:0:0:0:
385,319,63214,1,8,0:0:0:0:
394,334,63391,1,2,0:0:0:0:
401,350,63567,2,0,P|359:354|310:325,1,80,8|8,0:0|0:0,0:0:0:0:
219,214,63919,5,4,0:1:0:0:
146,302,64096,2,0,P|183:273|213:224,1,80,2|0,0:0|0:0,0:0:0:0:
33,335,64448,2,0,P|79:330|131:306,1,80,0|8,0:0|0:0,0:0:0:0:
110,64,64977,2,0,P|72:51|33:49,2,80,0|2|0,0:0|0:0|0:0,0:0:0:0:
48,232,65682,2,0,P|40:192|48:152,1,80,0|0,0:0|0:0,0:0:0:0:
85,167,65946,1,0,0:0:0:0:
125,176,66035,2,0,P|207:131|225:58,1,160,8|0,0:0|0:0,0:0:0:0:
260,291,66740,6,0,P|313:254|347:189,1,120,0|0,0:0|0:0,0:0:0:0:
356,170,67092,2,0,L|384:78,1,80,0|0,0:0|0:0,0:0:0:0:
409,2,67445,1,8,0:0:0:0:
407,289,67797,2,0,L|435:197,2,80,0|2|0,0:0|0:0|0:0,0:0:0:0:
407,289,68326,1,8,0:0:0:0:
356,170,68502,2,0,L|332:246,1,80,0|2,0:0|0:0,0:0:0:0:
233,301,68855,2,0,L|256:224,1,80,8|2,0:0|0:0,0:0:0:0:
152,124,69207,2,0,L|175:200,1,80,8|2,0:0|0:0,0:0:0:0:
207,309,69560,5,0,0:0:0:0:
175,200,69736,2,0,P|191:155|230:119,1,80,2|0,0:0|0:0,0:0:0:0:
301,62,70089,2,0,P|342:39|395:35,1,80,2|8,0:0|0:0,0:0:0:0:
151,46,70617,2,0,L|46:31,2,80,0|2|0,0:0|0:0|0:0,0:0:0:0:
354,141,71322,2,0,L|448:123,1,80,0|0,0:0|0:0,0:0:0:0:
466,151,71586,1,0,0:0:0:0:
473,192,71675,2,0,P|410:174|390:67,1,160,8|0,0:0|0:0,0:0:0:0:
407,315,72380,6,0,P|346:289|295:234,1,120
259,256,72732,2,0,L|170:269,1,80,0|2,0:0|0:0,0:0:0:0:
126,347,73085,2,0,L|166:169,1,160,8|2,0:0|0:0,0:0:0:0:
386,199,73790,2,0,L|354:113,1,80,2|2,0:0|0:0,0:0:0:0:
322,105,74054,1,0,0:0:0:0:
285,88,74143,2,0,L|253:2,1,80,10|2,0:0|0:0,0:0:0:0:
231,181,74495,6,0,L|258:255,1,80,8|10,0:0|0:0,0:0:0:0:
322,382,74848,1,2,0:0:0:0:
248,277,75024,1,8,0:0:0:0:
178,168,75200,5,4,0:1:0:0:
89,232,75376,2,0,P|115:262|153:275,1,80,2|0,0:0|0:0,0:0:0:0:
288,171,75729,2,0,P|282:210|257:240,1,80,2|8,0:0|0:0,0:0:0:0:
247,102,76082,1,0,0:0:0:0:
352,21,76258,2,0,P|313:13|277:27,2,80,0|2|0,0:0|0:0|0:0,0:0:0:0:
123,50,76963,2,0,P|141:94|190:119,1,80,0|2,0:0|0:0,0:0:0:0:
207,107,77227,1,0,0:0:0:0:
247,102,77316,2,0,L|341:111,1,80,8|2,0:0|0:0,0:0:0:0:
220,178,77668,1,0,0:0:0:0:
470,121,78021,6,0,P|457:177|397:228,1,120,0|0,0:0|0:0,0:0:0:0:
366,229,78373,2,0,L|270:232,1,80,0|2,0:0|0:0,0:0:0:0:
239,319,78726,2,0,L|103:326,1,120,8|0,0:0|0:0,0:0:0:0:
72,313,79078,2,0,L|32:353,3,40,2|0|2|0,0:0|0:0|0:0|0:0,0:0:0:0:
104,282,79431,2,0,L|85:199,1,80,0|8,0:0|0:0,0:0:0:0:
132,68,79783,2,0,L|165:211,1,120
172,232,80136,2,0,L|199:96,1,120,8|0,0:0|0:0,0:0:0:0:
207,68,80488,2,0,P|245:49|298:48,1,80,8|2,0:0|0:0,0:0:0:0:
396,68,80841,5,0,0:0:0:0:
316,139,81017,2,0,P|291:110|285:71,1,80,2|0,0:0|0:0,0:0:0:0:
420,175,81369,2,0,P|458:161|484:132,1,80,2|8,0:0|0:0,0:0:0:0:
132,286,81898,1,2,0:0:0:0:
226,308,82074,1,0,0:0:0:0:
198,217,82251,1,8,0:0:0:0:
256,192,82427,12,0,83308,0:2:0:0:
256,192,83661,5,4,0:1:0:0:
