osu file format v6

[General]
AudioFilename: YouMe.mp3
AudioLeadIn: 0
PreviewTime: 58025
Countdown: 0
SampleSet: Normal
StackLeniency: 0.5
Mode: 0
LetterboxInBreaks: 0

[Editor]
DistanceSpacing: 1.79999995231628
BeatDivisor: 4
GridSize: 8

[Metadata]
Title:You & Me
Artist:Yukari Tamura
Creator:miccoliasms
Version:Easy
Source:
Tags:azuki

[Difficulty]
HPDrainRate:2
CircleSize:3
OverallDifficulty:5
SliderMultiplier:1.2
SliderTickRate:1

[Events]
//Background and Video events
0,0,"YouMe.jpg"
//Break Periods
2,33847,44447
2,110347,120947
//Storyboard Layer 0 (Background)
//Storyboard Layer 1 (Fail)
//Storyboard Layer 2 (Pass)
//Storyboard Layer 3 (Foreground)
//Storyboard Sound Samples
//Background Colour Transformations
3,100,163,162,255

[TimingPoints]
1772,375,4,1,1,80,1,0
6792,-100,4,1,1,0,0,0
9928,-100,4,1,1,80,0,0
45272,-200,4,1,1,80,0,0
51365,-100,4,1,1,80,0,0
55303,-100,4,1,1,0,0,0
58397,-100,4,1,1,80,0,1
69834,-100,4,1,1,80,0,0
70397,-100,4,1,1,80,0,1
76209,-200,4,2,1,80,0,0
85303,-100,4,1,1,0,0,0
86897,-100,4,1,1,80,0,0
98803,-100,4,1,1,60,0,0
104147,-100,4,1,1,80,0,0
121772,-200,4,1,1,80,0,0
128522,-100,4,1,1,80,0,0
131803,-100,4,1,1,0,0,0
134897,-100,4,1,1,80,0,1
146334,-100,4,1,1,80,0,0
146897,-100,4,1,1,80,0,1
152709,-200,4,2,1,80,0,0
161709,-100,4,1,1,0,0,0

[Colours]
Combo1 : 128,255,255
Combo2 : 255,255,128
Combo3 : 255,128,255
Combo4 : 128,255,128

[HitObjects]
144,96,1772,1,0
360,96,2522,1,0
360,312,3272,1,0
360,312,3647,1,0
56,192,4772,5,0
256,112,5522,1,0
360,152,5897,1,0
464,192,6272,1,0
464,192,6647,1,0
256,208,7022,12,0,9647
256,192,10022,6,0,B|128:192,1,120
56,264,10772,2,0,B|224:264,1,120
280,264,11522,1,0
360,192,11897,2,2,B|496:192,2,120
144,192,13397,6,0,B|144:264|208:304,1,120
224,192,14147,2,0,B|224:120|160:80,1,120
144,192,14897,2,2,B|16:192,2,120
336,96,16397,6,0,B|416:112|416:192,1,120
304,168,17147,2,0,B|304:296,1,120
208,344,17897,2,2,B|80:344,2,120
56,192,19397,6,0,B|56:120|128:96,1,120
168,192,20147,2,0,B|296:192,1,120
208,264,20897,2,2,B|80:264,2,120
208,264,22022,1,2
312,264,22397,5,4
256,56,23147,1,0
208,264,23897,2,8,B|184:328|120:352,2,120
408,192,25397,5,0
256,32,26147,1,0
256,248,26897,2,8,B|288:312|368:312,2,120
48,192,28397,5,0
256,248,29147,1,0
256,32,29897,1,0
464,96,30647,1,0
272,192,31397,6,0,B|264:264|208:304,1,120
120,248,32147,2,0,B|128:176|184:136,1,120
256,72,32897,2,2,B|384:72,2,120
408,192,45647,6,0,B|480:192,2,60
192,192,47147,2,0,B|56:192,1,120
104,88,48272,1,0
200,48,48647,1,0
360,192,49397,6,0,B|336:288|216:288,1,180
272,192,50897,2,0,B|200:192,1,60
104,192,51647,6,0,B|40:192,2,60
152,96,52397,1,4
368,96,53147,1,4
368,312,53897,2,0,B|400:360|448:352,2,90
368,256,54647,2,0,B|336:208|288:216,2,90
256,208,55397,12,4,58397
256,192,59147,5,0
40,192,59897,2,8,B|80:248|40:312,2,120
192,32,61397,1,0
408,32,62147,1,0
408,248,62897,2,8,B|408:320|480:344,2,120
256,96,64397,6,0,B|312:168|240:264,2,180,0|0|2
192,184,65897,2,0,B|136:112|208:16,2,180,0|0|2
304,184,67397,5,0
88,184,68147,1,0
288,264,68897,1,2
184,264,69272,1,2
80,264,69647,1,2
160,336,70022,6,0,B|296:336,1,120,0|4
440,192,71147,1,0
256,72,71897,2,8,B|184:72|144:128,2,120
256,288,73397,5,0
64,192,74147,1,0
256,96,74897,2,8,B|328:96|384:176,2,120
64,192,76397,6,0,B|64:288|184:336,1,180,0|2
168,216,77897,2,0,B|168:72,1,120,0|2
376,40,79397,2,0,B|448:40|480:96,2,120,0|2|0
272,32,81272,2,0,B|192:32,1,60,0|2
104,32,82022,1,0
104,136,82397,6,0,B|104:272,2,120,0|2|0
320,136,84647,1,2
256,208,85397,12,4,86897
256,272,87272,5,0
360,272,87647,2,0,B|400:208|352:144,1,120
256,152,88397,2,2,B|256:24,2,120
256,368,89897,6,0,B|328:368|368:304,1,120
256,288,90647,2,0,B|184:288|144:352,1,120
168,232,91397,2,2,B|40:232,2,120
176,16,92897,6,0,B|256:32|256:112,1,120
256,200,93647,2,0,B|256:328,1,120
360,320,94397,2,2,B|488:320,2,120
144,320,95897,6,0,B|72:320|48:248,1,120
48,152,96647,2,0,B|48:8,1,120
152,32,97397,2,2,B|280:32,2,120
152,136,98522,1,0
152,240,98897,5,2
256,240,99272,1,2
256,136,99647,2,2,B|256:64,2,60
360,136,100397,2,2,B|360:48,3,60
360,344,101897,5,2
360,240,102272,1,2
256,240,102647,2,2,B|184:240,2,60
256,344,103397,2,2,B|192:344|192:344,3,60
256,80,104897,6,0,B|256:152|200:200,1,120,4|0
144,104,105647,1,0
80,192,106022,1,0
144,280,106397,2,0,B|184:344|256:344,1,120,4|0
256,232,107147,1,0
352,288,107522,1,0
352,184,107897,6,0,B|344:112|288:72,1,120
224,160,108647,2,0,B|152:152|112:96,1,120
200,40,109397,2,2,B|328:40,2,120
424,192,122147,6,0,B|424:240|480:272,2,60
256,56,123647,1,0
88,192,124397,2,0,B|16:192,2,60
256,328,125897,5,0
424,192,126647,1,0
256,56,127397,2,0,B|208:48|184:104,2,60
368,56,128522,1,0
312,144,128897,6,0,B|312:216,2,60,0|0|4
208,144,129647,2,0,B|120:144,2,60,0|0|4
208,248,130397,2,0,B|264:248|288:192,2,90
208,304,131147,2,0,B|152:304|128:360,2,90,0|0|0
256,208,131897,12,4,134897
256,192,135647,5,0
464,136,136397,2,8,B|504:192|464:256,2,120
256,192,137897,1,0
40,192,138647,1,0
192,40,139397,2,8,B|192:112|264:136,2,120
104,240,140897,6,0,B|176:296|272:224,2,180,0|0|2
192,184,142397,2,0,B|120:128|24:200,2,180,0|0|2
304,184,143897,5,0
464,40,144647,1,0
368,232,145397,1,2
264,264,145772,1,2
160,296,146147,1,2
64,240,146522,6,0,B|16:200|16:120,1,120,0|4
208,32,147647,1,0
384,160,148397,2,8,B|456:160|496:216,2,120
256,336,149897,5,0
256,120,150647,1,0
184,320,151397,2,8,B|112:320|56:240,2,120
400,312,152897,6,0,B|400:216|280:168,1,180,0|2
192,160,154397,2,0,B|56:160,1,120,0|2
288,160,155897,2,0,B|360:160|392:216,2,120,0|2|0
280,264,157772,2,0,B|280:352,1,60,0|2
384,328,158522,1,0
384,224,158897,6,0,B|384:88,2,120,0|2|0
168,224,161147,1,2
256,208,161897,12,4,164897
