osu file format v6

[General]
AudioFilename: Yukari Tamura - Kengeki Ranbu.mp3
AudioLeadIn: 1500
PreviewTime: 54054
Countdown: 1
SampleSet: Soft
StackLeniency: 0.7
Mode: 0
LetterboxInBreaks: 1

[Editor]
DistanceSpacing: 1
BeatDivisor: 4
GridSize: 8

[Metadata]
Title:Kengeki Ranbu
Artist:Yukari Tamura
Creator:kioukiou
Version:Normal
Source:Sengoku Otome
Tags:Game J-Pop

[Difficulty]
HPDrainRate:2
CircleSize:4
OverallDifficulty:5
SliderMultiplier:1.2
SliderTickRate:1

[Events]
//Background and Video events
0,0,"BG.jpg"
//Break Periods
2,80558,85684
//Storyboard Layer 0 (Background)
//Storyboard Layer 1 (Fail)
//Storyboard Layer 2 (Pass)
//Storyboard Layer 3 (Foreground)
//Storyboard Sound Samples
//Background Colour Transformations
3,100,163,162,255

[TimingPoints]
424,407.830342577488,4,2,1,85,1,0
15105,-100,4,2,1,75,0,0
50383,-100,4,2,1,85,0,0
54257,-100,4,2,1,100,0,0
78931,-100,4,2,1,0,0,0
81990,-100,4,2,1,75,0,0
122161,-100,4,2,1,85,0,0
126035,-100,4,2,1,100,0,0
150709,-100,4,2,1,0,0,0

[Colours]
Combo1 : 255,0,0
Combo2 : 255,255,0
Combo3 : 29,251,102
Combo4 : 247,188,254
Combo5 : 91,173,255

[HitObjects]
256,208,423,12,0,2055
184,88,2463,5,8
304,56,2870,1,0
416,88,3278,2,0,B|488:88,2,60,8|0|0
304,128,4094,2,0,B|224:128,2,60,8|0|0
416,160,4910,2,0,B|496:160,2,60,8|0|0
304,200,5725,1,8
192,160,6133,1,0
80,200,6541,2,0,B|8:200,2,60,8|0|0
136,304,7357,5,8
192,280,7561,1,0
248,304,7764,1,0
304,280,7968,1,0
360,304,8172,2,0,B|400:240|352:184,1,120,8|4
240,192,8988,5,8
120,192,9396,1,0
184,88,9804,2,0,B|184:16,2,60,8|0|0
304,88,10619,2,0,B|304:24,2,60,8|0|0
424,88,11435,2,0,B|424:16,2,60,8|0|0
424,208,12251,1,8
424,328,12658,1,0
320,272,13066,2,0,B|320:352,2,60,8|0|0
216,328,13882,5,8
168,360,14086,1,0
120,328,14290,1,0
72,360,14494,1,0
24,328,14698,2,0,B|-16:272|32:208,1,120,8|4
120,144,15513,5,8
120,144,15717,2,0,B|184:120|241:147,1,120
236,205,16329,2,0,B|236:291,2,60,8|0|0
236,84,17145,1,8
300,204,17552,1,0
300,84,17960,1,8
399,148,18368,6,0,B|439:204|391:268,2,120,0|8|0
335,148,19388,1,0
271,148,19592,2,0,B|135:148,2,120,8|0|8
271,208,20611,1,0
271,268,20815,2,0,B|271:339,2,60,0|0|8
150,268,21631,6,0,B|104:208|160:144,1,120,0|8
210,157,22242,1,0
210,157,22446,2,0,B|85:157,2,120,0|8|0
270,157,23466,1,0
330,157,23670,2,0,B|393:157,2,60,8|0|0
328,40,24485,6,0,B|352:16|384:16,2,60,8|0|0
264,40,25097,1,0
264,40,25301,2,0,B|141:40,2,120,8|0|8
264,104,26321,1,0
264,168,26525,2,0,B|264:248,1,60
208,232,26932,2,0,B|208:304,1,60,8|0
144,296,27340,2,0,B|144:368,2,60,0|0|8
264,296,28156,6,0,B|320:336|384:288,2,120,0|8|0
224,248,29176,1,0
184,200,29379,2,0,B|128:160|64:208,2,120,8|0|8
224,160,30399,1,0
272,120,30603,2,0,B|328:160|392:112,2,120,0|8|0
152,112,31826,5,8
152,112,32030,1,0
152,232,32438,1,0
152,232,32642,2,0,B|80:232,2,60,8|0|0
256,168,33458,1,8
376,168,33866,1,0
376,168,34070,1,0
376,168,34273,1,8
376,48,34681,6,0,L|456:48|496:24,2,120,0|8|0
312,48,35701,1,0
256,48,35905,1,8
168,128,36313,1,0
256,208,36720,1,8
352,128,37128,2,0,L|432:128|472:152,2,120,0|8|0
352,248,38352,5,8
352,312,38556,1,0
248,248,38963,1,0
272,192,39167,1,8
248,136,39371,1,0
216,192,39575,2,0,B|152:224|80:184,2,120,0|8|0
272,192,40595,1,0
328,192,40799,2,0,B|392:160|464:200,2,120,8|4|8
320,72,42022,6,0,B|256:40|192:80,2,120,0|8|0
264,176,43246,1,8
208,280,43654,2,0,B|272:312|336:272,2,120,0|8|0
88,280,44877,6,0,B|32:336,2,60,8|0|0
148,280,45489,1,0
148,280,45693,2,0,B|148:141,1,120,8|0
148,99,46304,1,0
148,38,46508,2,0,B|75:38,2,60,8|0|0
268,38,47324,5,8
300,94,47528,1,0
268,142,47732,1,0
144,144,48140,5,8
112,200,48344,1,0
144,248,48547,2,0,B|112:312|152:368,2,120,0|8|0
256,296,49771,5,8
256,296,49975,1,0
256,296,50179,2,0,B|288:272|344:312|392:288,2,120,0|8|4
256,176,51402,5,8
256,176,51606,1,4
256,56,52014,5,8
256,56,52218,1,8
256,56,52422,1,4
256,208,52626,12,4,54257
256,280,54665,6,0,B|128:280,1,120,8|0
256,216,55481,2,0,B|384:216,1,120,8|0
256,152,56296,2,0,B|128:152,1,120,8|0
136,88,56908,6,0,B|104:80|88:32,2,60,0|8|0
200,88,57520,2,0,B|336:88,1,120,0|8
200,152,58335,2,0,B|56:152,1,120,0|8
200,216,59151,2,0,B|336:216,2,120,0|8|0
160,264,60171,6,0,B|128:272|112:320,2,60,0|8|0
208,304,60782,1,0
304,232,61190,1,8
208,160,61598,1,0
112,232,62006,2,0,B|72:176|120:112,2,120,8|0|8
168,232,63025,1,0
232,232,63229,2,0,B|272:288|224:352,2,120,0|8|0
296,232,64249,5,0
352,224,64453,2,0,B|312:168|360:104,2,120,8|0|8
416,224,65472,1,0
472,224,65676,2,0,B|512:280|464:344,2,120,0|8|0
432,112,66900,5,8
328,56,67308,2,0,B|264:32|208:56,2,120,4|8|0
272,160,68531,1,8
328,264,68939,2,0,B|264:288|208:264,2,120,0|8|0
272,160,70162,5,8
272,160,70366,1,0
272,160,70570,2,0,B|312:136|360:168|400:144,2,120,4|8|0
151,160,71794,2,0,B|111:136|63:168|23:144,2,120,8|0|8
211,160,72813,1,0
211,220,73017,2,0,B|211:350,2,120,0|8|4
211,99,74241,5,8
275,219,74649,1,0
275,99,75056,1,8
376,160,75464,2,0,B|416:216|368:280,2,120,0|8|0
312,160,76484,5,0
256,136,76688,1,8
200,160,76892,1,0
200,280,77300,1,0
144,304,77503,1,8
88,280,77707,1,0
144,248,77911,2,0,B|144:112,2,120,0|8|4
256,208,78931,12,0,80358
200,64,86884,6,0,B|264:32|328:72,2,120,4|8|0
256,168,88107,1,8
312,272,88515,2,0,B|248:304|184:264,2,120,0|8|0
368,168,89738,6,0,B|432:168,2,60,8|0|0
248,168,90554,1,8
160,88,90962,1,0
72,168,91370,1,8
160,248,91777,2,0,B|160:320,2,60,0|0|8
280,248,92593,2,0,B|344:248,2,60,0|0|8
272,128,93409,6,0,B|208:96|152:131,1,120,0|8
157,188,94021,1,0
157,247,94224,2,0,B|157:322,2,60,0|0|8
264,304,95040,1,0
368,248,95448,1,8
472,304,95856,1,0
472,184,96264,6,0,B|504:168|520:128,2,60,8|0|0
368,120,97079,1,8
264,184,97487,1,0
160,120,97895,1,8
56,184,98303,2,0,B|-8:184,2,60,0|0|8
120,184,98915,1,0
176,184,99118,2,0,B|256:184,2,60,0|0|8
120,288,99934,6,0,B|56:328|0:280,2,120,0|8|0
240,288,101158,1,8
360,288,101565,2,0,B|376:320|416:328,2,60,0|0|8
299,272,102177,2,0,B|299:141,1,120
248,112,102789,6,0,B|272:80|334:80|354:120,2,120,8|0|8
192,112,103808,1,0
136,112,104012,2,0,B|113:77|59:75|29:120,2,120,0|8|0
87,149,105032,1,0
56,200,105236,1,8
88,256,105440,1,0
56,304,105644,2,0,B|56:376,2,60,0|0|8
176,304,106459,5,0
296,280,106867,1,8
416,304,107275,1,0
296,280,107683,1,8
296,160,108091,2,0,B|328:96|288:32,2,120,0|8|0
184,112,109314,5,8
128,112,109518,1,0
72,112,109722,1,0
128,216,110130,1,8
184,216,110334,1,0
128,320,110742,2,0,B|64:320,2,60,0|8|0
184,320,111353,2,0,B|248:352|312:312,2,120,0|8|0
184,264,112373,1,0
184,208,112577,1,8
96,128,112985,6,0,B|160:40|360:40|432:144,2,360,4|8|0
200,192,115839,1,8
96,256,116247,6,0,B|160:344|360:344|432:240,2,360,0|8|0
200,192,119102,1,8
320,192,119510,6,0,B|360:208|408:208|448:184,2,120,0|8|0
256,88,120733,1,8
200,192,121141,2,0,B|160:208|112:208|72:184,2,120,0|8|0
256,296,122365,5,8
256,296,122773,1,4
256,176,123180,5,8
256,176,123384,1,4
256,56,123792,5,8
256,56,123996,1,8
256,56,124200,1,4
256,208,124404,12,4,126035
256,104,126443,5,8
176,192,126851,1,0
256,280,127259,1,8
336,192,127667,2,0,B|472:192,2,120,0|8|0
256,104,128890,5,8
152,48,129298,2,0,B|80:24|16:56,2,120,0|8|0
96,152,130521,1,8
152,256,130929,2,0,B|80:280|16:248,2,120,0|8|0
96,152,132153,5,8
96,152,132357,1,0
96,152,132561,2,0,B|160:176|224:152,1,120,0|8
304,72,133376,1,0
392,152,133784,1,8
304,240,134192,2,0,B|304:368,2,120,0|8|0
248,216,135211,6,0,B|216:184|176:200,2,60,0|8|0
360,216,136027,2,0,B|392:184|432:200,2,60,0|8|0
304,184,136639,2,0,B|304:56,2,120,0|8|0
304,304,137862,1,8
184,336,138270,1,0
72,304,138678,1,8
184,264,139086,6,0,B|136:208|192:144,2,120,4|8|0
296,216,140309,1,8
408,264,140717,2,0,B|456:208|400:144,2,120,0|8|0
296,216,141941,5,8
296,216,142145,1,0
296,216,142348,2,0,B|272:272|320:304|288:360,2,120,4|8|0
296,152,143368,1,0
296,88,143572,1,8
176,88,143980,2,0,B|112:64|32:96,2,120,0|8|0
176,208,145203,6,0,B|120:264,2,60,8|0|4
288,248,146019,1,8
400,208,146427,2,0,B|448:256,2,60,0|0|8
288,176,147242,2,0,B|288:40,2,120,0|8|0
288,240,148262,6,0,B|288:320,2,60,0|8|0
184,176,149078,2,0,B|184:96,2,60,0|8|0
184,232,149689,2,0,B|184:360,2,120,0|8|4
256,208,150709,12,0,152136
