osu file format v8

[General]
AudioFilename: Yukana - Koi wa Mizu-iro.mp3
AudioLeadIn: 0
PreviewTime: 55375
Countdown: 1
SampleSet: Normal
StackLeniency: 0.7
Mode: 0
LetterboxInBreaks: 1

[Editor]
DistanceSpacing: 0.8
BeatDivisor: 4
GridSize: 8

[Metadata]
Title:Koi wa Mizu-iro (TV Size)
Artist:Yukana
Creator:Neko_Ray
Version:Normal
Source:Amagami SS
Tags:ai nanasaki

[Difficulty]
HPDrainRate:5
CircleSize:4
OverallDifficulty:4
ApproachRate:6
SliderMultiplier:1.6
SliderTickRate:4

[Events]
//Background and Video events
0,0,"bg.jpg"
//Break Periods
2,12971,21227
//Storyboard Layer 0 (Background)
//Storyboard Layer 1 (Fail)
//Storyboard Layer 2 (Pass)
//Storyboard Layer 3 (Foreground)
//Storyboard Sound Samples
//Background Colour Transformations
3,100,163,162,255

[TimingPoints]
0,594.059405940594,4,1,0,19,1,0
55375,-100,4,1,0,19,0,1
69500,-133.333333333333,4,1,0,19,0,0

[Colours]
Combo1 : 239,98,251
Combo2 : 10,184,235
Combo3 : 86,86,252
Combo4 : 255,128,0

[HitObjects]
400,128,3266,2,0,B|328:112|288:144,2,80
320,200,4306,2,0,B|392:216|432:184,2,80
224,200,5494,6,0,B|168:48|88:32|24:224,1,320,0|8
32,280,7129,1,8
136,280,7426,1,8
136,280,7625,1,8
280,280,8000,6,0,B|360:280,2,80,8|0|8
280,208,9125,6,0,B|368:208,2,80,8|0|8
280,208,10098,1,8
192,208,10396,6,0,B|192:88,2,120
192,208,11435,1,8
192,208,11584,1,8
120,208,12030,5,0
48,208,12326,2,0,B|48:328,1,120
400,72,22277,5,0
400,72,22574,2,0,C|368:136|432:216|400:272,1,240
256,256,24059,1,8
96,264,24625,5,8
96,264,25000,2,0,C|72:208|136:160|105:77,1,200,8|0
208,104,26287,5,8
208,104,26435,1,8
288,104,26732,1,8
368,104,27029,1,8
368,104,27177,1,8
288,208,28068,5,8
360,208,28366,1,8
216,208,28663,1,8
336,304,29257,2,8,B|256:304,1,80,0|8
256,304,29702,1,8
216,208,30297,1,8
360,208,30594,1,8
288,208,30891,1,8
152,152,31634,5,8
152,152,31782,1,8
88,88,32078,5,0
88,88,32228,1,0
48,176,32672,1,0
48,176,32875,2,0,B|88:256|32:328,1,160
112,328,33713,1,8
200,328,34010,1,8
304,328,34307,6,0,B|472:328,1,160,0|8
466,264,35625,6,0,B|304:264,1,160,0|8
456,72,36831,6,0,B|384:32|352:112|288:64,1,160
302,73,37722,1,0
302,73,37875,1,0
208,72,38316,5,8
208,72,38465,1,8
128,72,38750,1,8
48,136,39355,2,8,B|104:176|48:256,1,120,8|8
160,136,40395,2,0,B|216:176|160:256,1,120,8|8
280,136,41435,2,8,B|336:176|280:256,1,120,8|8
400,136,42475,2,0,B|456:176|400:256,1,120,8|8
400,304,43662,6,0,C|336:304,1,40
312,304,44108,2,0,B|264:304,1,40
224,304,44553,2,0,C|160:304,1,40
128,304,45000,2,0,B|56:224|144:152,1,160
208,160,46187,6,0,C|208:62,1,80,0|8
208,80,46930,1,8
312,80,47524,6,0,C|312:178,1,80,0|8
312,160,48266,1,8
344,160,48713,2,8,B|400:16|472:160,1,200,8|0
472,232,49901,2,0,B|408:320|336:224,1,160
264,232,50792,5,8
264,232,50941,1,8
264,312,51237,1,8
264,312,51385,1,8
184,272,51682,2,0,B|96:272,3,80
48,200,52870,5,8
48,200,53019,1,8
136,200,53168,1,8
136,200,53317,1,8
224,200,53613,2,0,B|296:200,3,40
352,200,54500,6,8,B|424:144|336:48,1,160
264,64,55396,2,0,B|200:64,2,65,0|8|0
216,128,56138,2,0,B|152:128,2,65,0|8|0
152,192,56880,2,0,B|80:192,2,65,0|8|0
88,328,57625,2,0,C|153:328,1,65,0|8
224,328,58069,6,0,B|304:232|400:344|480:192,1,280
464,120,59554,1,8
464,40,59703,1,8
464,40,59852,1,8
384,40,60149,6,0,B|280:40,2,97.5,0|8|8
288,112,61188,6,0,B|184:112,2,97.5,0|8|8
80,112,62673,2,0,B|24:192|160:264|80:328,1,227.5,0|8
160,320,63861,2,0,B|224:248|312:328,1,160,0|8
384,320,64901,6,0,B|449:320,3,65,8|0|0|8
336,232,65941,6,0,B|401:232,3,65
280,144,67129,6,0,B|345:144,3,65,8|0|0|8
160,144,68316,1,8
160,144,68465,1,8
80,144,68762,6,0,B|32:216|72:296,1,160,0|8
72,296,69652,2,0,B|232:360|292:318|395:237,1,329.999990165234,0|8
464,184,71732,1,4
464,184,71881,2,0,B|464:32,2,146.24999564141
360,112,74000,1,4
360,112,74125,2,0,B|232:8|72:136,1,299.999991059303
216,224,76633,6,0,B|153:278|208:326,2,121.874996367842
256,280,78266,2,0,B|305:280,1,48.7499985471368
376,280,78712,1,0
376,280,79009,6,0,B|472:240|504:128,2,179.999994635582
424,192,81385,2,0,B|368:192,2,48.7499985471368
368,136,82129,2,0,B|312:136,1,48.7499985471368
320,72,82723,2,0,B|272:72,1,48.7499985471368
168,48,83613,5,8
168,48,83762,1,8
168,48,83911,2,0,B|208:136|136:200|176:264,1,209.999993741512
48,112,85989,6,0,B|48:168,2,48.7499985471368,8|0|8
128,168,86732,2,0,B|128:216,1,48.7499985471368,0|8
128,216,87178,1,8
48,216,87474,2,0,B|48:280,2,48.7499985471368,8|0|8
128,272,88218,2,0,B|128:328,1,48.7499985471368,0|8
128,320,88663,1,8
232,320,90125,5,4
336,320,90625,5,4
440,320,91125,5,4
