osu file format v5

[General]
AudioFilename: 081 Rawk Hawk ROCK.mp3
AudioLeadIn: 0
PreviewTime: -1
Countdown: 1
SampleSet: Normal
StackLeniency: 0.2
Mode: 0
LetterboxInBreaks: 1
EditorDistanceSpacing: 1.39999997615814

[Metadata]
Title:Rawk Hawk Battle
Artist:Yuka Tujiyoko
Creator:rust45
Version:RAWK HAWK!!!
Source:Paper Mario
Tags:Paper Mario Rawk Hawk

[Difficulty]
HPDrainRate:5
CircleSize:5
OverallDifficulty:5
SliderMultiplier:1.4
SliderTickRate:1

[Events]
//Background and Video events
0,0,"rawkhawkbychelssk8r.png"
//Break Periods
2,28874,29333
2,35329,35409
2,47861,49459
2,54506,58573
//Storyboard Layer 0 (Background)
//Storyboard Layer 1 (Fail)
//Storyboard Layer 2 (Pass)
//Storyboard Layer 3 (Foreground)
//Storyboard Sound Samples
//Background Colour Transformations
3,100,163,162,255

[TimingPoints]
6459,379.746835443038,4,1,0,100,1,0
50319,-50,4,2,0,100,0,0
54538,-100,4,1,0,100,0,0

[HitObjects]
24,192,6458,1,0
256,368,7028,1,8
256,72,7598,1,8
504,192,8167,2,2,B|256:64|88:192,1,420
104,280,9496,5,0
384,200,10066,1,8
128,48,10636,1,8
256,312,11205,2,2,L|328:312|328:112|176:112,1,420
192,208,12534,6,0,L|24:208,1,140,0|8
56,304,13104,2,0,L|224:304,1,140,0|8
112,352,13674,2,0,L|272:352,1,140,0|8
256,264,14243,2,2,L|376:264|312:184|360:144|200:144,1,420
256,192,15572,12,4,17281
32,384,18231,5,8
312,352,18610,1,0
440,304,18800,1,8
160,248,19180,1,0
32,184,19370,1,8
312,152,19750,1,0
448,112,19940,1,8
168,112,20319,1,0
40,48,20509,1,2
168,112,20699,1,0
40,48,20889,1,2
480,0,21269,5,8
200,32,21648,1,0
72,80,21838,1,8
352,136,22218,1,0
480,200,22408,1,8
200,232,22788,1,0
64,272,22978,1,8
344,272,23357,1,0
472,336,23547,1,2
344,272,23737,1,0
472,336,23927,1,2
0,0,24307,5,8
208,192,24686,1,0
208,192,24876,1,8
488,192,25256,1,0
488,192,25446,1,8
208,192,25826,1,0
208,192,26015,1,8
256,384,26395,1,0
256,384,26585,1,2
256,384,26775,1,0
256,384,26965,1,2
256,384,27345,6,2,L|256:376|248:368|256:360|264:352|256:344|248:336|256:328|264:320|256:312|248:304|256:296|264:288|256:280|248:272|256:264|264:256|256:248|248:240|256:232|264:224|256:216|248:208|256:200|264:192|256:184|248:176|256:160|264:144|256:136|248:128|256:120|264:112|256:104|248:96|256:88|264:80|256:72|248:64|256:56|264:48|256:40|248:32|256:24|264:16|280:16,1,490
0,0,30383,5,0
16,16,30477,1,0
32,32,30572,1,0
48,48,30667,1,0
88,88,30952,5,0
88,88,31047,1,0
88,88,31142,1,0
88,88,31237,1,0
136,128,31522,5,0
152,144,31617,1,0
168,160,31712,1,0
184,176,31807,5,0
184,176,31901,1,0
184,176,31996,1,0
184,176,32091,1,0
184,176,32186,1,0
256,192,32471,5,8
256,192,32566,1,8
256,296,33041,5,0
256,272,33136,1,0
256,248,33231,1,0
256,224,33326,1,0
256,200,33421,5,0
256,200,33515,1,0
256,200,33610,1,0
256,200,33705,1,0
256,136,33990,5,8
256,136,34085,1,8
256,16,34560,5,0
256,16,34655,1,0
256,16,34750,1,0
256,16,34845,1,0
256,16,34940,1,0
256,16,35034,1,0
256,16,35129,1,0
256,192,36459,12,0,37028
256,104,37218,6,0,L|256:208,1,70
256,272,37598,2,0,L|256:344,1,70
256,344,38167,6,8,C|184:344,1,70
256,344,38547,2,8,C|336:344,1,70
256,192,39496,12,0,40065
304,40,40256,6,0,C|360:104,1,70
432,40,40636,2,0,C|432:128,1,70
440,304,41205,6,8,C|384:248,1,70
312,192,41585,2,8,C|216:192,1,70
256,192,42534,12,0,43104
192,192,43294,5,0
256,120,43484,1,0
320,192,43674,1,0
256,120,43864,1,0
256,312,44243,6,8,C|256:144,1,140
256,192,45572,12,0,46142
256,192,46332,5,0
352,192,46522,1,0
448,192,46712,1,0
448,192,46902,1,0
256,192,47281,5,8
256,192,47661,1,12
0,384,50509,6,2,L|0:240,1,140
0,160,50889,2,2,L|144:160,1,140
224,168,51269,2,2,L|224:16,1,140
304,32,51648,2,2,L|448:32,1,140
440,112,52028,2,2,L|440:256,1,140
352,248,52408,2,2,L|192:248,1,140
272,184,52788,2,2,L|120:184,1,140
128,264,53167,6,2,L|128:352|320:352,3,280
0,0,59623,5,0
80,56,59813,5,0
160,112,60003,5,0
200,144,60098,1,0
200,144,60193,1,0
240,176,60288,1,0
280,208,60383,1,0
320,232,60477,1,0
320,232,60572,1,0
256,192,60762,12,4,61332
