osu file format v5

[General]
AudioFilename: 35ghostgulping.mp3
AudioLeadIn: 2500
PreviewTime: -1
Countdown: 1
SampleSet: Normal
StackLeniency: 0.7
Mode: 0
LetterboxInBreaks: 1

[Metadata]
Title:Ghost Gulping
Artist:Yuka Tujiyoko
Creator:Wojjan
Version:Easy
Source:Paper Mario
Tags:

[Difficulty]
HPDrainRate:4
CircleSize:4
OverallDifficulty:1
SliderMultiplier:1.4
SliderTickRate:2

[Events]
//Background and Video events
0,0,"Tubba_Attacks_by_PDoogan.png"
//Break Periods
//Storyboard Layer 0 (Background)
//Storyboard Layer 1 (Failing)
//Storyboard Layer 2 (Passing)
//Storyboard Layer 3 (Foreground)
//Storyboard Sound Samples
//Background Colour Transformations
3,100,163,162,255

[TimingPoints]
899,517.509056408487,4,1,0,100,1,0

[Colours]
Combo1 : 79,98,176
Combo2 : 191,0,0
Combo3 : 109,146,119
Combo4 : 230,181,132

[HitObjects]
272,80,899,1,0
128,80,1416,1,0
128,224,1934,1,2
400,224,2969,5,0
320,112,3486,1,0
240,224,4004,1,2
240,32,5039,5,0
112,80,5556,1,0
112,208,6074,1,2
352,80,7109,6,0,B|464:192,2,140,2|0|2
80,112,9179,5,0
80,256,9696,1,0
224,256,10214,1,2
448,80,11249,5,0
304,80,11766,1,0
160,80,12284,1,2
384,240,13319,5,0
256,192,13836,1,0
384,144,14354,1,2
112,80,15389,5,0
112,224,15906,1,0
208,144,16424,2,2,B|384:144,1,140
464,48,17459,6,0,B|16:48,1,420,0|2
48,192,19529,2,0,B|480:192,1,420,2|8
464,336,21599,2,0,B|32:336,1,420,8|2
160,192,23669,2,2,B|320:192,3,140
416,272,25739,6,0,B|416:240|416:240|416:208|384:208|384:208|352:208|352:160,2,140
272,272,27291,1,8
128,272,27809,2,0,B|128:240|128:240|128:208|160:208|160:208|192:208|192:160,2,140
128,128,29361,1,8
272,128,29879,2,0,B|272:288,3,140,0|0|0|8
368,192,31949,6,4,B|256:304,1,140
141,289,32984,6,4,B|256:176,1,140
269,290,34019,6,4,B|368:192,1,140
240,190,35054,6,4,B|141:289,1,140
240,192,36089,5,0
160,64,36607,1,0
80,192,37124,1,2
360,192,38159,5,0
280,320,38677,1,0
200,192,39194,1,2
64,96,40229,5,0
208,96,40747,1,0
208,240,41264,1,2
272,64,42299,5,2
368,160,42817,1,2
240,192,43334,1,2
160,64,44369,5,0
272,112,44887,2,0,B|336:144|272:240,1,140,0|2
80,64,46439,6,0,B|64:112|144:112|128:64|192:144,1,140
288,192,47474,1,2
48,272,48509,5,0
160,224,49027,1,0
112,96,49544,1,2
384,144,50579,5,0
320,256,51097,1,0
384,144,51614,1,2
432,256,52132,1,4
320,256,52649,6,0,B|192:256|192:256|192:96|192:96|472:96,2,560,0|4|0
464,256,57824,1,0
304,328,58860,6,0,B|256:328|256:328|192:328|208:280|192:232|256:232|256:232|320:232|304:184|320:136|256:136|256:136|192:136|192:136|192:136|176:136,1,420
96,48,60930,6,2,B|224:48|224:48|336:160,1,280
296,272,62482,1,8
208,176,63000,2,2,B|96:176|96:176|64:176|64:176|64:320,1,280
184,296,64552,1,8
296,272,65070,6,2,B|200:176|200:176|312:64,1,280
384,168,66622,1,8
256,192,67140,6,4,B|112:192,1,140
256,192,68175,6,4,B|256:48,1,140
256,192,69210,6,4,B|256:336,1,140
256,192,70245,6,4,B|400:192,1,140
