osu file format v12

[General]
AudioFilename: shadow_sirens_battle.mp3
AudioLeadIn: 0
PreviewTime: 58467
Countdown: 1
SampleSet: None
StackLeniency: 0.7
Mode: 0
LetterboxInBreaks: 1
WidescreenStoryboard: 0

[Editor]
Bookmarks: 47385,79817
DistanceSpacing: 0.7
BeatDivisor: 1
GridSize: 8

[Metadata]
Title:Shadow Sirens Battle
TitleUnicode:
Artist:Yuka Tsujiyoko
ArtistUnicode:
Creator:Derekku
Version:Easy
Source:Paper Mario: The Thousand Year Door
Tags:nintendo gcn gamecube
BeatmapID:382672
BeatmapSetID:156141

[Difficulty]
HPDrainRate:2
CircleSize:3
OverallDifficulty:2
ApproachRate:3
SliderMultiplier:1
SliderTickRate:1

[Events]
//Background and Video events
0,0,"bg.jpg",0,0
//Break Periods
2,38677,47397
2,78405,79828
//Storyboard Layer 0 (Background)
//Storyboard Layer 1 (Fail)
//Storyboard Layer 2 (Pass)
//Storyboard Layer 3 (Foreground)
//Storyboard Sound Samples
//Background Colour Transformations
3,100,163,162,255

[TimingPoints]
190,405.405405405405,4,1,0,50,1,0

[Colours]
Combo1 : 255,0,128
Combo2 : 128,0,128
Combo3 : 0,128,255
Combo4 : 255,255,0

[HitObjects]
64,256,3433,1,0,0:0:0:0:
192,192,4243,1,0,0:0:0:0:
320,128,5054,1,0,0:0:0:0:
448,64,5865,1,8,0:0:0:0:
448,192,6676,1,0,0:0:0:0:
320,256,7487,1,0,0:0:0:0:
192,256,8297,1,0,0:0:0:0:
64,192,9108,1,8,0:0:0:0:
128,320,9919,5,0,0:0:0:0:
128,192,10730,1,0,0:0:0:0:
256,128,11541,2,2,B|320:128|384:256|256:320,1,200
192,320,13162,1,0,0:0:0:0:
64,320,13973,1,0,0:0:0:0:
64,192,14784,2,2,B|64:128|192:64|256:128,1,200
320,192,16405,6,8,L|448:192|448:320,3,200
320,320,19648,2,8,B|256:320|192:256|192:128,3,200
320,128,22892,6,8,B|320:64|384:0|512:64,3,200
448,192,26135,2,8,L|448:256|256:256,3,200
192,320,29378,6,0,B|128:320|64:256|64:64|128:0|320:0|384:64|384:256|320:320|256:320,1,700
192,192,33026,1,8,0:0:0:0:
256,320,33837,1,2,0:0:0:0:
320,192,34648,1,8,0:0:0:0:
256,64,35459,1,2,0:0:0:0:
256,192,35864,12,4,38297,0:0:0:0:
64,320,48837,5,0,0:0:0:0:
64,192,49648,1,0,0:0:0:0:
64,64,50458,1,0,0:0:0:0:
64,192,51269,1,2,0:0:0:0:
192,256,52080,5,0,0:0:0:0:
192,128,52891,1,0,0:0:0:0:
320,192,53702,1,0,0:0:0:0:
320,320,54512,1,2,0:0:0:0:
448,320,55323,5,0,0:0:0:0:
448,192,56134,1,0,0:0:0:0:
320,256,56945,1,0,0:0:0:0:
448,320,57756,1,2,0:0:0:0:
448,192,58566,6,0,B|448:128|384:64|128:64|0:128|0:256|64:320|256:320|384:192,2,800
448,320,65863,5,0,0:0:0:0:
320,256,66674,1,0,0:0:0:0:
192,192,67485,2,2,B|128:192|64:256,2,100
256,64,69107,1,0,0:0:0:0:
256,192,69917,2,2,B|192:256|128:256,2,100
320,320,71539,6,8,B|384:320|448:256|448:128|256:128,1,300
256,192,73161,2,8,B|192:320|64:256|64:64,1,300
256,192,74782,12,4,78025,0:0:0:0:
256,192,81268,6,8,L|256:64|384:64|384:256|192:320,1,600
128,256,84512,2,2,B|64:192|64:128|256:64|448:64,1,400,2|2,0:0|0:0,0:0:0:0:
448,192,86944,1,8,0:0:0:0:
384,320,87755,2,2,L|64:320|64:192,1,400
192,192,90187,1,4,0:0:0:0:
