osu file format v9

[General]
AudioFilename: Flower of Fortune.mp3
AudioLeadIn: 3000
PreviewTime: 63844
Countdown: 1
SampleSet: Normal
StackLeniency: 0.7
Mode: 0
LetterboxInBreaks: 1

[Editor]
DistanceSpacing: 1
BeatDivisor: 2
GridSize: 4

[Metadata]
Title:Flower of Fortune
Artist:Yuka
Creator:wanhyrzh
Version:Normal
Source:Hanaoni ~Koi Someru Toki Towa no Shirushi~
Tags:Crazy Jay qinche unmei no hana

[Difficulty]
HPDrainRate:2
CircleSize:3
OverallDifficulty:2
ApproachRate:4
SliderMultiplier:0.799999999999999
SliderTickRate:1

[Events]
//Background and Video events
Video,0,"hanaoni.avi"
0,0,"bg-osu.jpg"
//Break Periods
//Storyboard Layer 0 (Background)
//Storyboard Layer 1 (Fail)
//Storyboard Layer 2 (Pass)
//Storyboard Layer 3 (Foreground)
//Storyboard Sound Samples
//Background Colour Transformations
3,100,0,0,0

[TimingPoints]
-391,352.941176470588,4,1,1,80,1,0
1197,-100,4,1,1,40,0,0
1550,-100,4,1,1,80,0,0
2961,-100,4,1,1,40,0,0
3138,-100,4,1,1,80,0,0
4020,-100,4,1,1,40,0,0
4373,-100,4,1,1,80,0,0
7020,-100,4,1,1,85,0,0
8079,-100,4,1,1,90,0,0
9138,-100,4,2,1,15,0,0
9491,-100,4,1,1,60,0,0
10550,-100,4,1,2,60,0,0
10726,-100,4,1,1,60,0,0
11961,-100,4,1,2,60,0,0
12138,-100,4,1,1,60,0,0
14432,-100,4,1,1,65,0,0
15491,-100,4,1,2,65,0,0
15844,-100,4,1,1,65,0,0
16197,-100,4,1,2,65,0,0
16373,-100,4,1,1,65,0,0
19373,-100,4,1,1,75,0,0
19550,-100,4,1,1,55,0,0
20079,-100,4,1,1,75,0,0
23961,-100,4,1,2,75,0,0
24138,-100,4,1,1,40,0,0
24491,-100,4,1,1,75,0,0
30844,-100,4,1,1,30,0,0
31197,-100,4,1,1,75,0,0
32432,-100,4,1,2,75,0,0
32608,-100,4,1,1,75,0,0
34020,-100,4,1,1,40,0,0
34373,-100,4,1,1,75,0,0
38785,-100,4,1,2,85,0,0
39138,-200,4,2,1,65,0,0
39844,-200,4,2,1,40,0,0
44432,-200,4,2,1,35,0,0
62961,-100,4,2,1,50,0,0
64550,-100,4,1,1,80,0,1
70550,-100,4,1,2,80,0,1
70903,-100,4,1,1,80,0,1
71256,-100,4,1,2,80,0,1
71432,-100,4,1,1,80,0,1
75491,-100,4,1,1,70,0,1
81138,-100,4,1,1,75,0,1
81844,-100,4,1,1,80,0,1
86608,-100,4,1,2,80,0,1
87138,-100,4,1,1,80,0,0
87491,-100,4,2,1,5,0,0
89961,-100,4,1,1,70,0,0

[Colours]
Combo1 : 248,183,124
Combo2 : 128,0,48
Combo3 : 240,200,255

[HitObjects]
112,56,138,2,0,B|68:56,2,40,0|8|0
212,120,1020,6,0,B|284:176|284:260,1,160,4|8
380,332,2256,2,0,B|460:332,1,79.9999999999999,4|8
460,252,2961,2,0,B|460:208,1,40,0|8
460,132,3491,1,4
460,52,3844,6,0,B|384:12|304:52,1,160,4|8
300,132,4903,1,0
224,164,5256,2,0,B|184:164,1,40,4|8
108,132,5785,2,0,B|108:84,5,40,4|8|0|0|0|4
28,92,7020,6,0,B|28:172,1,79.9999999999999,8|0
80,232,7726,1,8
136,292,8079,2,0,B|136:332,3,40,4|4|4|4
200,232,9138,6,0,B|284:232,1,79.9999999999999,0|4
360,232,9844,1,8
440,232,10197,2,0,B|468:152|440:76,1,160
360,76,11256,1,8
280,76,11608,2,0,B|252:156|280:232,1,160,0|4
280,312,12667,5,8
200,312,13020,2,0,B|120:312,1,79.9999999999999,0|8
64,252,13726,2,0,B|20:252,2,40,4|0|8
64,172,14432,2,0,B|144:172,1,79.9999999999999,0|8
144,92,15138,2,0,B|304:92,2,160,4|0|4
84,36,16903,6,0,B|44:36,2,40,8|0|0
144,92,17608,1,8
204,148,17961,1,4
264,204,18314,2,0,B|344:204,2,79.9999999999999,8|0|8
264,284,19373,2,0,B|264:332,1,40,4|8
424,204,20432,5,4
424,124,20785,2,0,B|424:84,1,40,4|8
272,40,21667,6,0,B|232:40,1,40,4|8
172,92,22197,6,0,B|88:92,1,79.9999999999999,4|8
100,172,22903,2,0,B|16:172,1,79.9999999999999,2|8
20,252,23608,2,0,B|88:352|88:352|208:352,1,240,4|8
288,352,25020,5,4
368,352,25373,2,0,B|404:336|424:296,2,79.9999999999999,8|2|8
344,276,26432,2,0,B|359:239|400:220,1,79.9999999999999,4|8
468,180,27138,2,0,B|512:180,4,40,10|10|8|2|12
468,60,28373,6,0,B|424:60,1,40,4|8
308,60,29079,2,0,B|308:20,3,40,4|4|4|8
228,20,29961,2,0,B|196:48|152:48,1,79.9999999999999,0|8
76,48,30667,6,0,B|76:128|152:184,1,160,4|8
232,184,31726,1,0
312,188,32079,2,0,B|312:268|236:324,1,160,4|8
157,323,33138,2,0,B|113:323,2,40,8|0|4
237,323,33844,6,0,B|317:323|393:291,1,160,8|8
368,216,34903,2,0,B|392:184|404:144,1,79.9999999999999,0|8
328,124,35608,2,0,B|337:85|328:44,1,79.9999999999999,0|8
248,44,36314,6,0,B|168:44,3,79.9999999999999,4|8|0|8
116,104,37726,2,0,B|76:104,2,40,4|4|8
196,124,38432,2,0,B|196:288,1,160,8|4
356,284,39844,6,0,B|396:296|436:284,1,79.9999999999999,2|0
304,192,41256,1,2
416,76,41961,2,0,B|363:47|303:39|243:47|183:75,1,240,4|0
48,160,44785,6,0,B|68:244|148:276,1,160,4|0
304,316,46903,1,2
408,196,47608,1,6
304,76,48314,1,2
196,196,49020,1,6
304,316,49726,6,0,B|340:336|380:316,1,79.9999999999999,2|4
304,176,51138,2,0,B|303:134|266:110,1,79.9999999999999,2|0
176,240,52550,2,0,B|140:261|137:305,1,79.9999999999999,2|4
224,172,53961,2,0,B|188:150|186:106,2,79.9999999999999,2|0|0
376,116,56079,6,0,B|401:79|446:78|472:127|446:164|402:165,2,160,4|0|4
72,220,60314,1,6
256,192,60667,12,2,62961
256,344,64020,6,0,B|256:224,1,120,0|4
336,224,64903,1,10
416,224,65256,2,0,B|448:192|416:152,1,79.9999999999999,6|10
416,72,65961,5,4
344,40,66314,1,10
264,40,66667,1,6
192,72,67020,1,10
192,152,67373,6,0,B|112:152,1,79.9999999999999,4|10
144,228,68079,2,0,B|224:228,1,79.9999999999999,6|10
256,304,68785,2,0,B|256:344,2,40,4|2|2
336,304,69491,5,6
416,304,69844,1,10
480,252,70197,2,0,B|536:176|480:104,2,160,4|6|4
404,224,71961,2,0,B|324:224,2,79.9999999999999,10|6|10
404,144,73020,6,0,B|404:64,1,79.9999999999999,4|10
324,64,73726,1,6
244,64,74079,1,10
164,64,74432,2,0,B|124:64,3,40,4|2|10|2
44,64,75314,1,8
80,176,75844,6,0,B|56:256|80:336,1,160,4|8
156,304,76903,1,0
224,344,77256,2,0,B|304:368|384:344,1,160,4|8
452,304,78314,2,0,B|452:392,2,79.9999999999999,6|4|10
452,224,79373,5,10
512,168,79726,1,4
452,112,80079,1,4
392,168,80432,2,0,B|312:168,1,79.9999999999999,10|8
256,224,81138,2,0,B|256:272,2,40,2|10|0
196,168,81844,6,0,B|116:168,2,79.9999999999999,10|4|10
196,88,82903,1,4
276,88,83256,1,10
356,88,83608,1,6
436,88,83961,1,8
396,156,84314,6,0,B|436:188,10,40,8|6|8|6|8|6|8|6|10|6|10
340,212,86432,6,0,B|180:212,1,160,8|4
256,192,87491,12,8,89961
