osu file format v9

[General]
AudioFilename: Flower of Fortune.mp3
AudioLeadIn: 3000
PreviewTime: 63844
Countdown: 1
SampleSet: Soft
StackLeniency: 0.7
Mode: 0
LetterboxInBreaks: 1

[Editor]
DistanceSpacing: 1
BeatDivisor: 4
GridSize: 4

[Metadata]
Title:Flower of Fortune
Artist:Yuka
Creator:wanhyrzh
Version:Insane
Source:Hanaoni ~Koi Someru Toki Towa no Shirushi~
Tags:Crazy Jay qinche unmei no hana

[Difficulty]
HPDrainRate:8
CircleSize:4
OverallDifficulty:7
ApproachRate:8
SliderMultiplier:1.8
SliderTickRate:1

[Events]
//Background and Video events
Video,0,"hanaoni.avi"
0,0,"bg-osu.jpg"
//Break Periods
//Storyboard Layer 0 (Background)
//Storyboard Layer 1 (Fail)
//Storyboard Layer 2 (Pass)
//Storyboard Layer 3 (Foreground)
//Storyboard Sound Samples
//Background Colour Transformations
3,100,163,162,255

[TimingPoints]
-391,352.941176470588,4,1,0,50,1,0
314,-100,4,1,1,50,0,0
491,-100,4,1,1,70,0,0
579,-100,4,1,1,65,0,0
667,-100,4,1,1,60,0,0
1020,-100,4,1,1,80,0,0
1373,-100,4,1,1,60,0,0
7197,-100,4,1,1,50,0,0
7373,-100,4,1,1,60,0,0
7550,-100,4,1,1,50,0,0
7726,-100,4,1,1,60,0,0
7903,-100,4,1,1,50,0,0
8079,-100,4,1,1,80,0,0
8432,-100,4,1,1,85,0,0
8785,-100,4,2,1,25,0,0
9138,-100,4,2,1,45,0,0
9403,-100,4,1,1,50,0,0
14344,-100,4,1,1,45,0,0
14432,-100,4,1,1,50,0,0
15756,-100,4,1,1,45,0,0
15844,-100,4,1,1,50,0,0
16550,-100,4,1,1,60,0,0
16814,-100,4,1,1,50,0,0
18138,-100,4,1,1,60,0,0
18403,-100,4,1,1,50,0,0
19373,-80,4,1,1,80,0,0
19550,-100,4,1,1,70,0,0
20520,-100,4,1,1,40,0,0
20608,-100,4,1,1,45,0,0
20697,-100,4,1,1,40,0,0
20785,-80,4,1,1,75,0,0
20961,-100,4,1,1,65,0,0
21756,-100,4,1,1,45,0,0
21844,-100,4,1,1,50,0,0
22197,-80,4,1,1,50,0,0
22550,-100,4,1,1,50,0,0
24226,-100,4,1,1,45,0,0
24314,-100,4,1,1,50,0,0
25020,-80,4,1,1,50,0,0
25638,-100,4,1,1,45,0,0
25726,-100,4,1,1,50,0,0
27491,-100,4,1,1,45,0,0
27844,-80,4,1,1,45,0,0
28020,-100,4,1,1,45,0,0
28550,-100,4,1,1,40,0,0
28726,-100,4,1,1,50,0,0
29079,-100,4,1,1,40,0,0
29256,-100,4,1,1,50,0,0
29608,-100,4,1,1,45,0,0
29961,-100,4,1,1,50,0,0
30314,-100,4,1,1,45,0,0
30667,-100,4,1,1,50,0,0
30844,-100,4,1,1,40,0,0
31197,-100,4,1,1,45,0,0
31373,-100,4,1,1,50,0,0
32785,-100,4,1,1,65,0,0
33226,-100,4,1,1,55,0,0
33314,-100,4,1,1,50,0,0
33403,-100,4,1,1,55,0,0
33491,-100,4,1,1,60,0,0
33844,-80,4,1,1,60,0,0
34108,-100,4,1,1,60,0,0
35520,-100,4,1,1,55,0,0
35608,-100,4,1,1,60,0,0
36932,-100,4,1,1,55,0,0
37020,-100,4,1,1,60,0,0
37903,-100,4,1,1,50,0,0
38079,-100,4,1,1,60,0,0
38873,-100,4,1,1,55,0,0
38961,-100,4,1,1,50,0,0
39050,-100,4,1,1,45,0,0
39138,-200,4,2,1,60,0,0
39314,-200,4,2,1,35,0,0
42006,-200,4,2,1,20,0,0
43373,-200,4,2,1,40,0,0
44829,-200,4,2,1,10,0,0
46197,-200,4,2,1,40,0,0
46814,-200,4,2,1,30,0,0
47608,-200,4,2,1,5,0,0
48314,-200,4,2,1,30,0,0
49020,-200,4,2,1,5,0,0
49726,-200,4,2,1,30,0,0
51138,-200,4,2,1,25,0,0
52373,-200,4,2,1,20,0,0
52550,-200,4,2,1,30,0,0
52726,-200,4,2,1,25,0,0
53256,-200,4,2,1,15,0,0
53961,-200,4,2,1,20,0,0
54138,-200,4,2,1,35,0,0
54314,-200,4,2,1,15,0,0
54491,-200,4,2,1,20,0,0
55020,-200,4,2,1,30,0,0
55726,-200,4,2,1,25,0,0
57138,-200,4,2,1,30,0,0
57491,-200,4,2,1,20,0,0
57844,-200,4,2,1,35,0,0
58197,-200,4,2,1,10,0,0
58550,-200,4,2,1,35,0,0
58903,-200,4,2,1,40,0,0
61726,-200,4,2,1,50,0,0
62079,-200,4,2,1,40,0,0
62432,-200,4,2,1,45,0,0
62785,-200,4,2,1,50,0,0
63844,-100,4,1,1,30,0,0
64197,-100,4,1,1,45,0,0
64373,-100,4,1,1,50,0,0
64550,-100,4,1,1,60,0,1
66579,-100,4,1,1,45,0,1
66667,-100,4,1,1,60,0,1
70461,-100,4,1,1,40,0,1
70550,-100,4,1,1,60,0,1
74432,-100,4,1,1,80,0,1
75138,-100,4,1,1,60,0,1
76550,-100,4,1,1,45,0,1
76726,-100,4,1,1,60,0,1
76903,-100,4,1,1,70,0,1
77256,-100,4,1,1,60,0,1
77873,-100,4,1,1,50,0,1
77961,-100,4,1,1,60,0,1
78667,-100,4,1,1,70,0,1
79020,-100,4,1,1,60,0,1
87138,-100,4,1,1,50,0,0
87314,-100,4,1,0,30,0,0
87634,-100,4,2,1,5,0,0
89961,-100,4,1,1,80,0,0

[Colours]
Combo1 : 248,183,124
Combo2 : 128,0,48
Combo3 : 240,200,255

[HitObjects]
336,160,138,2,0,B|372:192,2,45,4|0|8
344,72,491,1,8
328,56,579,1,0
312,40,667,1,0
132,40,1020,6,0,B|204:100|204:200,1,180,4|0
144,268,1550,2,0,B|172:304|220:316,1,90,4|8
476,268,2256,1,4
476,268,2432,2,0,B|388:268,1,90,4|8
224,192,2961,2,0,B|320:192,1,90,4|8
132,192,3491,1,4
292,276,3844,6,0,B|364:216|364:116,1,180,4|0
284,160,4373,2,0,B|248:191|202:191,1,90,4|8
72,316,4903,2,0,B|103:279|102:231,1,90,0|4
124,144,5256,2,0,B|118:101|81:66,1,90,4|8
172,224,5785,2,0,B|212:208|256:192,1,90,4|8
256,192,6138,1,8
256,192,6226,1,8
256,192,6314,1,8
420,192,6491,5,8
420,192,6579,1,8
420,192,6667,2,0,B|332:192,1,90,4|0
256,28,7020,2,0,B|256:116,1,90,8|8
92,192,7373,2,0,B|184:192,1,90,8|8
256,356,7726,2,0,B|256:264,1,90,8|8
144,88,8079,5,4
144,308,8256,1,4
364,308,8432,1,4
364,88,8608,1,4
256,164,8961,6,0,B|256:64,2,90,0|2|0
344,180,9491,2,0,B|280:248|180:248,1,180,4|8
48,248,10108,1,0
48,248,10197,1,4
48,336,10373,2,0,B|92:352|136:352,1,90,4|8
228,344,10726,1,4
304,296,10903,2,0,B|358:220|339:122,1,180,4|8
204,124,11520,1,0
204,124,11608,1,4
296,124,11785,2,0,B|388:124,1,90,0|8
340,44,12138,6,0,B|248:44,1,90,0|4
68,48,12667,2,0,B|32:116|68:180,1,135,8|0
104,204,13020,2,0,B|144:184|192:184,1,90,4|4
316,316,13373,2,0,B|278:291|254:249,1,90,8|4
308,80,13726,2,0,B|306:124|282:166,1,90,4|0
308,80,14079,2,0,B|244:80|180:44,1,135,8|8
156,44,14432,5,4
160,68,14520,1,0
164,92,14608,1,4
88,144,14785,2,0,B|100:188|140:220,1,90,8|4
80,288,15138,2,0,B|172:292|256:248,1,180,4|8
376,308,15756,5,8
376,308,15844,2,0,B|400:268|400:220,1,90,4|4
316,84,16197,2,0,B|292:124|292:172,1,90,8|4
384,168,16550,2,0,B|432:168,2,45,4|0|4
293,170,16903,1,8
284,260,17079,2,0,B|192:260|124:188,1,180,4|4
72,116,17608,5,8
20,188,17785,1,4
72,260,17961,1,8
72,352,18138,1,4
72,352,18226,1,4
72,352,18314,2,0,B|160:352|164:352,1,90,8|4
344,352,18667,1,8
344,172,18844,1,4
164,172,19020,1,8
164,172,19197,1,0
164,172,19285,1,0
164,172,19373,2,0,B|164:60,1,112.499998323619,4|4
414,101,20432,5,8
397,118,20520,1,8
380,135,20608,1,8
363,152,20697,1,8
344,172,20785,2,0,B|259:256,1,112.499998323619,4|4
48,248,21667,5,4
79,216,21756,1,4
108,184,21844,2,0,B|132:160,4,22.5,8|0|0|0|0
304,72,22197,6,0,B|296:176|192:260,1,224.999996647239,4|10
68,316,22814,1,8
68,316,22903,1,4
156,320,23079,1,2
244,336,23256,1,8
324,372,23432,1,2
324,284,23608,2,0,B|360:260|412:260,1,90,4|2
308,112,23961,2,0,B|272:136|220:136,1,90,8|0
222,135,24226,1,8
222,135,24314,6,0,B|198:99|198:47,1,90,6|2
222,135,24667,2,0,B|246:171|246:223,1,90,10|2
222,134,25020,6,0,B|180:188|168:96|128:144,1,112.499998323619,4|2
16,144,25373,2,0,B|-65:207|73:225|0:286,1,168.749997485429,4|2
0,308,25726,5,6
76,356,25903,1,2
148,304,26079,1,8
232,336,26256,1,2
264,252,26432,1,8
352,260,26609,1,2
316,176,26785,1,8
404,152,26962,1,2
492,128,27138,5,8
492,104,27226,1,0
468,104,27314,1,2
468,80,27403,1,0
444,76,27491,1,8
444,52,27579,1,0
420,52,27667,1,2
420,28,27756,1,0
392,28,27844,6,0,B|280:28,1,112.499998323619,4|4
240,204,28373,2,0,B|328:204,1,90,4|8
164,128,28903,2,0,B|72:128,1,90,0|4
112,208,29256,2,0,B|96:248|112:296,1,90,4|4
192,336,29608,1,8
192,336,29697,1,0
396,160,29961,2,0,B|412:120|396:72,1,90,4|4
316,32,30313,1,8
316,32,30402,1,0
180,32,30667,5,4
180,32,30844,2,0,B|180:124|256:188,1,180,4|4
376,244,31373,2,0,B|196:244,1,180,8|0
120,300,31903,1,4
194,357,32079,1,4
264,300,32256,1,4
195,243,32432,2,0,B|201:215|188:176|195:150,1,90,8|0
196,64,32785,1,10
76,28,33138,5,8
76,52,33226,1,8
76,76,33314,1,8
76,100,33403,1,8
76,124,33491,1,4
216,48,33844,6,0,B|384:48,1,168.749997485429,8|8
336,48,34197,2,0,B|336:140,1,90,4|6
428,292,34550,2,0,B|428:204,1,90,8|6
256,252,34903,2,0,B|256:340,1,90,0|6
148,196,35256,2,0,B|148:108,1,90,8|2
148,106,35520,1,8
148,106,35608,1,4
72,152,35785,1,6
148,196,35961,1,8
224,152,36138,1,2
312,152,36314,6,0,B|352:132|376:92,1,90,6|2
480,240,36667,2,0,B|440:260|416:304,1,90,10|2
416,302,36932,1,10
416,302,37020,1,6
236,304,37197,2,0,B|328:304,2,90,4|10|2
184,232,37726,2,0,B|96:232,2,90,4|6|8
96,96,38256,1,2
308,96,38432,5,8
284,96,38520,1,0
260,96,38609,1,2
236,96,38697,1,0
212,96,38785,1,8
188,96,38873,1,8
164,96,38961,1,10
140,96,39050,1,8
116,96,39138,5,4
204,244,39844,2,0,B|116:276|28:244,1,180,2|0
308,124,41256,2,0,B|396:92|484:124,1,180,2|4
256,192,42006,12,4,43373
256,148,44432,6,0,B|248:180|264:212|256:244,1,90,0|4
256,192,44829,12,4,46197
256,192,46903,5,2
256,192,47608,12,2,48314
256,192,49020,12,2,49726
256,192,50432,5,4
420,120,51138,2,0,B|472:100,1,45,2|0
408,240,51667,2,0,B|364:260,1,45,0|4
188,260,52197,1,0
148,276,52373,1,2
108,296,52550,1,0
68,312,52726,1,2
256,192,53256,5,4
176,16,53961,5,2
220,28,54138,1,0
260,48,54314,1,2
304,60,54491,1,0
348,68,54667,2,0,B|396:72|436:88,2,90,4|2|2
356,156,55726,5,0
358,163,55814,1,0
360,171,55903,1,0
362,179,55991,1,0
364,186,56079,1,4
368,192,56432,6,0,B|390:231|433:257,1,90,2|0
352,92,57138,2,0,B|312:114|262:114,1,90,2|2
444,128,57844,1,0
444,128,58197,2,0,B|448:100|440:68|444:36,1,90,6|2
324,172,58903,5,4
324,172,59079,1,0
324,172,59256,2,0,B|320:200|328:232|324:264,2,90,0|0|2
168,260,60314,5,4
12,172,60667,1,2
168,80,61020,1,0
324,172,61373,1,2
480,260,61726,5,6
324,348,62079,5,2
324,304,62256,1,0
324,260,62432,2,0,B|296:260,2,22.5,2|0|0
324,216,62785,1,2
324,172,62961,2,0,B|324:160,4,11.25,0|0|0|0|2
80,272,64020,5,2
20,340,64197,1,2
80,272,64373,1,0
152,216,64550,2,0,B|224:172|324:160,1,180,4|10
372,36,65167,1,8
372,36,65256,2,0,B|332:16|284:16,1,90,6|6
116,80,65608,2,0,B|156:100|204:100,1,90,8|6
372,168,65961,6,0,B|332:188|284:188,1,90,4|2
152,308,66314,2,0,B|144:265|156:220,1,90,8|2
157,220,66579,1,8
157,220,66667,1,6
204,100,66844,1,6
204,100,66932,1,2
204,100,67020,1,8
384,100,67197,5,2
296,256,67373,1,4
204,100,67550,1,2
116,256,67726,1,10
24,100,67903,1,2
40,84,67991,1,8
56,68,68079,2,0,B|144:68,1,90,6|6
284,192,68432,1,8
284,192,68608,2,0,B|196:192,1,90,2|4
348,296,68961,2,0,B|440:296,1,90,2|8
456,116,69314,1,2
436,124,69403,1,8
416,132,69491,6,0,B|444:176|448:216,1,90,6|4
424,216,69756,1,2
404,228,69844,2,0,B|386:270|347:296,1,90,8|2
208,184,70197,2,0,B|192:140|152:115,1,90,4|2
176,108,70461,1,0
200,108,70550,2,0,B|268:108|268:108|304:100|328:76,1,135,8|8
340,60,70903,5,6
438,151,71079,1,6
381,274,71256,1,8
245,258,71432,1,6
220,125,71609,1,4
87,104,71785,1,2
30,227,71961,1,8
129,320,72138,1,2
129,320,72226,1,8
129,320,72314,1,6
268,184,72491,5,6
268,184,72579,1,2
268,184,72667,1,8
180,32,72844,5,2
180,32,73020,2,0,B|92:32,1,90,4|2
268,72,73373,2,0,B|360:72,1,90,10|2
348,92,73638,1,8
340,112,73726,2,0,B|428:112,1,90,6|2
476,192,74079,2,0,B|444:192|384:192,1,90,8|2
124,192,74432,5,4
256,72,74608,1,4
256,316,74785,1,4
386,192,74961,1,12
124,192,75314,5,10
168,192,75403,1,8
212,192,75491,1,8
256,192,75579,1,8
300,192,75667,1,10
344,192,75756,1,8
388,192,75844,1,6
436,116,76020,6,0,B|348:116,1,90,6|0
256,272,76373,1,4
256,272,76550,2,0,B|348:272,1,90,10|2
184,192,76903,2,0,B|160:236,2,45,0|0|6
100,352,77256,1,4
76,172,77432,5,8
76,172,77520,1,2
76,172,77609,1,6
236,92,77785,1,6
236,92,77873,1,0
236,92,77961,1,8
256,272,78138,1,2
256,272,78226,1,2
256,272,78314,2,0,B|256:364,1,90,6|4
360,212,78667,2,0,B|360:304,1,90,4|6
464,152,79020,6,0,B|464:196|464:252,2,90,6|2|8
464,128,79461,1,0
464,104,79550,2,0,B|464:72|464:8,1,90,2|4
388,60,79903,1,6
312,104,80079,1,0
236,148,80256,1,8
156,192,80432,2,0,B|76:236,2,90,2|6|8
152,284,80961,1,2
174,321,81050,1,2
197,359,81138,1,8
264,300,81314,1,2
308,300,81403,1,8
352,300,81491,1,4
444,32,81844,6,0,B|304:32,1,135,8|8
309,32,82197,1,6
224,0,82373,1,4
140,32,82550,2,0,B|96:48|40:48,1,90,12|0
172,128,82903,2,0,B|212:144|260:144,1,90,6|4
152,228,83256,2,0,B|168:272|168:320,1,90,8|6
292,264,83609,2,0,B|336:264|384:284,1,90,6|8
312,164,83961,2,0,B|312:120|332:72,1,90,4|6
152,64,84314,5,8
152,64,84491,1,6
96,236,84667,5,8
96,236,84844,1,6
256,320,85020,5,8
256,320,85197,1,6
416,236,85373,5,8
416,236,85550,1,6
360,64,85726,5,8
360,64,85903,1,6
152,64,86079,5,12
152,64,86256,2,0,B|108:72|76:112,1,90,6|8
56,152,86520,1,8
52,196,86609,1,2
64,240,86697,1,8
92,276,86785,1,8
132,296,86873,1,8
176,296,86961,1,8
216,276,87050,1,8
244,240,87138,1,4
256,192,87491,5,4
256,192,87579,12,12,89961
