osu file format v9

[General]
AudioFilename: Flower of Fortune.mp3
AudioLeadIn: 3000
PreviewTime: 63844
Countdown: 1
SampleSet: Normal
StackLeniency: 0.7
Mode: 0
LetterboxInBreaks: 1

[Editor]
DistanceSpacing: 1
BeatDivisor: 4
GridSize: 4

[Metadata]
Title:Flower of Fortune
Artist:Yuka
Creator:wanhyrzh
Version:Hard
Source:Hanaoni ~Koi Someru Toki Towa no Shirushi~
Tags:Crazy Jay qinche unmei no hana

[Difficulty]
HPDrainRate:5
CircleSize:4
OverallDifficulty:5
ApproachRate:6
SliderMultiplier:1.4
SliderTickRate:1

[Events]
//Background and Video events
Video,0,"hanaoni.avi"
0,0,"bg-osu.jpg"
//Break Periods
//Storyboard Layer 0 (Background)
//Storyboard Layer 1 (Fail)
//Storyboard Layer 2 (Pass)
//Storyboard Layer 3 (Foreground)
//Storyboard Sound Samples
//Background Colour Transformations
3,100,0,0,0

[TimingPoints]
-391,352.941176470588,4,1,1,70,1,0
314,-80,4,1,1,70,0,0
1020,-100,4,1,1,80,0,0
1373,-100,4,1,1,60,0,0
8079,-100,4,1,1,80,0,0
8432,-100,4,1,1,85,0,0
8785,-100,4,2,1,25,0,0
9138,-100,4,2,1,45,0,0
9403,-100,4,1,1,50,0,0
16550,-100,4,1,1,60,0,0
16814,-100,4,1,1,50,0,0
18138,-100,4,1,1,60,0,0
18403,-100,4,1,1,50,0,0
19373,-80,4,1,1,80,0,0
19473,-80,4,1,1,70,0,0
20432,-100,4,1,1,70,0,0
20961,-100,4,1,1,60,0,0
21844,-100,4,1,1,50,0,0
27491,-100,4,1,1,45,0,0
28726,-100,4,1,1,50,0,0
29079,-100,4,1,1,40,0,0
29256,-100,4,1,1,50,0,0
29608,-100,4,1,1,45,0,0
29961,-100,4,1,1,50,0,0
30314,-100,4,1,1,45,0,0
30667,-100,4,1,1,50,0,0
30844,-100,4,1,1,40,0,0
31197,-100,4,1,1,45,0,0
31373,-100,4,1,1,50,0,0
32785,-100,4,1,1,55,0,0
32961,-100,4,1,1,70,0,0
33491,-100,4,1,1,60,0,0
33844,-100,4,1,1,50,0,0
34726,-100,4,1,1,60,0,0
37903,-100,4,1,1,50,0,0
38079,-100,4,1,1,60,0,0
38697,-100,4,1,2,40,0,0
39138,-200,4,2,1,60,0,0
39314,-200,4,2,1,35,0,0
42667,-200,4,2,1,20,0,0
43373,-200,4,2,1,40,0,0
44785,-200,4,2,1,35,0,0
45138,-200,4,2,1,25,0,0
45491,-200,4,2,1,35,0,0
46814,-200,4,2,1,30,0,0
47608,-200,4,2,1,5,0,0
50432,-200,4,2,1,35,0,0
51667,-200,4,2,1,30,0,0
52550,-200,4,2,1,40,0,0
52726,-200,4,2,1,35,0,0
53256,-200,4,2,1,25,0,0
53961,-200,4,2,1,35,0,0
54314,-200,4,2,1,30,0,0
54667,-200,4,2,1,20,0,0
55020,-200,4,2,1,30,0,0
56079,-200,4,2,1,15,0,0
56432,-200,4,2,1,30,0,0
57491,-200,4,2,1,20,0,0
57844,-200,4,2,1,35,0,0
58197,-200,4,2,1,10,0,0
58550,-200,4,2,1,35,0,0
58903,-200,4,2,1,40,0,0
61726,-200,4,2,1,50,0,0
63844,-100,4,1,1,30,0,0
64197,-100,4,1,1,45,0,0
64373,-100,4,1,1,50,0,0
64550,-100,4,1,1,60,0,1
74432,-100,4,1,1,80,0,1
75138,-100,4,1,1,60,0,1
75579,-100,4,1,2,40,0,1
75756,-100,4,1,1,60,0,1
76550,-100,4,1,1,70,0,1
86697,-100,4,1,2,50,0,1
86873,-100,4,1,1,70,0,1
87138,-100,4,1,1,50,0,0
87491,-100,4,2,1,5,0,0
89961,-100,4,1,1,80,0,0

[Colours]
Combo1 : 248,183,124
Combo2 : 128,0,48
Combo3 : 240,200,255

[HitObjects]
256,0,314,2,0,B|256:176,1,174.999997392297,4|0
256,288,1020,2,0,B|328:304|396:288,2,140,4|0|8
88,288,2256,2,0,B|88:356,2,70,4|4|8
88,176,2961,2,0,B|88:108,1,70,4|8
176,176,3491,1,4
272,120,3844,6,0,B|316:68|392:52,2,140,4|0|8
276,232,4903,2,0,B|344:232,3,70,0|4|4|8
460,232,5785,1,4
460,232,5961,2,0,B|460:308,4,70,8|8|8|8|4
348,232,7020,6,0,B|280:232,1,70,8|8
276,176,7373,2,0,B|208:176,1,70,8|8
204,120,7726,2,0,B|132:120,1,70,8|8
76,120,8079,1,4
76,120,8256,1,4
20,120,8432,1,4
20,120,8608,1,4
128,244,8961,6,0,B|60:244,2,70,0|2|0
128,300,9491,2,0,B|84:356|84:356|16:356,2,140,4|8|4
240,300,10550,1,8
348,272,10903,2,0,B|396:220|396:220|396:152,1,140,4|8
396,96,11432,1,0
396,40,11608,2,0,B|464:40,2,70,4|4|8
284,40,12314,5,4
192,104,12667,1,8
256,196,13020,1,4
160,252,13373,1,8
256,312,13726,2,0,B|256:380,2,70,4|0|8
352,252,14432,6,0,B|420:252,2,70,4|4|8
352,140,15138,2,0,B|408:80|352:16,1,140,4|8
256,76,15844,2,0,B|200:136|256:200,1,140,4|8
256,312,16550,2,0,B|188:312,3,70,4|4|8|4
88,256,17432,2,0,B|160:256,1,70,4|8
128,148,17961,6,0,B|104:84|104:84|128:16,1,140,8|8
36,84,18667,2,0,B|100:84|100:84|180:84,1,140,8|8
312,44,19373,6,0,B|312:132,1,87.4999986961484,4|0
168,304,20432,6,0,B|316:304,1,140,0|4
364,304,20961,1,0
180,64,21667,6,0,B|136:64|92:64,1,87.4999986961484,4|8
180,172,22197,6,0,B|144:244|180:312,1,140,6|8
92,244,22903,2,0,B|168:244|236:244,1,140,6|8
344,244,23608,2,0,B|344:328,2,70,6|2|8
408,152,24314,2,0,B|408:84,2,70,6|6|8
296,152,25020,6,0,B|296:300,1,140,6|8
252,256,25550,1,2
208,224,25726,2,0,B|208:72,1,140,6|8
120,152,26432,2,0,B|120:304,1,140,6|8
80,252,26961,1,2
32,224,27138,2,0,B|32:292,4,70,10|8|8|8|4
36,56,28373,6,0,B|104:56,1,70,4|8
220,56,28903,2,0,B|296:56|296:56|296:56,4,70,0|4|4|4|8
160,152,29961,2,0,B|88:152,2,70,4|4|8
272,152,30667,6,0,B|272:220,1,70,4|4
384,220,31197,2,0,B|384:288,1,70,4|8
472,220,31726,2,0,B|472:148,3,70,0|4|4|4
472,92,32432,1,8
360,92,32785,1,8
280,172,33138,2,0,B|216:212|148:212,1,140,10|4
36,212,33844,5,10
36,100,34197,2,0,B|36:32,2,70,2|4|8
36,156,34726,2,0,B|172:120,1,140,4|2
172,176,35256,1,8
172,232,35432,2,0,B|308:196,1,140,0|4
364,196,35961,2,0,B|364:272,2,70,10|0|4
364,140,36491,1,2
364,84,36667,2,0,B|228:48,1,140,10|4
172,48,37197,6,0,B|172:120,2,70,2|8|2
116,48,37726,2,0,B|40:48,2,70,6|4|8
256,88,38432,6,0,B|252:100|252:100|260:108|260:108|252:116|252:116|260:124|260:124|252:132|252:132|260:140|260:140|252:148|252:148|260:156|260:156|252:164|252:164|260:172|260:172|252:180|252:180|260:188|260:188|252:196|252:196|260:204|260:204|252:212|252:212|260:220|260:220|252:228|252:228|260:236|260:236|252:244|252:244|260:252|260:252|252:260|252:260|260:268|260:268|252:276|252:276|260:284|260:284|252:296|252:296|252:292|252:292,1,280,10|4
324,168,39844,6,0,B|256:144|184:168,1,140
48,168,41256,1,2
116,288,41961,1,4
256,284,42667,2,0,B|324:308|396:284,2,140,2|0|0
176,168,44785,5,4
316,156,45491,2,0,B|378:127|414:57,1,140
504,168,46903,1,2
256,192,47608,12,4,50432
328,188,51138,6,0,B|296:172|228:212|188:192,1,140,2|0
52,192,52550,2,0,B|68:160|28:92|48:52,1,140,2|4
124,172,53961,2,0,B|108:204|148:272|128:312,1,140,2|4
200,308,55020,1,0
272,308,55373,1,2
256,156,56079,5,4
256,156,56432,2,0,B|360:120|464:156,2,210,0|4|0
256,228,58903,5,4
256,228,59256,2,0,B|152:264|48:228,2,210,2|4|2
256,192,61726,12,2,62961
292,300,64020,6,0,B|224:300,2,70,0|2|0
348,300,64550,2,0,B|420:300|480:260,1,140,4|8
424,356,65256,2,0,B|424:292|424:292|424:216,1,140,6|8
388,108,65961,1,4
388,108,66138,1,2
300,40,66491,2,0,B|300:124,1,70,2|6
244,112,66844,2,0,B|244:188|244:184,1,70
188,180,67197,5,6
188,180,67373,2,0,B|212:248|188:320,1,140,4|10
132,320,67903,2,0,B|132:356,2,35,2|0|6
92,280,68256,2,0,B|92:212,2,70,6|8|2
36,280,68785,2,0,B|12:212|36:140,1,140,4|8
132,84,69491,6,0,B|132:16,2,70,6|6|8
188,84,70020,2,0,B|260:84,1,70,2|4
360,132,70550,1,8
360,244,70903,2,0,B|360:316,2,70,6|6|8
264,184,71608,1,4
152,184,71961,1,8
40,180,72314,2,0,B|40:112,2,70,6|2|8
40,292,73020,6,0,B|40:360|40:360|108:384,1,140,4|8
164,384,73550,1,2
220,384,73726,2,0,B|288:384,2,70,6|6|8
220,272,74432,1,4
220,272,74608,1,6
220,272,74785,1,8
220,272,74961,1,6
220,160,75314,2,0,B|232:156|232:156|244:164|244:164|256:156|256:156|268:164|268:164|280:156|280:156|292:164|292:164|304:156|304:156|316:164|316:164|328:156|328:156|340:164|340:164|352:156|352:156|364:164|364:164|376:156|376:156|388:164|388:164|400:156,1,210,8|6
452,160,76020,1,6
452,160,76197,6,0,B|488:224|452:296,1,140,0|8
340,296,76903,1,2
340,296,77079,1,6
284,200,77432,2,0,B|216:222|144:198,2,140,8|6|2
284,144,78314,2,0,B|284:72,1,70,4|6
340,80,78667,2,0,B|392:28,1,70,4|6
404,84,79020,6,0,B|472:84,2,70,8|0|10
404,196,79726,1,6
404,196,79903,2,0,B|404:268,1,70,6|0
360,300,80256,2,0,B|308:344|228:332,1,140,8|6
184,300,80785,2,0,B|116:300,1,70,8|2
114,243,81138,2,0,B|46:243,2,70,8|8|4
92,132,81844,6,0,B|232:132,1,140,8|6
344,132,82550,2,0,B|404:164,1,70,8|0
380,216,82903,1,6
380,216,83079,1,4
380,216,83256,2,0,B|348:276,1,70,8|2
292,276,83608,1,6
292,276,83785,1,8
292,276,83961,2,0,B|284:348,1,70,6|2
228,344,84314,6,0,B|220:272,3,70,8|6|8|6
164,276,85020,2,0,B|128:216,3,70,8|6|8|6
100,168,85726,2,0,B|168:128,3,70,8|6|8|6
128,88,86432,6,0,B|140:84|140:84|152:92|152:92|164:84|164:84|176:92|176:92|188:84|188:84|200:92|200:92|212:84|212:84|224:92|224:92|236:84|236:84|248:92|248:92|260:84|260:84|272:92|272:92|284:84|284:84|296:92|296:92|308:84|308:84|320:92|320:92|332:84|332:84|344:92|344:92|356:84|356:84|368:92,1,280,8|4
256,192,87491,12,12,89961
