osu file format v12

[General]
AudioFilename: Undo.mp3
AudioLeadIn: 0
PreviewTime: 42350
Countdown: 0
SampleSet: Soft
StackLeniency: 0.7
Mode: 0
LetterboxInBreaks: 0
WidescreenStoryboard: 0

[Editor]
DistanceSpacing: 0.1
BeatDivisor: 4
GridSize: 4

[Metadata]
Title:Undo
TitleUnicode:Undo
Artist:Yuk-cheung Chun feat. Misi Ke
ArtistUnicode:Yuk-cheung Chun feat. Misi Ke
Creator:Scorpiour
Version:Insane
Source:Deemo
Tags:拆掉
BeatmapID:352945
BeatmapSetID:141531

[Difficulty]
HPDrainRate:6
CircleSize:5
OverallDifficulty:7
ApproachRate:8
SliderMultiplier:1.6
SliderTickRate:1

[Events]
//Background and Video events
0,0,"bg.jpg",0,0
//Break Periods
//Storyboard Layer 0 (Background)
//Storyboard Layer 1 (Fail)
//Storyboard Layer 2 (Pass)
//Storyboard Layer 3 (Foreground)
//Storyboard Sound Samples
//Background Colour Transformations
3,100,0,0,0

[TimingPoints]
1712,425.531914893617,4,2,1,30,1,0
8414,-90.9090909090909,4,2,1,30,0,0
42563,-90.9090909090909,4,2,1,30,0,1
44265,-80,4,2,1,30,0,1
49371,-66.6666666666667,4,2,1,30,0,1
51073,-80,4,2,1,30,0,1
51499,-90.9090909090909,4,2,1,30,0,1
53201,-66.6666666666667,4,2,1,30,0,1
54690,-90.9090909090909,4,2,1,30,0,1
62988,-90.9090909090909,4,2,1,30,0,0

[Colours]
Combo1 : 255,213,213
Combo2 : 255,255,213

[HitObjects]
305,186,1712,6,0,L|394:168,1,80
198,159,2137,2,0,L|109:177,1,80
265,119,2563,1,0,0:0:0:0:
305,186,2775,1,0,0:0:0:0:
235,226,2988,1,0,0:0:0:0:
198,159,3201,1,0,0:0:0:0:
240,299,3414,5,0,0:0:0:0:
150,98,3839,1,0,0:0:0:0:
78,122,4052,1,0,0:0:0:0:
18,76,4265,1,0,0:0:0:0:
359,140,4690,1,0,0:0:0:0:
431,113,4903,1,0,0:0:0:0:
493,159,5116,6,0,L|485:240,1,80
351,220,5541,2,0,L|358:140,1,80,0|0,0:0|0:0,0:0:0:0:
410,297,5967,1,0,0:0:0:0:
324,317,6180,1,0,0:0:0:0:
264,252,6392,1,0,0:0:0:0:
181,284,6605,1,0,0:0:0:0:
107,234,6818,1,0,0:0:0:0:
59,307,7031,1,0,0:0:0:0:
131,356,7243,1,0,0:0:0:0:
181,284,7456,1,0,0:0:0:0:
374,104,7882,5,0,0:0:0:0:
374,104,8094,2,0,P|362:143|329:168,1,80
256,192,8520,2,0,P|212:169|133:182,1,132.00000402832
98,213,8946,2,0,P|79:174|76:131,1,88.000002685547
187,243,9371,2,0,P|206:282|209:325,1,88.000002685547
256,67,10009,1,0,0:0:0:0:
302,173,10222,2,0,P|365:154|428:170,1,132.00000402832
475,218,10648,2,0,L|461:311,1,88.000002685547
175,336,11286,5,0,0:0:0:0:
144,262,11499,1,0,0:0:0:0:
199,205,11712,1,0,0:0:0:0:
177,128,11924,2,0,P|242:133|304:113,1,132.00000402832
361,70,12350,2,0,P|401:85|429:119,1,88.000002685547
259,329,12988,1,0,0:0:0:0:
129,182,13201,2,0,L|64:193,1,44.0000013427735
70,255,13414,2,0,L|17:266,1,44.0000013427735
127,316,13626,2,0,B|191:301|191:301|216:274|207:237,1,132.00000402832
206,160,14052,2,0,P|199:117|206:74,1,88.000002685547
305,29,14690,1,0,0:0:0:0:
321,115,14903,1,0,0:0:0:0:
318,203,15116,1,0,0:0:0:0:
298,288,15329,6,0,P|363:298|428:291,1,132.00000402832
494,269,15754,2,0,P|499:226|493:182,1,88.000002685547
433,43,16180,1,0,0:0:0:0:
321,115,16392,2,0,P|278:123|235:112,1,88.000002685547
49,79,16818,1,0,0:0:0:0:
48,72,16924,1,0,0:0:0:0:
48,63,17031,2,0,P|112:49|176:61,1,132.00000402832
236,112,17456,1,0,0:0:0:0:
322,39,17669,1,0,0:0:0:0:
74,240,18094,5,0,0:0:0:0:
44,323,18307,1,0,0:0:0:0:
128,354,18520,1,0,0:0:0:0:
157,271,18733,2,0,B|240:228|240:228|253:271,1,132.00000402832
273,329,19158,1,0,0:0:0:0:
220,150,19371,1,0,0:0:0:0:
460,53,19797,1,0,0:0:0:0:
443,157,20009,1,0,0:0:0:0:
361,89,20222,1,0,0:0:0:0:
361,246,20435,6,0,P|296:257|230:248,1,132.00000402832
164,216,20860,2,0,P|120:209|77:218,1,88.000002685547
75,349,21499,1,0,0:0:0:0:
75,349,21712,2,0,P|118:355|161:346,1,88.000002685547
332,291,22137,6,0,P|268:276|203:288,1,132.00000402832
391,334,22563,2,0,P|432:322|460:289,1,88.000002685547
425,113,22988,1,0,0:0:0:0:
376,200,23201,1,0,0:0:0:0:
281,163,23414,1,0,0:0:0:0:
188,200,23626,2,0,P|145:207|102:199,2,88.000002685547
282,71,24265,1,0,0:0:0:0:
281,261,24477,2,0,B|281:315|281:315|230:351|164:331,1,176.000005371094
67,157,25116,1,0,0:0:0:0:
72,244,25329,1,0,0:0:0:0:
180,144,25541,6,0,B|218:125|222:95|222:95|254:92|282:71,1,132.00000402832
340,23,25967,2,0,P|357:62|348:104,1,88.000002685547
281,196,26392,1,0,0:0:0:0:
455,138,26605,2,0,B|486:124|486:124|507:73,1,88.000002685547
418,317,27031,1,0,0:0:0:0:
384,217,27243,2,0,B|364:174|364:174|380:137|380:137|368:93|368:93|384:54|384:54|371:11|371:11|344:56,1,264.000008056641
228,256,28307,1,0,0:0:0:0:
141,273,28520,1,0,0:0:0:0:
57,245,28733,1,0,0:0:0:0:
12,169,28946,5,0,0:0:0:0:
188,22,29371,1,0,0:0:0:0:
57,245,29797,2,0,B|79:299|79:299|122:282,1,88.000002685547
262,106,30435,1,0,0:0:0:0:
327,76,30648,2,0,B|366:57|366:57|402:137,1,132.00000402832
429,212,31073,2,0,P|436:255|421:302,1,88.000002685547
95,203,31711,5,0,0:0:0:0:
354,250,31924,1,0,0:0:0:0:
261,28,32137,1,0,0:0:0:0:
237,169,32350,6,0,B|222:210|230:241|230:241|191:263|182:297|182:297|139:292|99:311|99:311|68:283|24:283|24:283|23:238|-5:212|-5:212|13:174|3:138|3:138|32:119|50:81|50:81|85:84|118:70,1,616.000018798829
263,55,34052,2,0,B|307:63|335:103|335:103|380:87|418:109|418:109|445:68|503:51,1,264.000008056641
370,204,35116,1,0,0:0:0:0:
348,291,35329,1,0,0:0:0:0:
407,358,35541,1,0,0:0:0:0:
263,55,35754,5,0,0:0:0:0:
59,305,36180,1,0,0:0:0:0:
462,269,36605,1,0,0:0:0:0:
172,178,37031,1,0,0:0:0:0:
272,286,37243,1,0,0:0:0:0:
73,55,37669,1,0,0:0:0:0:
164,295,38094,1,0,0:0:0:0:
343,167,38307,1,0,0:0:0:0:
68,183,38733,1,0,0:0:0:0:
454,55,39158,5,0,0:0:0:0:
322,325,39584,1,0,0:0:0:0:
130,74,40009,1,0,0:0:0:0:
84,310,40435,1,0,0:0:0:0:
284,71,40860,5,0,0:0:0:0:
469,245,41286,1,0,0:0:0:0:
234,331,41712,1,0,0:0:0:0:
50,164,42137,1,0,0:0:0:0:
284,71,42563,6,0,L|292:170,1,88.000002685547
408,207,42988,2,0,L|309:215,1,88.000002685547
272,332,43414,2,0,L|264:233,1,88.000002685547
147,196,43839,2,0,L|246:188,1,88.000002685547
347,74,44265,6,0,L|357:196,1,100
413,285,44690,2,0,L|291:294,1,100
202,352,45116,2,0,L|192:232,1,100
135,141,45541,2,0,L|256:131,1,100
415,110,45967,5,0,0:0:0:0:
415,110,46180,1,0,0:0:0:0:
380,373,46392,1,0,0:0:0:0:
380,373,46605,1,0,0:0:0:0:
116,339,46818,1,0,0:0:0:0:
116,339,47031,1,0,0:0:0:0:
150,75,47243,1,0,0:0:0:0:
150,75,47456,1,0,0:0:0:0:
471,177,47669,5,0,0:0:0:0:
471,177,47882,1,0,0:0:0:0:
261,363,48094,1,0,0:0:0:0:
261,363,48307,1,0,0:0:0:0:
18,220,48520,1,0,0:0:0:0:
18,220,48733,1,0,0:0:0:0:
229,33,48946,1,0,0:0:0:0:
229,33,49158,1,0,0:0:0:0:
470,177,49371,6,0,P|430:192|347:170,1,120.000004577637
311,135,49690,1,0,0:0:0:0:
74,75,50009,1,0,0:0:0:0:
121,336,50435,1,0,0:0:0:0:
229,255,50648,1,0,0:0:0:0:
88,175,50860,1,0,0:0:0:0:
188,83,51073,6,0,L|295:66,1,100
342,94,51392,1,0,0:0:0:0:
398,124,51499,2,0,L|492:109,1,88.000002685547
436,296,51924,2,0,B|336:275,1,88.000002685547
123,306,52350,2,0,B|223:327,1,88.000002685547
256,65,52775,5,0,0:0:0:0:
256,65,53201,2,0,B|333:60|441:95|445:258|368:349|259:355|170:308|135:233|138:152|176:104|242:80|312:86|336:127|336:165|329:201|312:219|266:228|259:190,1,720.000027465821
271,340,54903,2,0,P|246:305|255:238,1,88.000002685547
209,104,55329,2,0,P|177:133|136:148,1,88.000002685547
333,206,55754,2,0,P|364:235|406:247,1,88.000002685547
160,269,56180,6,0,P|111:278|68:260,1,88.000002685547
