osu file format v12

[General]
AudioFilename: 04 Jump To The Blue Sky.mp3
AudioLeadIn: 0
PreviewTime: -1
Countdown: 1
SampleSet: Normal
StackLeniency: 0.7
Mode: 1
LetterboxInBreaks: 1

[Editor]
DistanceSpacing: 1.2
BeatDivisor: 16
GridSize: 4

[Metadata]
Title:Jump to the Blue Sky
TitleUnicode:Jump to the Blue Sky
Artist:Yuji Yoshino & Yoko Ueno
ArtistUnicode:Yuji Yoshino & Yoko Ueno
Creator:Saturos-fangirl
Version:Taiko Oni
Source:.hack twilight
Tags:project five human emotions joy SFG taiko ctb
BeatmapID:189494
BeatmapSetID:64372

[Difficulty]
HPDrainRate:7
CircleSize:5
OverallDifficulty:7
ApproachRate:5
SliderMultiplier:1.4
SliderTickRate:1

[Events]
//Background and Video events
0,0,"taiko bg.png",0,0
//Break Periods
//Storyboard Layer 0 (Background)
Sprite,Background,Centre,"Euphoria_syndrome.jpg",320,240 L,568,8 F,0,0,330,0,0.25 F,0,330,661,0.25,0 F,0,661,1764,0 L,18215,1 F,0,0,330,0,0.25 F,0,330,661,0.25,0 F,0,661,1764,0 L,25273,2 F,0,0,330,0,0.25 F,0,330,661,0.25,0 F,0,661,1764,0 L,60567,20 F,0,0,330,0,0.35 F,0,330,661,0.35,0 F,0,661,1764,0 L,136450,20 F,0,0,330,0,0.35 F,0,330,661,0.35,0 F,0,661,1764,0
//Storyboard Layer 1 (Fail)
//Storyboard Layer 2 (Pass)
//Storyboard Layer 3 (Foreground)
Sprite,Foreground,Centre,"t.jpg",320,240 F,0,0,100000,1 S,0,0,100000,0.5
//Storyboard Sound Samples
//Background Colour Transformations
3,100,163,162,255

[TimingPoints]
568,441.176470588235,4,1,1,100,1,0
573,-100,4,1,1,100,0,0
19653,-100,4,1,1,100,0,0
20536,-100,4,1,1,100,0,0
21433,-100,4,1,1,100,0,0
60567,-100,4,1,1,100,0,1
95862,-100,4,1,1,100,0,0
117038,-100,4,1,1,100,0,0
136450,-100,4,1,1,100,0,1
171744,-100,4,1,1,100,0,0

[Colours]
Combo1 : 139,242,254
Combo2 : 58,192,14

[HitObjects]
260,200,568,1,0,0:0:0:0:
376,200,1009,5,8,0:0:0:0:
260,200,1229,5,0,0:0:0:0:
260,200,1670,1,0,0:0:0:0:
376,200,1891,5,8,0:0:0:0:
260,200,2112,5,0,0:0:0:0:
260,200,2332,1,0,0:0:0:0:
376,200,2773,5,8,0:0:0:0:
260,200,2994,5,0,0:0:0:0:
260,200,3435,1,0,0:0:0:0:
376,200,3656,5,8,0:0:0:0:
260,200,3876,5,0,0:0:0:0:
260,200,3987,1,0,0:0:0:0:
376,200,4097,5,8,0:0:0:0:
376,200,4538,1,8,0:0:0:0:
260,200,4759,5,0,0:0:0:0:
260,200,5200,1,0,0:0:0:0:
376,200,5420,5,8,0:0:0:0:
260,200,5641,5,0,0:0:0:0:
260,200,5751,1,0,0:0:0:0:
376,200,5862,5,8,0:0:0:0:
260,200,6082,5,0,0:0:0:0:
260,200,6303,1,0,0:0:0:0:
376,200,6523,5,8,0:0:0:0:
260,200,6965,5,0,0:0:0:0:
260,200,7075,1,8,0:0:0:0:
376,200,7185,5,8,0:0:0:0:
260,200,7295,5,0,0:0:0:0:
260,200,7406,1,0,0:0:0:0:
315,104,7626,1,4,0:0:0:0:
376,200,8067,5,8,0:0:0:0:
260,200,8288,5,0,0:0:0:0:
260,200,8729,1,0,0:0:0:0:
260,200,8840,1,0,0:0:0:0:
376,200,8950,5,8,0:0:0:0:
260,200,9170,5,0,0:0:0:0:
376,200,9391,5,8,0:0:0:0:
376,200,9612,1,8,0:0:0:0:
260,200,9832,5,0,0:0:0:0:
376,200,10053,5,8,0:0:0:0:
260,200,10494,5,0,0:0:0:0:
260,200,10604,1,0,0:0:0:0:
376,200,10715,5,8,0:0:0:0:
376,200,10935,1,8,0:0:0:0:
260,200,11156,5,0,0:0:0:0:
260,200,11376,1,0,0:0:0:0:
376,200,11597,5,8,0:0:0:0:
260,200,11817,5,0,0:0:0:0:
260,200,11928,1,0,0:0:0:0:
260,200,12038,1,0,0:0:0:0:
260,200,12259,1,0,0:0:0:0:
376,200,12479,5,8,0:0:0:0:
260,200,12700,5,0,0:0:0:0:
260,200,12810,1,0,0:0:0:0:
376,200,12920,5,8,0:0:0:0:
260,200,13141,5,0,0:0:0:0:
376,200,13362,5,8,0:0:0:0:
260,200,13472,5,0,0:0:0:0:
376,200,13582,5,8,0:0:0:0:
313,122,14023,5,4,0:0:0:0:
313,122,14244,1,4,0:0:0:0:
260,200,14465,1,0,0:0:0:0:
260,200,14575,1,0,0:0:0:0:
376,200,14685,5,8,0:0:0:0:
376,200,14906,1,8,0:0:0:0:
260,200,15016,5,0,0:0:0:0:
376,200,15126,5,8,0:0:0:0:
376,200,15347,1,8,0:0:0:0:
260,200,15567,5,0,0:0:0:0:
260,200,15678,1,0,0:0:0:0:
260,200,15788,1,0,0:0:0:0:
376,200,16009,5,8,0:0:0:0:
376,200,16229,1,8,0:0:0:0:
260,200,16450,5,0,0:0:0:0:
260,200,16560,1,0,0:0:0:0:
260,200,16670,1,0,0:0:0:0:
376,200,16891,5,8,0:0:0:0:
376,200,17112,1,8,0:0:0:0:
260,200,17442,5,0,0:0:0:0:
260,200,17553,1,0,0:0:0:0:
376,200,17773,5,8,0:0:0:0:
376,200,17994,1,8,0:0:0:0:
319,117,18215,5,4,0:0:0:0:
376,200,18656,5,8,0:0:0:0:
260,200,18876,5,0,0:0:0:0:
260,200,19097,1,0,0:0:0:0:
260,200,19207,1,0,0:0:0:0:
260,200,19317,1,0,0:0:0:0:
376,200,19538,5,8,0:0:0:0:
376,200,19759,1,8,0:0:0:0:
260,200,19979,5,0,0:0:0:0:
260,200,20090,1,0,0:0:0:0:
376,200,20200,5,8,0:0:0:0:
260,200,20420,5,0,0:0:0:0:
376,200,20641,5,8,0:0:0:0:
260,200,20751,5,0,0:0:0:0:
260,200,20862,1,0,0:0:0:0:
260,200,20972,1,0,0:0:0:0:
260,200,21082,1,0,0:0:0:0:
260,200,21192,1,0,0:0:0:0:
376,200,21303,5,8,0:0:0:0:
260,200,21523,5,0,0:0:0:0:
309,106,21744,1,4,0:0:0:0:
376,200,22185,5,8,0:0:0:0:
260,200,22295,5,0,0:0:0:0:
376,200,22406,5,8,0:0:0:0:
260,200,22626,5,0,0:0:0:0:
260,200,22737,1,0,0:0:0:0:
260,200,22847,1,0,0:0:0:0:
376,200,23067,5,8,0:0:0:0:
376,200,23288,1,8,0:0:0:0:
260,200,23509,5,0,0:0:0:0:
260,200,23619,1,0,0:0:0:0:
260,200,23729,1,0,0:0:0:0:
376,200,23950,5,8,0:0:0:0:
260,200,24060,5,0,0:0:0:0:
376,200,24170,5,8,0:0:0:0:
260,200,24391,5,0,0:0:0:0:
376,200,24832,5,8,0:0:0:0:
260,200,25053,5,0,0:0:0:0:
376,200,25273,5,8,0:0:0:0:
260,200,25494,5,0,0:0:0:0:
260,200,25604,1,0,0:0:0:0:
260,200,25715,1,0,0:0:0:0:
376,200,25935,5,8,0:0:0:0:
260,200,26376,5,0,0:0:0:0:
260,200,26487,1,0,0:0:0:0:
376,200,26597,5,8,0:0:0:0:
260,200,26817,5,0,0:0:0:0:
376,200,27038,5,8,0:0:0:0:
260,200,27259,5,0,0:0:0:0:
260,200,27369,1,0,0:0:0:0:
376,200,27479,5,8,0:0:0:0:
260,200,27700,5,0,0:0:0:0:
260,200,28141,1,0,0:0:0:0:
260,200,28251,1,0,0:0:0:0:
376,200,28362,5,8,0:0:0:0:
260,200,28472,5,0,0:0:0:0:
260,200,28582,1,0,0:0:0:0:
313,110,28803,1,4,0:0:0:0:
260,200,29023,1,0,0:0:0:0:
260,200,29134,1,0,0:0:0:0:
376,200,29244,5,8,0:0:0:0:
376,200,29465,1,8,0:0:0:0:
260,200,29685,5,0,0:0:0:0:
260,200,29795,1,0,0:0:0:0:
376,200,29906,5,8,0:0:0:0:
376,200,30126,1,8,0:0:0:0:
260,200,30347,5,0,0:0:0:0:
260,200,30457,1,0,0:0:0:0:
376,200,30567,5,8,0:0:0:0:
260,200,30788,5,0,0:0:0:0:
376,200,31009,5,8,0:0:0:0:
260,200,31119,5,0,0:0:0:0:
376,200,31229,5,8,0:0:0:0:
376,200,31670,1,8,0:0:0:0:
376,200,31891,1,8,0:0:0:0:
260,200,32001,5,0,0:0:0:0:
376,200,32112,5,8,0:0:0:0:
376,200,32332,1,8,0:0:0:0:
260,200,32553,5,0,0:0:0:0:
260,200,32663,1,0,0:0:0:0:
376,200,32773,5,8,0:0:0:0:
376,200,32994,1,8,0:0:0:0:
260,200,33435,5,0,0:0:0:0:
260,200,33545,1,0,0:0:0:0:
376,200,33656,5,8,0:0:0:0:
260,200,33876,5,0,0:0:0:0:
260,200,33987,1,0,0:0:0:0:
376,200,34097,5,8,0:0:0:0:
260,200,34207,5,0,0:0:0:0:
376,200,34317,5,8,0:0:0:0:
260,200,34428,5,0,0:0:0:0:
376,200,34538,5,8,0:0:0:0:
260,200,34759,5,0,0:0:0:0:
323,116,35200,1,4,0:0:0:0:
323,116,35420,1,4,0:0:0:0:
378,199,35641,5,8,0:0:0:0:
376,200,35862,1,8,0:0:0:0:
260,200,36082,5,0,0:0:0:0:
378,199,36303,5,8,0:0:0:0:
260,200,36413,5,0,0:0:0:0:
378,199,36523,5,8,0:0:0:0:
260,200,36744,5,0,0:0:0:0:
260,200,36854,1,0,0:0:0:0:
260,200,36965,1,0,0:0:0:0:
378,199,37185,5,8,0:0:0:0:
376,200,37406,1,8,0:0:0:0:
260,200,37626,5,0,0:0:0:0:
260,200,37737,1,0,0:0:0:0:
260,200,37847,1,0,0:0:0:0:
260,200,38067,1,0,0:0:0:0:
378,199,38288,5,8,0:0:0:0:
378,199,38729,1,8,0:0:0:0:
260,200,38840,5,0,0:0:0:0:
376,200,38950,5,8,0:0:0:0:
260,200,39060,5,0,0:0:0:0:
378,199,39170,5,8,0:0:0:0:
260,200,39391,5,0,0:0:0:0:
260,200,39612,1,0,0:0:0:0:
260,200,39722,1,0,0:0:0:0:
378,199,39832,5,8,0:0:0:0:
378,199,40053,1,8,0:0:0:0:
260,200,40273,5,0,0:0:0:0:
260,200,40384,1,0,0:0:0:0:
260,200,40494,1,0,0:0:0:0:
378,199,40715,5,8,0:0:0:0:
260,200,40935,5,0,0:0:0:0:
260,200,41045,1,0,0:0:0:0:
378,199,41156,5,8,0:0:0:0:
378,199,41376,1,8,0:0:0:0:
260,200,41487,5,0,0:0:0:0:
378,199,41597,5,8,0:0:0:0:
378,199,41817,1,8,0:0:0:0:
260,200,42038,5,0,0:0:0:0:
260,200,42148,1,0,0:0:0:0:
378,199,42259,5,8,0:0:0:0:
378,199,42369,1,8,0:0:0:0:
260,200,42479,5,0,0:0:0:0:
260,200,42590,1,0,0:0:0:0:
260,200,42700,1,0,0:0:0:0:
316,104,42920,1,4,0:0:0:0:
316,104,43362,1,4,0:0:0:0:
316,104,43803,1,4,0:0:0:0:
260,200,44023,1,0,0:0:0:0:
260,200,44134,1,0,0:0:0:0:
260,200,44244,1,0,0:0:0:0:
388,200,44465,5,8,0:0:0:0:
260,200,44685,5,0,0:0:0:0:
260,200,44795,1,0,0:0:0:0:
388,200,44906,5,8,0:0:0:0:
388,200,45126,1,8,0:0:0:0:
260,200,45237,5,0,0:0:0:0:
388,200,45347,5,8,0:0:0:0:
260,200,45567,5,0,0:0:0:0:
260,200,45788,1,0,0:0:0:0:
260,200,45898,1,0,0:0:0:0:
388,200,46009,5,8,0:0:0:0:
388,200,46119,1,8,0:0:0:0:
260,200,46229,5,0,0:0:0:0:
256,96,46450,2,0,B|96:96,2,140
380,192,47773,5,8,0:0:0:0:
380,192,47884,1,8,0:0:0:0:
380,192,47994,1,8,0:0:0:0:
256,196,48215,5,0,0:0:0:0:
256,196,48325,1,0,0:0:0:0:
256,196,48435,1,0,0:0:0:0:
256,196,48545,1,0,0:0:0:0:
256,196,48656,1,0,0:0:0:0:
256,196,48766,1,0,0:0:0:0:
256,196,48876,1,0,0:0:0:0:
380,192,49317,5,8,0:0:0:0:
380,192,49538,1,8,0:0:0:0:
256,196,49759,5,0,0:0:0:0:
256,196,49869,1,0,0:0:0:0:
316,112,49979,1,4,0:0:0:0:
316,112,50420,1,4,0:0:0:0:
316,112,50862,1,4,0:0:0:0:
256,196,51082,1,0,0:0:0:0:
256,196,51192,1,0,0:0:0:0:
256,196,51303,1,0,0:0:0:0:
396,200,51523,5,8,0:0:0:0:
256,196,51744,5,0,0:0:0:0:
396,200,51965,5,8,0:0:0:0:
256,196,52075,5,0,0:0:0:0:
396,200,52185,5,8,0:0:0:0:
396,200,52406,1,8,0:0:0:0:
256,196,52626,5,0,0:0:0:0:
256,196,52737,1,0,0:0:0:0:
396,200,52847,5,8,0:0:0:0:
396,200,53067,1,8,0:0:0:0:
396,200,53288,1,8,0:0:0:0:
256,196,53398,5,0,0:0:0:0:
336,132,53509,5,12,0:0:0:0:
256,196,53729,5,0,0:0:0:0:
256,196,53950,1,0,0:0:0:0:
256,196,54060,1,0,0:0:0:0:
256,196,54170,1,0,0:0:0:0:
396,200,54391,5,8,0:0:0:0:
256,196,54612,5,0,0:0:0:0:
256,196,54722,1,0,0:0:0:0:
256,196,54832,1,0,0:0:0:0:
256,196,55053,1,0,0:0:0:0:
396,200,55273,5,8,0:0:0:0:
256,196,55494,5,0,0:0:0:0:
256,196,55604,1,0,0:0:0:0:
396,200,55715,5,8,0:0:0:0:
396,200,55935,1,8,0:0:0:0:
256,196,56156,5,0,0:0:0:0:
256,196,56266,1,0,0:0:0:0:
256,196,56376,1,0,0:0:0:0:
396,200,56597,5,8,0:0:0:0:
256,196,56707,5,0,0:0:0:0:
396,200,56817,5,8,0:0:0:0:
396,200,57038,1,8,0:0:0:0:
256,196,57259,5,0,0:0:0:0:
396,200,57479,5,8,0:0:0:0:
256,196,57700,5,0,0:0:0:0:
256,196,57810,1,0,0:0:0:0:
256,196,57920,1,0,0:0:0:0:
396,200,58141,5,8,0:0:0:0:
256,196,58251,5,0,0:0:0:0:
396,200,58362,5,8,0:0:0:0:
396,200,58582,1,8,0:0:0:0:
256,196,58803,5,0,0:0:0:0:
256,196,59023,1,0,0:0:0:0:
256,196,59134,1,0,0:0:0:0:
256,196,59244,1,0,0:0:0:0:
256,196,59465,1,0,0:0:0:0:
396,200,59685,5,8,0:0:0:0:
256,196,59795,5,0,0:0:0:0:
396,200,59906,5,8,0:0:0:0:
256,196,60016,5,0,0:0:0:0:
396,200,60126,5,8,0:0:0:0:
256,196,60237,5,0,0:0:0:0:
396,200,60347,5,8,0:0:0:0:
256,196,60457,5,0,0:0:0:0:
332,108,60567,5,12,0:0:0:0:
256,196,60788,5,0,0:0:0:0:
256,196,60898,1,0,0:0:0:0:
396,200,61009,5,8,0:0:0:0:
396,200,61229,1,8,0:0:0:0:
256,196,61450,5,0,0:0:0:0:
256,196,61560,1,0,0:0:0:0:
256,196,61670,1,0,0:0:0:0:
396,200,61891,5,8,0:0:0:0:
256,196,62001,5,0,0:0:0:0:
396,200,62112,5,8,0:0:0:0:
256,196,62332,5,0,0:0:0:0:
256,196,62442,1,0,0:0:0:0:
256,196,62553,1,0,0:0:0:0:
396,200,62773,5,8,0:0:0:0:
256,196,62884,5,0,0:0:0:0:
396,200,62994,5,8,0:0:0:0:
256,196,63215,5,0,0:0:0:0:
256,196,63435,1,0,0:0:0:0:
396,200,63656,5,8,0:0:0:0:
256,196,63766,5,0,0:0:0:0:
256,196,63876,1,0,0:0:0:0:
396,200,64097,5,8,0:0:0:0:
256,196,64317,5,0,0:0:0:0:
256,196,64428,1,0,0:0:0:0:
256,196,64538,1,0,0:0:0:0:
396,200,64759,5,8,0:0:0:0:
396,200,65200,1,8,0:0:0:0:
396,200,65420,1,8,0:0:0:0:
256,196,65641,5,0,0:0:0:0:
396,200,65862,5,8,0:0:0:0:
256,196,65972,5,0,0:0:0:0:
256,196,66082,1,0,0:0:0:0:
396,200,66303,5,8,0:0:0:0:
256,196,66413,5,0,0:0:0:0:
396,200,66523,5,8,0:0:0:0:
316,120,66965,5,4,0:0:0:0:
316,120,67185,1,4,0:0:0:0:
256,196,67406,1,0,0:0:0:0:
396,200,67626,5,8,0:0:0:0:
256,196,67847,5,0,0:0:0:0:
256,196,67957,1,0,0:0:0:0:
396,200,68067,5,8,0:0:0:0:
396,200,68288,1,8,0:0:0:0:
256,196,68509,5,0,0:0:0:0:
256,196,68619,1,0,0:0:0:0:
256,196,68729,1,0,0:0:0:0:
396,200,68950,5,8,0:0:0:0:
256,196,69060,5,0,0:0:0:0:
396,200,69170,5,8,0:0:0:0:
256,196,69391,5,0,0:0:0:0:
256,196,69612,1,0,0:0:0:0:
256,196,69722,1,0,0:0:0:0:
396,200,69832,5,8,0:0:0:0:
396,200,70053,1,8,0:0:0:0:
256,196,70273,5,0,0:0:0:0:
256,196,70494,1,0,0:0:0:0:
256,196,70604,1,0,0:0:0:0:
396,200,70715,5,8,0:0:0:0:
256,196,70935,5,0,0:0:0:0:
332,108,71156,5,12,0:0:0:0:
256,196,71376,5,0,0:0:0:0:
256,196,71487,1,0,0:0:0:0:
396,200,71597,5,8,0:0:0:0:
396,200,71817,1,8,0:0:0:0:
256,196,71928,5,0,0:0:0:0:
256,196,72038,1,0,0:0:0:0:
256,196,72259,1,0,0:0:0:0:
256,196,72369,1,0,0:0:0:0:
396,200,72479,5,8,0:0:0:0:
396,200,72700,1,12,0:0:0:0:
256,196,72920,5,0,0:0:0:0:
256,196,73031,1,0,0:0:0:0:
256,196,73141,1,0,0:0:0:0:
396,200,73362,5,8,0:0:0:0:
256,196,73472,5,0,0:0:0:0:
396,200,73582,5,8,0:0:0:0:
396,200,74023,1,8,0:0:0:0:
256,196,74134,5,0,0:0:0:0:
396,200,74244,5,8,0:0:0:0:
256,196,74465,5,0,0:0:0:0:
328,112,74685,1,4,0:0:0:0:
396,200,75126,5,8,0:0:0:0:
256,196,75237,5,0,0:0:0:0:
396,200,75347,5,8,0:0:0:0:
256,196,75567,5,0,0:0:0:0:
256,196,75678,1,0,0:0:0:0:
256,196,75788,1,0,0:0:0:0:
396,200,76009,5,8,0:0:0:0:
256,196,76119,5,0,0:0:0:0:
396,200,76229,5,8,0:0:0:0:
256,196,76450,5,0,0:0:0:0:
256,196,76670,1,0,0:0:0:0:
396,200,76891,5,8,0:0:0:0:
256,196,77001,5,0,0:0:0:0:
396,200,77112,5,8,0:0:0:0:
256,196,77332,5,0,0:0:0:0:
256,196,77553,1,0,0:0:0:0:
256,196,77663,1,0,0:0:0:0:
396,200,77773,5,8,0:0:0:0:
256,196,77994,5,0,0:0:0:0:
396,200,78215,5,8,0:0:0:0:
256,196,78325,5,0,0:0:0:0:
256,196,78435,1,0,0:0:0:0:
256,196,78545,1,0,0:0:0:0:
396,200,78656,5,8,0:0:0:0:
256,196,78876,5,0,0:0:0:0:
256,196,79317,1,0,0:0:0:0:
256,196,79428,1,0,0:0:0:0:
396,200,79538,5,8,0:0:0:0:
256,196,79648,5,0,0:0:0:0:
256,196,79759,1,0,0:0:0:0:
396,200,79979,5,8,0:0:0:0:
396,200,80200,1,8,0:0:0:0:
256,196,80310,5,0,0:0:0:0:
396,200,80420,5,8,0:0:0:0:
396,200,80641,1,8,0:0:0:0:
256,196,80862,5,0,0:0:0:0:
256,196,80972,1,0,0:0:0:0:
256,196,81082,1,0,0:0:0:0:
396,200,81303,5,8,0:0:0:0:
256,196,81413,5,0,0:0:0:0:
396,200,81523,5,8,0:0:0:0:
256,196,81744,5,0,0:0:0:0:
256,196,81965,1,0,0:0:0:0:
256,196,82075,1,0,0:0:0:0:
396,200,82185,5,8,0:0:0:0:
256,196,82406,5,0,0:0:0:0:
256,196,82847,1,0,0:0:0:0:
256,196,82957,1,0,0:0:0:0:
396,200,83067,5,8,0:0:0:0:
396,200,83178,1,8,0:0:0:0:
256,196,83288,5,0,0:0:0:0:
396,200,83509,5,8,0:0:0:0:
396,200,83729,1,8,0:0:0:0:
256,196,83840,5,0,0:0:0:0:
396,200,83950,5,8,0:0:0:0:
396,200,84170,1,8,0:0:0:0:
256,196,84391,5,0,0:0:0:0:
256,196,84501,1,0,0:0:0:0:
256,196,84612,1,0,0:0:0:0:
396,200,84832,5,8,0:0:0:0:
256,196,84942,5,0,0:0:0:0:
396,200,85053,5,8,0:0:0:0:
256,196,85273,5,0,0:0:0:0:
256,196,85494,1,0,0:0:0:0:
396,200,85715,5,8,0:0:0:0:
256,196,85825,5,0,0:0:0:0:
396,200,85935,5,8,0:0:0:0:
256,196,86156,5,0,0:0:0:0:
256,196,86376,1,0,0:0:0:0:
396,200,86597,5,8,0:0:0:0:
256,196,86707,5,0,0:0:0:0:
396,200,86817,5,8,0:0:0:0:
256,196,87038,5,0,0:0:0:0:
256,196,87259,1,0,0:0:0:0:
256,196,87369,1,0,0:0:0:0:
396,200,87479,5,8,0:0:0:0:
256,196,87700,5,0,0:0:0:0:
396,200,88141,5,8,0:0:0:0:
256,196,88251,5,0,0:0:0:0:
396,200,88362,5,8,0:0:0:0:
396,200,88472,1,8,0:0:0:0:
256,196,88582,5,0,0:0:0:0:
256,196,88803,1,0,0:0:0:0:
256,196,89023,1,0,0:0:0:0:
256,196,89134,1,0,0:0:0:0:
396,200,89244,5,8,0:0:0:0:
396,200,89465,1,8,0:0:0:0:
256,196,89685,5,0,0:0:0:0:
256,196,89795,1,0,0:0:0:0:
256,196,89906,1,0,0:0:0:0:
396,200,90126,5,8,0:0:0:0:
272,216,90237,5,0,0:0:0:0:
396,200,90347,5,8,0:0:0:0:
256,196,90567,5,0,0:0:0:0:
256,196,90788,1,0,0:0:0:0:
256,196,90898,1,0,0:0:0:0:
396,200,91009,5,8,0:0:0:0:
256,196,91119,5,0,0:0:0:0:
256,196,91229,1,0,0:0:0:0:
272,216,91670,1,0,0:0:0:0:
272,216,91781,1,0,0:0:0:0:
396,200,91891,5,8,0:0:0:0:
396,200,92112,1,8,0:0:0:0:
328,112,92332,1,12,0:0:0:0:
256,196,92553,5,0,0:0:0:0:
396,200,92773,5,8,0:0:0:0:
256,196,92884,5,0,0:0:0:0:
396,200,92994,1,0,0:0:0:0:
256,196,93215,1,0,0:0:0:0:
256,196,93325,1,0,0:0:0:0:
256,196,93435,1,0,0:0:0:0:
396,200,93656,5,8,0:0:0:0:
256,196,93876,5,0,0:0:0:0:
344,124,94097,5,12,0:0:0:0:
256,196,94317,5,0,0:0:0:0:
396,200,94538,5,8,0:0:0:0:
256,196,94648,5,0,0:0:0:0:
256,196,94759,1,0,0:0:0:0:
256,196,94979,1,0,0:0:0:0:
256,196,95090,1,0,0:0:0:0:
256,196,95200,1,0,0:0:0:0:
396,200,95420,5,8,0:0:0:0:
256,196,95641,5,0,0:0:0:0:
340,132,95862,5,12,0:0:0:0:
256,196,96082,5,0,0:0:0:0:
396,200,96303,5,8,0:0:0:0:
256,196,96523,5,0,0:0:0:0:
256,196,96965,1,0,0:0:0:0:
396,200,97185,5,8,0:0:0:0:
256,196,97406,5,0,0:0:0:0:
256,196,97516,1,0,0:0:0:0:
396,200,97626,5,8,0:0:0:0:
256,196,97847,5,0,0:0:0:0:
256,196,98067,1,0,0:0:0:0:
396,200,98288,5,8,0:0:0:0:
256,196,98729,5,0,0:0:0:0:
256,196,98840,1,0,0:0:0:0:
396,200,98950,5,8,0:0:0:0:
396,200,99060,1,8,0:0:0:0:
256,196,99170,5,0,0:0:0:0:
396,200,99391,5,8,0:0:0:0:
256,196,99612,5,0,0:0:0:0:
256,196,99832,1,0,0:0:0:0:
396,200,100053,5,8,0:0:0:0:
256,196,100273,5,0,0:0:0:0:
256,196,100384,1,0,0:0:0:0:
396,200,100494,5,8,0:0:0:0:
396,200,100715,1,8,0:0:0:0:
256,196,100935,5,0,0:0:0:0:
256,196,101045,1,0,0:0:0:0:
396,200,101156,5,8,0:0:0:0:
256,196,101376,5,0,0:0:0:0:
256,196,101597,1,0,0:0:0:0:
396,200,101817,5,8,0:0:0:0:
256,196,102259,5,0,0:0:0:0:
256,196,102369,1,0,0:0:0:0:
396,200,102479,5,8,0:0:0:0:
256,196,102700,5,0,0:0:0:0:
396,200,102920,5,8,0:0:0:0:
256,196,103141,5,0,0:0:0:0:
396,200,103362,5,8,0:0:0:0:
256,196,103582,5,0,0:0:0:0:
256,196,104023,1,0,0:0:0:0:
396,200,104244,5,8,0:0:0:0:
396,200,104465,1,8,0:0:0:0:
256,196,104906,5,0,0:0:0:0:
396,200,105126,5,8,0:0:0:0:
396,200,105347,1,8,0:0:0:0:
256,196,105788,5,0,0:0:0:0:
396,200,106009,5,8,0:0:0:0:
396,200,106229,1,8,0:0:0:0:
256,196,106450,5,0,0:0:0:0:
256,196,106560,1,0,0:0:0:0:
256,196,106670,1,0,0:0:0:0:
396,200,106891,5,8,0:0:0:0:
256,196,107001,5,0,0:0:0:0:
396,200,107112,5,8,0:0:0:0:
256,196,107332,5,0,0:0:0:0:
256,196,107553,1,0,0:0:0:0:
396,200,107773,5,8,0:0:0:0:
256,196,107884,5,0,0:0:0:0:
396,200,107994,5,8,0:0:0:0:
256,196,108215,5,0,0:0:0:0:
256,196,108435,1,0,0:0:0:0:
396,200,108656,5,8,0:0:0:0:
256,196,108876,5,0,0:0:0:0:
256,196,109317,1,0,0:0:0:0:
256,196,109428,1,0,0:0:0:0:
396,200,109538,5,8,0:0:0:0:
256,196,109648,5,0,0:0:0:0:
256,196,109759,1,0,0:0:0:0:
396,200,109979,5,8,0:0:0:0:
256,196,110200,5,0,0:0:0:0:
396,200,110420,5,8,0:0:0:0:
396,200,110641,1,8,0:0:0:0:
256,196,111082,5,0,0:0:0:0:
256,196,111303,1,0,0:0:0:0:
396,200,111523,5,8,0:0:0:0:
256,196,111965,5,0,0:0:0:0:
256,196,112185,1,0,0:0:0:0:
396,200,112406,5,8,0:0:0:0:
256,196,112847,5,0,0:0:0:0:
396,200,113067,5,8,0:0:0:0:
396,200,113509,1,8,0:0:0:0:
256,196,113729,5,0,0:0:0:0:
256,196,113840,1,0,0:0:0:0:
396,200,113950,5,8,0:0:0:0:
396,200,114170,1,8,0:0:0:0:
256,196,114391,5,0,0:0:0:0:
256,196,114501,1,0,0:0:0:0:
256,196,114612,1,0,0:0:0:0:
396,200,114832,5,8,0:0:0:0:
256,196,114942,5,0,0:0:0:0:
396,200,115053,5,8,0:0:0:0:
256,196,115273,5,0,0:0:0:0:
256,196,115494,1,0,0:0:0:0:
256,196,115604,1,0,0:0:0:0:
396,200,115715,5,8,0:0:0:0:
256,196,115935,5,0,0:0:0:0:
316,120,116376,5,12,0:0:0:0:
316,120,116597,1,12,0:0:0:0:
316,120,116817,5,4,0:0:0:0:
396,200,117038,5,8,0:0:0:0:
256,196,117148,5,0,0:0:0:0:
256,196,117259,1,0,0:0:0:0:
396,200,117479,5,8,0:0:0:0:
256,196,117590,5,0,0:0:0:0:
396,200,117700,5,8,0:0:0:0:
256,196,117920,5,0,0:0:0:0:
256,196,118141,1,0,0:0:0:0:
396,200,118362,5,8,0:0:0:0:
256,196,118472,5,0,0:0:0:0:
396,200,118582,5,8,0:0:0:0:
256,196,118803,5,0,0:0:0:0:
256,196,119023,1,0,0:0:0:0:
396,200,119244,5,8,0:0:0:0:
224,204,119354,5,0,0:0:0:0:
396,200,119465,5,8,0:0:0:0:
256,196,119685,5,0,0:0:0:0:
256,196,119795,1,0,0:0:0:0:
256,196,119906,1,0,0:0:0:0:
396,200,120126,5,8,0:0:0:0:
256,196,120237,5,0,0:0:0:0:
396,200,120347,5,8,0:0:0:0:
256,196,120567,5,0,0:0:0:0:
256,196,120678,1,0,0:0:0:0:
256,196,120788,1,0,0:0:0:0:
396,200,121009,5,8,0:0:0:0:
256,196,121119,5,0,0:0:0:0:
396,200,121229,5,8,0:0:0:0:
256,196,121450,5,0,0:0:0:0:
256,196,121670,1,0,0:0:0:0:
396,200,121891,5,8,0:0:0:0:
256,196,122001,5,0,0:0:0:0:
256,196,122112,1,0,0:0:0:0:
256,196,122222,1,0,0:0:0:0:
396,200,122332,5,8,0:0:0:0:
256,196,122553,5,0,0:0:0:0:
256,196,122663,1,0,0:0:0:0:
396,200,122773,5,8,0:0:0:0:
396,200,122994,1,8,0:0:0:0:
256,196,123435,5,0,0:0:0:0:
256,196,123545,1,0,0:0:0:0:
396,200,123656,5,8,0:0:0:0:
256,196,123766,5,0,0:0:0:0:
256,196,123876,1,0,0:0:0:0:
396,200,124097,5,8,0:0:0:0:
256,196,124207,5,0,0:0:0:0:
396,200,124317,5,8,0:0:0:0:
396,200,124538,1,8,0:0:0:0:
256,196,124648,5,0,0:0:0:0:
396,200,124759,5,8,0:0:0:0:
256,196,124979,5,0,0:0:0:0:
256,196,125200,1,0,0:0:0:0:
396,200,125420,5,8,0:0:0:0:
256,196,125531,5,0,0:0:0:0:
396,200,125641,5,8,0:0:0:0:
256,196,125862,5,0,0:0:0:0:
256,196,126082,1,0,0:0:0:0:
396,200,126303,5,8,0:0:0:0:
256,196,126413,5,0,0:0:0:0:
396,200,126523,5,8,0:0:0:0:
256,196,126744,5,0,0:0:0:0:
256,196,126854,1,0,0:0:0:0:
256,196,126965,1,0,0:0:0:0:
396,200,127185,5,8,0:0:0:0:
256,196,127295,5,0,0:0:0:0:
396,200,127406,5,8,0:0:0:0:
396,200,127626,1,8,0:0:0:0:
396,200,127847,1,8,0:0:0:0:
256,196,127957,5,0,0:0:0:0:
396,200,128067,5,8,0:0:0:0:
256,196,128178,5,0,0:0:0:0:
396,200,128288,5,8,0:0:0:0:
256,196,128509,5,0,0:0:0:0:
256,196,128729,1,0,0:0:0:0:
256,196,128840,1,0,0:0:0:0:
396,200,128950,5,8,0:0:0:0:
396,200,129170,1,8,0:0:0:0:
256,196,129391,5,0,0:0:0:0:
256,196,129501,1,0,0:0:0:0:
256,196,129612,1,0,0:0:0:0:
396,200,129832,5,8,0:0:0:0:
396,200,130053,1,8,0:0:0:0:
256,196,130163,5,0,0:0:0:0:
256,196,130273,1,0,0:0:0:0:
256,196,130494,1,0,0:0:0:0:
256,196,130604,1,0,0:0:0:0:
396,200,130715,5,8,0:0:0:0:
256,196,130824,5,0,0:0:0:0:
396,200,130935,5,8,0:0:0:0:
336,116,131156,5,4,0:0:0:0:
396,200,131376,5,8,0:0:0:0:
396,200,131597,1,8,0:0:0:0:
256,196,131707,5,0,0:0:0:0:
396,200,131817,5,8,0:0:0:0:
256,196,132038,5,0,0:0:0:0:
256,196,132259,1,0,0:0:0:0:
256,196,132369,1,0,0:0:0:0:
396,200,132479,5,8,0:0:0:0:
256,196,132590,5,0,0:0:0:0:
396,200,132700,5,8,0:0:0:0:
256,196,132810,5,0,0:0:0:0:
396,200,132920,5,8,0:0:0:0:
256,196,133141,5,0,0:0:0:0:
256,196,133362,1,0,0:0:0:0:
396,200,133472,5,8,0:0:0:0:
256,196,133582,5,0,0:0:0:0:
396,200,133692,5,8,0:0:0:0:
256,196,133803,5,0,0:0:0:0:
396,200,134023,5,8,0:0:0:0:
396,200,134244,1,8,0:0:0:0:
256,196,134354,5,0,0:0:0:0:
396,200,134465,5,8,0:0:0:0:
256,196,134575,5,0,0:0:0:0:
256,196,134685,1,0,0:0:0:0:
256,196,134906,1,0,0:0:0:0:
256,196,135016,1,0,0:0:0:0:
396,200,135126,5,8,0:0:0:0:
256,196,135347,5,0,0:0:0:0:
396,200,135567,5,8,0:0:0:0:
256,196,135677,5,0,0:0:0:0:
396,200,135788,5,8,0:0:0:0:
256,196,135898,5,0,0:0:0:0:
396,200,136008,5,8,0:0:0:0:
256,196,136119,5,0,0:0:0:0:
396,200,136229,5,8,0:0:0:0:
256,196,136339,5,0,0:0:0:0:
332,108,136449,5,12,0:0:0:0:
256,196,136670,5,0,0:0:0:0:
256,196,136780,1,0,0:0:0:0:
396,200,136891,5,8,0:0:0:0:
396,200,137111,1,8,0:0:0:0:
256,196,137332,5,0,0:0:0:0:
256,196,137442,1,0,0:0:0:0:
256,196,137552,1,0,0:0:0:0:
396,200,137773,5,8,0:0:0:0:
256,196,137883,5,0,0:0:0:0:
396,200,137994,5,8,0:0:0:0:
256,196,138214,5,0,0:0:0:0:
256,196,138324,1,0,0:0:0:0:
256,196,138435,1,0,0:0:0:0:
396,200,138655,5,8,0:0:0:0:
256,196,138766,5,0,0:0:0:0:
396,200,138876,5,8,0:0:0:0:
256,196,139097,5,0,0:0:0:0:
256,196,139317,1,0,0:0:0:0:
396,200,139538,5,8,0:0:0:0:
256,196,139648,5,0,0:0:0:0:
256,196,139758,1,0,0:0:0:0:
396,200,139979,5,8,0:0:0:0:
256,196,140199,5,0,0:0:0:0:
256,196,140310,1,0,0:0:0:0:
256,196,140420,1,0,0:0:0:0:
396,200,140641,5,8,0:0:0:0:
396,200,141082,1,8,0:0:0:0:
396,200,141302,1,8,0:0:0:0:
256,196,141523,5,0,0:0:0:0:
396,200,141744,5,8,0:0:0:0:
256,196,141854,5,0,0:0:0:0:
256,196,141964,1,0,0:0:0:0:
396,200,142185,5,8,0:0:0:0:
256,196,142295,5,0,0:0:0:0:
396,200,142405,5,8,0:0:0:0:
316,120,142847,5,4,0:0:0:0:
316,120,143067,1,4,0:0:0:0:
256,196,143288,1,0,0:0:0:0:
396,200,143508,5,8,0:0:0:0:
256,196,143729,5,0,0:0:0:0:
256,196,143839,1,0,0:0:0:0:
396,200,143949,5,8,0:0:0:0:
396,200,144170,1,8,0:0:0:0:
256,196,144391,5,0,0:0:0:0:
256,196,144501,1,0,0:0:0:0:
256,196,144611,1,0,0:0:0:0:
396,200,144832,5,8,0:0:0:0:
256,196,144942,5,0,0:0:0:0:
396,200,145052,5,8,0:0:0:0:
256,196,145273,5,0,0:0:0:0:
256,196,145494,1,0,0:0:0:0:
256,196,145604,1,0,0:0:0:0:
396,200,145714,5,8,0:0:0:0:
396,200,145935,1,8,0:0:0:0:
256,196,146155,5,0,0:0:0:0:
256,196,146376,1,0,0:0:0:0:
256,196,146486,1,0,0:0:0:0:
396,200,146597,5,8,0:0:0:0:
256,196,146817,5,0,0:0:0:0:
332,108,147038,5,12,0:0:0:0:
256,196,147258,5,0,0:0:0:0:
256,196,147369,1,0,0:0:0:0:
396,200,147479,5,8,0:0:0:0:
396,200,147699,1,8,0:0:0:0:
256,196,147810,5,0,0:0:0:0:
256,196,147920,1,0,0:0:0:0:
256,196,148141,1,0,0:0:0:0:
256,196,148251,1,0,0:0:0:0:
396,200,148361,5,8,0:0:0:0:
324,84,148582,1,12,0:0:0:0:
256,196,148802,5,0,0:0:0:0:
256,196,148913,1,0,0:0:0:0:
256,196,149023,1,0,0:0:0:0:
396,200,149244,5,8,0:0:0:0:
256,196,149354,5,0,0:0:0:0:
396,200,149464,5,8,0:0:0:0:
396,200,149905,1,8,0:0:0:0:
256,196,150016,5,0,0:0:0:0:
396,200,150126,5,8,0:0:0:0:
256,196,150347,5,0,0:0:0:0:
328,112,150567,1,4,0:0:0:0:
396,200,151008,5,8,0:0:0:0:
256,196,151119,5,0,0:0:0:0:
396,200,151229,5,8,0:0:0:0:
256,196,151449,5,0,0:0:0:0:
256,196,151560,1,0,0:0:0:0:
256,196,151670,1,0,0:0:0:0:
396,200,151891,5,8,0:0:0:0:
256,196,152001,5,0,0:0:0:0:
396,200,152111,5,8,0:0:0:0:
256,196,152332,5,0,0:0:0:0:
256,196,152552,1,0,0:0:0:0:
396,200,152773,5,8,0:0:0:0:
256,196,152883,5,0,0:0:0:0:
396,200,152994,5,8,0:0:0:0:
256,196,153214,5,0,0:0:0:0:
256,196,153435,1,0,0:0:0:0:
256,196,153545,1,0,0:0:0:0:
396,200,153655,5,8,0:0:0:0:
256,196,153876,5,0,0:0:0:0:
396,200,154097,5,8,0:0:0:0:
256,196,154207,5,0,0:0:0:0:
256,196,154317,1,0,0:0:0:0:
256,196,154427,1,0,0:0:0:0:
396,200,154538,5,8,0:0:0:0:
256,196,154758,5,0,0:0:0:0:
256,196,155199,1,0,0:0:0:0:
256,196,155310,1,0,0:0:0:0:
396,200,155420,5,8,0:0:0:0:
256,196,155530,5,0,0:0:0:0:
256,196,155641,1,0,0:0:0:0:
396,200,155861,5,8,0:0:0:0:
396,200,156082,1,8,0:0:0:0:
256,196,156192,5,0,0:0:0:0:
396,200,156302,5,8,0:0:0:0:
396,200,156523,1,8,0:0:0:0:
256,196,156744,5,0,0:0:0:0:
256,196,156854,1,0,0:0:0:0:
256,196,156964,1,0,0:0:0:0:
396,200,157185,5,8,0:0:0:0:
256,196,157295,5,0,0:0:0:0:
396,200,157405,5,8,0:0:0:0:
256,196,157626,5,0,0:0:0:0:
256,196,157847,1,0,0:0:0:0:
256,196,157957,1,0,0:0:0:0:
396,200,158067,5,8,0:0:0:0:
256,196,158288,5,0,0:0:0:0:
256,196,158729,1,0,0:0:0:0:
256,196,158839,1,0,0:0:0:0:
396,200,158949,5,8,0:0:0:0:
396,200,159060,1,8,0:0:0:0:
256,196,159170,5,0,0:0:0:0:
396,200,159391,5,8,0:0:0:0:
396,200,159611,1,8,0:0:0:0:
256,196,159722,5,0,0:0:0:0:
396,200,159832,5,8,0:0:0:0:
396,200,160052,1,8,0:0:0:0:
256,196,160273,5,0,0:0:0:0:
256,196,160383,1,0,0:0:0:0:
256,196,160494,1,0,0:0:0:0:
396,200,160714,5,8,0:0:0:0:
256,196,160824,5,0,0:0:0:0:
396,200,160935,5,8,0:0:0:0:
256,196,161155,5,0,0:0:0:0:
256,196,161376,1,0,0:0:0:0:
396,200,161597,5,8,0:0:0:0:
256,196,161707,5,0,0:0:0:0:
396,200,161817,5,8,0:0:0:0:
256,196,162038,5,0,0:0:0:0:
256,196,162258,1,0,0:0:0:0:
396,200,162479,5,8,0:0:0:0:
256,196,162589,5,0,0:0:0:0:
396,200,162699,5,8,0:0:0:0:
256,196,162920,5,0,0:0:0:0:
256,196,163141,1,0,0:0:0:0:
256,196,163251,1,0,0:0:0:0:
396,200,163361,5,8,0:0:0:0:
256,196,163582,5,0,0:0:0:0:
396,200,164023,5,8,0:0:0:0:
256,196,164133,5,0,0:0:0:0:
396,200,164244,5,8,0:0:0:0:
396,200,164354,1,8,0:0:0:0:
256,196,164464,5,0,0:0:0:0:
256,196,164685,1,0,0:0:0:0:
256,196,164905,1,0,0:0:0:0:
256,196,165016,1,0,0:0:0:0:
396,200,165126,5,8,0:0:0:0:
396,200,165347,1,8,0:0:0:0:
256,196,165567,5,0,0:0:0:0:
256,196,165677,1,0,0:0:0:0:
256,196,165788,1,0,0:0:0:0:
396,200,166008,5,8,0:0:0:0:
272,216,166119,5,0,0:0:0:0:
396,200,166229,5,8,0:0:0:0:
256,196,166449,5,0,0:0:0:0:
256,196,166670,1,0,0:0:0:0:
256,196,166780,1,0,0:0:0:0:
396,200,166891,5,8,0:0:0:0:
256,196,167001,5,0,0:0:0:0:
256,196,167111,1,0,0:0:0:0:
272,216,167552,1,0,0:0:0:0:
272,216,167663,1,0,0:0:0:0:
396,200,167773,5,8,0:0:0:0:
396,200,167994,1,8,0:0:0:0:
328,112,168214,1,12,0:0:0:0:
256,196,168435,5,0,0:0:0:0:
396,200,168655,5,8,0:0:0:0:
256,196,168766,5,0,0:0:0:0:
396,200,168876,1,0,0:0:0:0:
256,196,169097,1,0,0:0:0:0:
256,196,169207,1,0,0:0:0:0:
256,196,169317,1,0,0:0:0:0:
396,200,169538,5,8,0:0:0:0:
256,196,169758,5,0,0:0:0:0:
344,124,169979,5,12,0:0:0:0:
256,196,170199,5,0,0:0:0:0:
396,200,170420,5,8,0:0:0:0:
256,196,170530,5,0,0:0:0:0:
256,196,170641,1,0,0:0:0:0:
256,196,170861,1,0,0:0:0:0:
256,196,170972,1,0,0:0:0:0:
256,196,171082,1,0,0:0:0:0:
396,200,171302,5,8,0:0:0:0:
256,196,171523,5,0,0:0:0:0:
340,132,171744,5,12,0:0:0:0:
