osu file format v11

[General]
AudioFilename: 04 Jump To The Blue Sky.mp3
AudioLeadIn: 0
PreviewTime: -1
Countdown: 1
SampleSet: None
StackLeniency: 0.7
Mode: 1
LetterboxInBreaks: 1

[Editor]
DistanceSpacing: 1.2
BeatDivisor: 2
GridSize: 4

[Metadata]
Title:Jump to the Blue Sky
TitleUnicode:Jump to the Blue Sky
Artist:Yuji Yoshino & Yoko Ueno
ArtistUnicode:Yuji Yoshino & Yoko Ueno
Creator:Saturos-fangirl
Version:Taiko Normal
Source:.hack twilight
Tags:project five human emotions joy SFG taiko ctb
BeatmapID:204769
BeatmapSetID:64372

[Difficulty]
HPDrainRate:7
CircleSize:5
OverallDifficulty:7
ApproachRate:5
SliderMultiplier:1.4
SliderTickRate:1

[Events]
//Background and Video events
0,0,"taiko_wall.jpg"
//Break Periods
//Storyboard Layer 0 (Background)
Sprite,Background,Centre,"Euphoria_syndrome.jpg",320,240 L,568,8 F,0,0,330,0,0.25 F,0,330,661,0.25,0 F,0,661,1764,0 L,18215,1 F,0,0,330,0,0.25 F,0,330,661,0.25,0 F,0,661,1764,0 L,25273,2 F,0,0,330,0,0.25 F,0,330,661,0.25,0 F,0,661,1764,0 L,60567,20 F,0,0,330,0,0.35 F,0,330,661,0.35,0 F,0,661,1764,0 L,136450,20 F,0,0,330,0,0.35 F,0,330,661,0.35,0 F,0,661,1764,0
//Storyboard Layer 1 (Fail)
//Storyboard Layer 2 (Pass)
//Storyboard Layer 3 (Foreground)
Sprite,Foreground,Centre,"t.jpg",320,240 F,0,0,100000,1 S,0,0,100000,0.5
//Storyboard Sound Samples
//Background Colour Transformations
3,100,163,162,255

[TimingPoints]
568,441.176470588235,4,1,1,100,1,0
573,-100,4,1,1,100,0,0
19653,-83.3333333333333,4,1,1,100,0,0
20536,-117.647058823529,4,1,1,100,0,0
21433,-100,4,1,1,100,0,0
60567,-100,4,1,1,100,0,1
95862,-100,4,1,1,100,0,0
117038,-83.3333333333333,4,1,1,100,0,0
136450,-83.3333333333333,4,1,1,100,0,1
171744,-86.9565217391304,4,1,1,100,0,0

[Colours]
Combo1 : 139,242,254
Combo2 : 58,192,14

[HitObjects]
256,188,568,1,0,0:0:0
380,192,1009,5,8,0:0:0
256,188,1229,5,0,0:0:0
256,188,1670,1,0,0:0:0
380,192,1891,5,8,0:0:0
256,188,2332,5,0,0:0:0
380,192,2773,5,8,0:0:0
256,188,2994,5,0,0:0:0
256,188,3435,1,0,0:0:0
380,192,3656,5,8,0:0:0
256,188,4097,5,0,0:0:0
380,192,4538,5,8,0:0:0
256,188,4759,5,0,0:0:0
256,188,5200,1,0,0:0:0
380,192,5420,5,8,0:0:0
256,188,5862,5,0,0:0:0
380,192,6303,5,8,0:0:0
256,188,6523,5,0,0:0:0
256,188,6965,1,0,0:0:0
380,192,7185,5,8,0:0:0
256,188,7626,5,0,0:0:0
256,188,7847,1,0,0:0:0
380,192,8067,5,8,0:0:0
256,188,8288,5,0,0:0:0
256,188,8729,1,0,0:0:0
380,192,8950,5,8,0:0:0
256,188,9391,5,0,0:0:0
256,188,9612,1,0,0:0:0
380,192,9832,5,8,0:0:0
256,188,10053,5,0,0:0:0
256,188,10494,1,0,0:0:0
380,192,10715,5,8,0:0:0
256,188,11156,5,0,0:0:0
380,192,11597,5,8,0:0:0
256,188,11817,5,0,0:0:0
256,188,12259,1,0,0:0:0
380,192,12479,5,8,0:0:0
256,188,12700,5,0,0:0:0
256,188,12920,1,0,0:0:0
380,192,13362,5,8,0:0:0
256,188,13582,5,0,0:0:0
256,188,14023,1,0,0:0:0
380,192,14244,5,8,0:0:0
256,188,14465,5,0,0:0:0
256,188,14685,1,0,0:0:0
380,192,15126,5,8,0:0:0
380,192,15347,1,8,0:0:0
380,192,16009,1,8,0:0:0
380,192,16229,1,8,0:0:0
380,192,16891,1,8,0:0:0
380,192,17112,1,8,0:0:0
380,192,17773,1,8,0:0:0
380,192,17994,1,8,0:0:0
300,72,18215,5,4,0:0:0
380,192,18656,5,8,0:0:0
256,192,18876,5,0,0:0:0
256,192,19317,1,0,0:0:0
380,192,19538,5,8,0:0:0
380,192,19759,1,8,0:0:0
380,192,20200,1,8,0:0:0
256,192,20641,5,0,0:0:0
256,192,20862,1,0,0:0:0
256,192,21082,1,0,0:0:0
256,192,21303,1,0,0:0:0
256,192,21744,1,0,0:0:0
384,188,22185,5,8,0:0:0
384,188,22406,1,8,0:0:0
384,188,23067,1,8,0:0:0
384,188,23288,1,8,0:0:0
384,188,23950,1,8,0:0:0
384,188,24170,1,8,0:0:0
384,188,24832,1,8,0:0:0
256,188,25273,5,0,0:0:0
256,188,25494,1,0,0:0:0
384,188,25715,5,8,0:0:0
256,188,25935,5,0,0:0:0
256,188,26376,1,0,0:0:0
384,188,26597,5,8,0:0:0
256,188,27038,5,0,0:0:0
256,188,27259,1,0,0:0:0
384,188,27479,5,8,0:0:0
256,188,27700,5,0,0:0:0
256,188,28141,1,0,0:0:0
384,188,28362,5,8,0:0:0
256,188,28803,5,0,0:0:0
256,188,29023,1,0,0:0:0
384,188,29244,5,8,0:0:0
384,188,29465,1,8,0:0:0
384,188,30126,1,8,0:0:0
384,188,30347,1,8,0:0:0
384,188,31009,1,8,0:0:0
384,188,31229,1,8,0:0:0
256,192,31670,5,0,0:0:0
256,192,31891,1,0,0:0:0
256,192,32112,1,0,0:0:0
256,192,32332,1,0,0:0:0
384,188,32773,5,8,0:0:0
384,188,32994,1,8,0:0:0
256,192,33435,5,0,0:0:0
256,192,33656,1,0,0:0:0
384,188,34097,5,8,0:0:0
384,188,34317,1,8,0:0:0
384,188,34538,1,8,0:0:0
384,188,34759,1,8,0:0:0
256,192,35200,5,0,0:0:0
256,192,35420,1,0,0:0:0
256,192,35641,1,0,0:0:0
256,192,35862,1,0,0:0:0
384,188,36303,5,8,0:0:0
384,188,36523,1,8,0:0:0
384,188,37185,1,8,0:0:0
384,188,37406,1,8,0:0:0
384,188,38067,1,8,0:0:0
384,188,38288,1,8,0:0:0
256,192,38729,5,0,0:0:0
256,192,38950,1,0,0:0:0
256,192,39170,1,0,0:0:0
384,188,39391,5,8,0:0:0
384,188,39612,1,8,0:0:0
384,188,39832,1,8,0:0:0
384,188,40053,1,8,0:0:0
384,188,40715,1,8,0:0:0
384,188,41156,1,8,0:0:0
384,188,41376,1,8,0:0:0
384,188,41597,1,8,0:0:0
384,188,41817,1,8,0:0:0
256,192,42038,5,0,0:0:0
256,192,42259,1,0,0:0:0
256,192,42479,1,0,0:0:0
320,80,42920,1,4,0:0:0
320,80,43362,1,4,0:0:0
320,80,43803,1,4,0:0:0
256,192,44244,1,0,0:0:0
256,192,44465,1,0,0:0:0
388,188,44906,5,8,0:0:0
388,188,45126,1,8,0:0:0
388,188,45347,1,8,0:0:0
388,188,45788,1,8,0:0:0
388,188,46009,1,8,0:0:0
308,92,46450,2,4,P|24:88,1,280
352,192,47773,1,8,0:0:0
252,192,48215,5,0,0:0:0
252,192,48435,1,0,0:0:0
252,192,48656,1,0,0:0:0
252,192,48876,1,0,0:0:0
352,192,49317,5,8,0:0:0
352,192,49538,1,8,0:0:0
304,84,49979,5,4,0:0:0
304,84,50420,1,4,0:0:0
304,84,50862,1,4,0:0:0
256,192,51303,1,0,0:0:0
256,192,51523,1,0,0:0:0
256,192,51965,1,0,0:0:0
256,192,52185,1,0,0:0:0
256,192,52406,1,0,0:0:0
256,192,52847,1,0,0:0:0
256,192,53067,1,0,0:0:0
256,192,53509,12,0,55273,0:0:0
372,192,56156,5,8,0:0:0
256,192,56597,5,0,0:0:0
372,192,57038,5,8,0:0:0
256,192,57479,5,0,0:0:0
256,192,57920,1,0,0:0:0
256,192,58141,1,0,0:0:0
372,192,58362,5,8,0:0:0
256,192,58803,5,0,0:0:0
372,192,59244,5,8,0:0:0
256,192,59685,5,0,0:0:0
256,192,59906,1,0,0:0:0
372,192,60126,5,8,0:0:0
372,192,60347,1,8,0:0:0
312,92,60567,5,4,0:0:0
