osu file format v12

[General]
AudioFilename: 04 Jump To The Blue Sky.mp3
AudioLeadIn: 1500
PreviewTime: -1
Countdown: 0
SampleSet: Soft
StackLeniency: 0.7
Mode: 0
LetterboxInBreaks: 1

[Editor]
DistanceSpacing: 0.7
BeatDivisor: 4
GridSize: 4

[Metadata]
Title:Jump to the Blue Sky
TitleUnicode:Jump to the Blue Sky
Artist:Yuji Yoshino & Yoko Ueno
ArtistUnicode:Yuji Yoshino & Yoko Ueno
Creator:Saturos-fangirl
Version:Normal
Source:.hack twilight
Tags:project five human emotions joy SFG taiko ctb
BeatmapID:204768
BeatmapSetID:64372

[Difficulty]
HPDrainRate:4
CircleSize:4
OverallDifficulty:3
ApproachRate:4
SliderMultiplier:1.7
SliderTickRate:2

[Events]
//Background and Video events
0,0,"Minitokyo.School.Rumble.Wallpaper.85737.jpg",0,0
//Break Periods
2,57238,59247
2,96061,101600
2,130252,135130
//Storyboard Layer 0 (Background)
Sprite,Background,Centre,"Euphoria_syndrome.jpg",320,240 L,568,8 F,0,0,330,0,0.25 F,0,330,661,0.25,0 F,0,661,1764,0 L,18215,2 F,0,0,330,0,0.25 F,0,330,661,0.25,0 F,0,661,1544,0 L,25273,2 F,0,0,330,0,0.25 F,0,330,661,0.25,0 F,0,661,1764,0 L,60567,20 F,0,0,330,0,0.4 F,0,330,661,0.4,0 F,0,661,1764,0 L,106450,2 F,0,0,330,0,0.25 F,0,330,661,0.25,0 F,0,661,1764,0 L,113509,2 F,0,0,330,0,0.25 F,0,330,661,0.25,0 F,0,661,1764,0 L,120567,6 F,0,0,330,0,0.25 F,0,330,661,0.25,0 F,0,661,1764,0 L,136450,20 F,0,0,330,0,0.5 F,0,330,661,0.5,0 F,0,661,1764,0
//Storyboard Layer 1 (Fail)
//Storyboard Layer 2 (Pass)
//Storyboard Layer 3 (Foreground)
Sprite,Foreground,Centre,"tenma-chan.png",485,210 F,0,-1500,300000,1 S,0,-1500,300000,0.63
//Storyboard Sound Samples
//Background Colour Transformations
3,100,163,162,255

[TimingPoints]
568,441.176470588235,4,2,1,100,1,0
573,-100,4,2,1,100,0,0
19653,-83.3333333333333,4,2,1,100,0,0
20536,-117.647058823529,4,2,1,100,0,0
21433,-100,4,2,1,100,0,0
117038,-83.3333333333333,4,2,1,100,0,0
136450,-100,4,2,1,100,0,0

[Colours]
Combo1 : 255,255,74
Combo2 : 58,192,14
Combo3 : 139,242,254
Combo4 : 255,89,172

[HitObjects]
256,308,568,2,0,B|344:328|452:272|452:184,1,255
320,192,1670,1,0,0:0:0:0:
256,192,1891,1,8,0:0:0:0:
256,56,2332,2,0,B|168:36|60:92|60:180,1,255
192,192,3435,1,0,0:0:0:0:
256,192,3656,1,8,0:0:0:0:
160,288,4097,6,0,B|236:340|284:296|332:252|404:296,2,255,0|0|8,0:0|0:0|0:0,0:0:0:0:
36,340,5862,2,0,B|-24:257|14:209|52:157|2:98,2,255,0|0|8,0:0|0:0|0:0,0:0:0:0:
92,236,7626,6,0,B|140:196|188:196|224:220,2,127.5
204,128,8729,1,0,0:0:0:0:
272,128,8950,1,8,0:0:0:0:
408,128,9391,2,0,B|418:170|401:215|366:240,2,127.5
272,128,10494,1,0,0:0:0:0:
312,180,10715,1,8,0:0:0:0:
292,316,11156,6,0,B|276:340|244:340|232:316|232:316|220:292|188:292|172:316|172:316|156:340|116:340|136:292|72:308,1,255
108,176,12259,2,0,B|56:164|48:88,2,85,0|8|0,0:0|0:0|0:0,0:0:0:0:
164,216,12920,2,0,B|180:240|212:240|224:216|224:216|236:192|268:192|284:216|284:216|300:240|340:240|320:192|384:208,1,255
492,284,14023,1,0,0:0:0:0:
512,220,14244,1,8,0:0:0:0:
452,100,14685,6,0,B|412:144|340:144|300:100,1,170
352,60,15347,2,0,B|304:-8|176:-8|128:60,1,255,8|0,0:0|0:0,0:0:0:0:
176,108,16229,2,0,B|94:122|39:238|81:311,1,255
140,272,17112,2,0,B|178:346|304:363|361:303,1,255,8|0,0:0|0:0,0:0:0:0:
424,280,17994,6,0,B|404:232|344:236,1,85
320,104,18656,2,0,B|336:44|396:48,1,85,0|8,0:0|0:0,0:0:0:0:
188,68,19317,2,0,B|204:105|152:139,2,85
64,176,20200,1,0,0:0:0:0:
136,264,20641,2,0,B|152:288|164:288|180:264|180:264|196:244|208:244|224:264|224:264|236:288|248:288|260:264|260:264|272:244|288:244|296:264,1,216.750004134178,8|0,0:0|0:0,0:0:0:0:
368,148,21744,6,0,B|312:160|288:108,3,85,0|0|0|8,0:0|0:0|0:0|0:0,0:0:0:0:
100,64,22847,2,0,B|144:104|96:152,2,85
200,184,23729,2,0,B|236:216|276:184,2,85,0|0|8,0:0|0:0|0:0,0:0:0:0:
380,176,24612,1,0,0:0:0:0:
436,128,24832,1,0,0:0:0:0:
492,252,25273,6,0,B|424:304|328:324|212:304,1,255
136,232,26376,1,0,0:0:0:0:
140,164,26597,1,8,0:0:0:0:
216,52,27038,2,0,B|304:104|304:216|216:260,1,255
140,164,28141,1,8,0:0:0:0:
72,164,28362,1,8,0:0:0:0:
152,52,28803,6,0,B|196:76|232:48,1,85
288,8,29244,2,0,B|324:48|280:108,1,85,0|8,0:0|0:0,0:0:0:0:
368,204,29906,1,0,0:0:0:0:
320,252,30126,1,0,0:0:0:0:
252,256,30347,1,0,0:0:0:0:
172,148,30788,1,0,0:0:0:0:
120,192,31009,1,0,0:0:0:0:
128,260,31229,1,8,0:0:0:0:
240,336,31670,2,0,B|288:360|328:320,1,85
388,312,32112,1,0,0:0:0:0:
444,272,32332,6,0,B|476:232|436:176,1,85
396,148,32773,2,0,B|368:196|400:244,1,85,0|8,0:0|0:0,0:0:0:0:
256,244,33435,1,0,0:0:0:0:
256,176,33656,1,0,0:0:0:0:
256,40,34097,2,0,B|188:56|164:136,2,127.5
364,124,35200,2,0,B|364:180|304:208,1,85,8|8,0:0|0:0,0:0:0:0:
200,252,35862,6,0,B|152:252|116:216|116:172,2,127.5,0|0|8,0:0|0:0|0:0,0:0:0:0:
276,60,36965,2,0,B|276:112|328:112,2,85
336,256,37847,2,0,B|280:308|236:256,2,85,0|0|8,0:0|0:0|0:0,0:0:0:0:
240,160,38729,2,0,B|184:168|156:108,1,85
64,40,39391,6,0,B|16:92|60:164|108:236|60:284,1,255,0|8,0:0|0:0,0:0:0:0:
264,312,40715,1,0,0:0:0:0:
396,284,41156,2,0,B|350:238|398:166|442:94|394:42,2,255,0|8|0,0:0|0:0|0:0,0:0:0:0:
256,196,42920,5,2,0:0:0:0:
256,112,43362,1,2,0:0:0:0:
256,28,43803,1,2,0:0:0:0:
184,72,44244,2,0,B|96:72,1,85,0|8,0:0|0:0,0:0:0:0:
188,148,44906,2,0,B|188:244,2,85
308,148,45788,2,0,B|400:148,1,85,0|8,0:0|0:0,0:0:0:0:
416,264,46450,6,0,B|392:232|352:232|332:264|332:264|308:304|268:304|240:264|240:264|216:304|160:304|132:260,1,340
188,156,47773,1,8,0:0:0:0:
192,36,48215,2,0,B|268:36|288:120|284:256,1,255
164,244,49317,2,8,B|80:244,1,85
124,136,49979,6,2,B|160:104|248:104|284:136,2,170
224,204,51303,2,0,B|268:232|324:204,1,85,0|8,0:0|0:0,0:0:0:0:
412,164,51965,2,0,B|436:212|408:244,2,85,0|0|8,0:0|0:0|0:0,0:0:0:0:
348,64,52847,2,0,B|308:108|264:64|216:16|168:64,1,170
256,192,53509,12,0,57038,0:0:0:0:
176,108,60567,6,0,B|256:56|336:108,2,170
256,192,61891,1,8,0:0:0:0:
336,276,62332,2,0,B|256:328|176:276,2,170
256,192,63656,1,8,0:0:0:0:
140,216,64097,6,0,B|176:196|176:168|144:152|144:152|104:136|104:116|144:100|144:100|176:88|176:56|144:48|144:48|108:40,2,255,0|0|8,0:0|0:0|0:0,0:0:0:0:
184,328,65862,2,0,B|228:296|276:360|328:328,2,127.5
264,240,66965,1,8,0:0:0:0:
324,240,67185,1,8,0:0:0:0:
432,292,67626,6,0,B|484:268|484:228|432:196|432:196|484:164|484:124|432:100,1,255,0|8,0:0|0:0,0:0:0:0:
332,44,68729,2,0,B|240:44,2,85,0|0|0,0:0|0:0|0:0,0:0:0:0:
376,92,69391,2,0,B|328:128|256:144|184:128|136:92,2,255,0|0|8,0:0|0:0|0:0,0:0:0:0:
456,180,71156,6,0,B|424:268|312:280,1,170
316,336,71817,2,0,B|219:369|133:297|156:202,1,255,8|0,0:0|0:0,0:0:0:0:
124,156,72700,2,0,B|169:110|241:158|313:202|365:154,1,255
352,96,73582,2,0,B|300:8|187:8|143:96,1,255,8|0,0:0|0:0,0:0:0:0:
184,204,74685,6,0,B|224:256|288:256|328:204,2,170
272,124,76009,1,8,0:0:0:0:
352,36,76450,2,0,B|404:76|404:140|352:180,2,170
272,124,77773,1,8,0:0:0:0:
196,32,78215,6,0,B|112:56|112:100|152:108|152:108|192:116|192:152|152:160|152:160|112:168|112:204|152:208|152:208|192:212|192:252|152:260|152:260|116:268|116:304|152:312|152:312|192:320|192:348,1,510,0|8,0:0|0:0,0:0:0:0:
308,328,79979,2,0,B|276:304|276:264|308:244|308:244|348:220|348:180|308:152|308:152|348:128|348:72|304:44,1,340,0|0,0:0|0:0,0:0:0:0:
220,128,81303,1,0,0:0:0:0:
220,188,81523,1,0,0:0:0:0:
40,192,82185,1,8,0:0:0:0:
44,132,82406,1,0,0:0:0:0:
220,128,83067,1,8,0:0:0:0:
200,244,83509,6,0,B|216:268|248:268|260:244|260:244|272:220|304:220|320:244|320:244|336:268|376:268|356:220|420:236,2,255,0|0|8,0:0|0:0|0:0,0:0:0:0:
156,204,85053,1,0,0:0:0:0:
276,72,85715,2,0,B|316:44|356:72,1,85,8|0,0:0|0:0,0:0:0:0:
436,232,86597,2,0,B|464:272|436:312,2,85,8|0|0,0:0|0:0|0:0,0:0:0:0:
340,164,87479,6,0,B|240:164,1,85,8|0,0:0|0:0,0:0:0:0:
152,224,88141,2,0,B|252:224,1,85,0|8,0:0|0:0,0:0:0:0:
232,344,88803,2,0,B|292:261|254:213|216:161|266:102,2,255,0|8|0,0:0|0:0|0:0,0:0:0:0:
172,344,90347,1,0,0:0:0:0:
112,344,90567,2,0,B|52:261|90:213|128:161|78:102,2,255,8|0|0,0:0|0:0|0:0,0:0:0:0:
180,244,92332,6,0,B|216:280|268:208|304:244,2,127.5,8|0|0,0:0|0:0|0:0,0:0:0:0:
256,80,93656,1,0,0:0:0:0:
140,52,94097,2,0,B|104:88|176:140|140:176,2,127.5,8|0|0,0:0|0:0|0:0,0:0:0:0:
252,192,95420,2,0,B|420:192,1,170,0|8,0:0|0:0,0:0:0:0:
152,192,102920,6,0,B|152:84|256:84,1,170
316,88,103582,1,0,0:0:0:0:
336,264,104244,2,0,B|308:304|260:288,1,85
84,264,105126,2,0,B|68:220|88:176,1,85
212,52,106009,1,0,0:0:0:0:
312,116,106450,6,0,B|248:172|308:208|216:252,2,170,8|0|0,0:0|0:0|0:0,0:0:0:0:
368,100,107553,1,0,0:0:0:0:
428,108,107773,2,0,B|460:156|416:192,1,85,0|8,0:0|0:0,0:0:0:0:
368,212,108215,2,0,B|304:268|364:304|272:352,3,170,0|0|0|8,0:0|0:0|0:0|0:0,0:0:0:0:
220,244,109979,6,0,B|172:240|108:184|112:120,2,170
200,128,111303,1,0,0:0:0:0:
168,12,111744,2,0,B|216:16|280:72|276:136,3,170
392,160,113509,6,0,B|392:224|296:224|200:224|200:316,2,255,8|0|0,0:0|0:0|0:0,0:0:0:0:
364,108,115053,1,0,0:0:0:0:
332,60,115273,2,0,B|264:22|219:107|174:191|117:161,2,255,8|0|8,0:0|0:0|0:0,0:0:0:0:
456,128,117038,6,0,B|437:187|376:184,1,101.999996887207
384,108,117479,2,0,B|326:101|304:160,1,101.999996887207
324,228,117920,2,0,B|252:244|228:296|204:244|132:228,2,203.999993774414
328,84,119244,2,0,B|256:68|232:16|208:68|136:84,2,203.999993774414
288,144,120347,1,0,0:0:0:0:
208,144,120567,6,0,B|208:224|320:224|320:308,2,203.999993774414
244,84,121670,1,0,0:0:0:0:
288,140,121891,2,0,B|332:264|220:264|220:348,2,203.999993774414
244,84,122994,1,0,0:0:0:0:
372,152,123435,1,8,0:0:0:0:
372,224,123656,1,8,0:0:0:0:
247,231,124097,6,0,B|212:196|148:196|104:220,2,152.999995330811
212,124,125200,1,0,0:0:0:0:
284,128,125421,1,8,0:0:0:0:
356,128,125641,2,0,B|372:176|348:236|292:264,2,152.999995330811
284,128,126523,1,8,0:0:0:0:
168,212,126965,1,0,0:0:0:0:
240,212,127186,1,8,0:0:0:0:
384,212,127626,6,0,B|384:312|284:312|132:312,1,305.999990661621,0|8,0:0|0:0,0:0:0:0:
60,312,128509,1,0,0:0:0:0:
160,212,128950,1,0,0:0:0:0:
232,212,129170,1,8,0:0:0:0:
244,140,129391,2,0,B|244:72|320:76|320:4,2,152.999995330811,0|0|8,0:0|0:0|0:0,0:0:0:0:
336,108,136450,6,0,B|256:56|176:108,2,170
256,192,137774,1,8,0:0:0:0:
176,276,138215,2,0,B|256:328|336:276,2,170
256,192,139539,1,8,0:0:0:0:
372,216,139980,6,0,B|336:196|336:168|368:152|368:152|408:136|408:116|368:100|368:100|336:88|336:56|368:48|368:48|404:40,2,255,0|0|8,0:0|0:0|0:0,0:0:0:0:
328,328,141745,2,0,B|284:296|236:360|184:328,2,127.5
248,240,142848,1,8,0:0:0:0:
188,240,143068,1,8,0:0:0:0:
80,292,143509,6,0,B|28:268|28:228|80:196|80:196|28:164|28:124|80:100,1,255
180,44,144612,2,0,B|272:44,2,85,0|8|0,0:0|0:0|0:0,0:0:0:0:
136,92,145274,2,0,B|184:128|256:144|328:128|376:92,2,255,0|0|8,0:0|0:0|0:0,0:0:0:0:
56,180,147039,6,0,B|88:268|200:280,1,170
196,336,147700,2,0,B|293:369|379:297|356:202,1,255,8|0,0:0|0:0,0:0:0:0:
388,156,148583,2,0,B|343:110|271:158|199:202|147:154,1,255
160,96,149465,2,0,B|212:8|325:8|369:96,1,255,8|8,0:0|0:0,0:0:0:0:
328,204,150568,6,0,B|288:256|224:256|184:204,2,170
240,124,151892,1,8,0:0:0:0:
160,36,152333,2,0,B|107:76|107:140|159:180,2,170
240,124,153656,1,8,0:0:0:0:
316,32,154098,6,0,B|400:56|400:100|360:108|360:108|320:116|320:152|360:160|360:160|400:168|400:204|360:208|360:208|320:212|320:252|360:260|360:260|396:268|396:304|360:312|360:312|320:320|320:348,1,510,0|8,0:0|0:0,0:0:0:0:
204,328,155862,2,0,B|236:304|236:264|204:244|204:244|164:220|164:180|204:152|204:152|164:128|164:72|208:44,1,340,0|0,0:0|0:0,0:0:0:0:
292,128,157186,1,0,0:0:0:0:
292,188,157406,1,8,0:0:0:0:
472,192,158067,1,8,0:0:0:0:
472,132,158289,1,0,0:0:0:0:
292,128,158950,1,8,0:0:0:0:
312,244,159392,6,0,B|296:268|264:268|252:244|252:244|240:220|208:220|192:244|192:244|176:268|136:268|156:220|92:236,2,255
356,204,160936,1,8,0:0:0:0:
236,72,161598,2,0,B|196:44|156:72,1,85,0|8,0:0|0:0,0:0:0:0:
76,232,162480,2,0,B|48:272|76:312,2,85,0|8|0,0:0|0:0|0:0,0:0:0:0:
172,164,163362,6,0,B|272:164,1,85,8|0,0:0|0:0,0:0:0:0:
360,224,164024,2,0,B|260:224,1,85,0|8,0:0|0:0,0:0:0:0:
280,344,164686,2,0,B|220:261|258:213|296:161|246:102,2,255
340,344,166230,1,8,0:0:0:0:
400,344,166450,2,0,B|460:261|422:213|384:161|434:102,2,255,0|0|8,0:0|0:0|0:0,0:0:0:0:
332,244,168215,6,0,B|296:280|244:208|208:244,2,127.5
256,80,169539,1,8,0:0:0:0:
372,52,169980,2,0,B|408:88|336:140|372:176,2,127.5
260,192,171303,2,0,B|92:192,1,170,8|0,0:0|0:0,0:0:0:0:
