osu file format v11

[General]
AudioFilename: 04 Jump To The Blue Sky.mp3
AudioLeadIn: 1500
PreviewTime: -1
Countdown: 0
SampleSet: Soft
StackLeniency: 0.7
Mode: 2
LetterboxInBreaks: 1

[Editor]
Bookmarks: 568,7626,14685,28803,42920,60567,74685,92332,95862,117038,131156,136450,154097,168215,171744
DistanceSpacing: 1.2
BeatDivisor: 4
GridSize: 8

[Metadata]
Title:Jump to the Blue Sky
TitleUnicode:Jump to the Blue Sky
Artist:Yuji Yoshino & Yoko Ueno
ArtistUnicode:Yuji Yoshino & Yoko Ueno
Creator:Saturos-fangirl
Version:Kits CtB
Source:.hack twilight
Tags:project five human emotions joy SFG taiko ctb
BeatmapID:189491
BeatmapSetID:64372

[Difficulty]
HPDrainRate:5
CircleSize:5
OverallDifficulty:7
ApproachRate:8
SliderMultiplier:3.59999990463257
SliderTickRate:2

[Events]
//Background and Video events
0,0,"Minitokyo.School.Rumble.Wallpaper.85737.jpg"
//Break Periods
2,96062,102170
//Storyboard Layer 0 (Background)
Sprite,Background,Centre,"Euphoria_syndrome.jpg",320,240 L,568,8 F,0,0,330,0,0.25 F,0,330,661,0.25,0 F,0,661,1764,0 L,18215,1 F,0,0,330,0,0.25 F,0,330,661,0.25,0 F,0,661,1764,0 L,25273,2 F,0,0,330,0,0.25 F,0,330,661,0.25,0 F,0,661,1764,0 L,60567,20 F,0,0,330,0,0.35 F,0,330,661,0.35,0 F,0,661,1764,0
//Storyboard Layer 1 (Fail)
//Storyboard Layer 2 (Pass)
//Storyboard Layer 3 (Foreground)
Sprite,Foreground,Centre,"tenma-chan.png",485,210 F,0,0,100000,1 S,0,0,100000,0.63
//Storyboard Sound Samples
//Background Colour Transformations
3,100,163,162,255

[TimingPoints]
568,441.176470588235,4,2,1,100,1,0
573,-100,4,2,1,100,0,0
19653,-100,4,2,1,100,0,0
20536,-100,4,2,1,100,0,0
21433,-100,4,2,1,100,0,0
42920,-100,4,2,1,100,0,0
42920,-100,4,2,1,100,0,0
60567,-100,4,2,1,100,0,1
95862,-100,4,2,1,100,0,0
136450,-100,4,2,1,100,0,1
168215,-100,4,2,1,100,0,0

[Colours]
Combo1 : 255,255,74
Combo2 : 58,192,14
Combo3 : 139,242,254
Combo4 : 255,89,172

[HitObjects]
128,192,568,1,0,0:0:0
32,192,788,1,0,0:0:0
224,192,1009,1,0,0:0:0
32,192,1229,1,0,0:0:0
400,192,1670,2,0,B|320:32,2,179.999995231629
224,192,2332,5,0,0:0:0
400,192,2553,1,0,0:0:0
224,192,2773,1,0,0:0:0
128,192,2994,1,0,0:0:0
480,192,3435,1,0,0:0:0
32,192,3656,1,0,0:0:0
256,192,3876,1,0,0:0:0
160,192,4097,5,0,0:0:0
352,192,4317,1,0,0:0:0
160,192,4538,1,0,0:0:0
352,192,4759,1,0,0:0:0
480,192,5200,6,0,B|288:192,1,179.999995231629
384,192,5641,2,0,B|176:192,1,179.999995231629
288,192,6082,2,0,B|96:192,1,179.999995231629
192,192,6523,1,0,0:0:0
464,192,6965,5,0,0:0:0
288,192,7075,1,0,0:0:0
464,192,7185,1,4,0:0:0
112,192,7626,5,0,0:0:0
192,192,7847,1,0,0:0:0
16,192,8067,1,8,0:0:0
384,192,8288,1,0,0:0:0
288,112,8509,6,0,B|480:112|480:112|288:112|288:112|208:256|208:256,1,539.999985694885
352,256,9391,1,0,0:0:0
480,256,9612,2,0,B|304:256|304:256|208:96|208:96|160:96,1,359.999990463257
304,192,10273,5,0,0:0:0
128,192,10494,1,0,0:0:0
32,192,10715,1,0,0:0:0
400,192,10935,1,0,0:0:0
32,192,11156,1,4,0:0:0
128,192,11376,6,0,B|312:192,2,179.999995231629
488,192,12259,2,0,B|304:192,2,179.999995231629
24,192,13141,6,0,B|208:192,2,179.999995231629
208,192,14023,1,0,0:0:0
392,192,14134,1,0,0:0:0
208,192,14244,1,8,0:0:0
392,192,14465,5,0,0:0:0
296,192,14685,1,0,0:0:0
392,192,14906,1,0,0:0:0
296,192,15126,1,0,0:0:0
496,352,15347,6,0,B|496:168|496:168|364:34|225:28|176:32,1,539.999985694885
384,352,16229,6,0,B|384:168|384:168|252:34|113:28|64:32,1,539.999985694885
272,352,17112,6,0,B|184:192|184:192|8:192|8:192|192:192,1,539.999985694885
464,192,17994,5,0,0:0:0
104,192,18215,1,4,0:0:0
192,192,18435,1,0,0:0:0
16,192,18656,1,0,0:0:0
192,192,18876,1,0,0:0:0
280,192,19097,6,0,B|96:192,1,179.999995231629
192,192,19538,1,0,0:0:0
104,192,19759,1,0,0:0:0
368,192,19980,6,0,B|184:192,1,179.999995231629
280,192,20421,1,0,0:0:0
192,192,20641,1,0,0:0:0
456,192,20862,6,0,B|272:192,1,179.999995231629
368,192,21303,1,0,0:0:0
16,192,21523,1,0,0:0:0
104,192,21744,6,8,B|192:32|192:32|368:32|368:32|184:32|184:32,1,539.999985694885
272,32,22626,1,0,0:0:0
448,192,22847,6,0,B|360:32|360:32|184:32|184:32|368:32|368:32,1,539.999985694885
272,32,23729,1,0,0:0:0
416,32,23950,5,0,0:0:0
80,32,24170,1,0,0:0:0
0,32,24391,1,0,0:0:0
440,32,24832,1,0,0:0:0
0,32,25273,6,4,B|184:32,1,179.999995231629
512,32,25715,2,0,B|328:32,1,179.999995231629
256,32,26156,1,0,0:0:0
32,32,26376,6,0,B|216:32,2,179.999995231629
256,32,27038,1,0,0:0:0
480,32,27259,6,0,B|296:32,2,179.999995231629
256,32,27920,1,0,0:0:0
80,32,28141,5,0,0:0:0
432,32,28362,1,0,0:0:0
80,32,28582,1,0,0:0:0
432,32,28803,1,8,0:0:0
344,32,29023,5,0,0:0:0
168,32,29244,1,0,0:0:0
80,32,29465,2,2,B|256:32|256:32|344:192|344:192|160:192|160:192,1,539.999985694885
424,32,30347,6,0,B|248:32|248:32|160:192|160:192|344:192|344:192,1,539.999985694885
256,192,31229,1,8,0:0:0
80,192,31670,5,0,0:0:0
256,192,31891,1,0,0:0:0
80,192,32112,1,0,0:0:0
432,192,32332,5,0,0:0:0
344,192,32553,1,0,0:0:0
168,192,32773,1,0,0:0:0
256,192,32994,1,0,0:0:0
168,192,33215,6,2,B|80:32,1,179.999995231629
256,192,33656,2,0,B|440:192,1,179.999995231629
16,192,34097,5,2,0:0:0
312,192,34317,1,0,0:0:0
160,192,34538,1,0,0:0:0
456,192,34759,1,0,0:0:0
192,120,35200,6,0,B|96:280|96:280|272:280|272:280,1,359.999990463257
96,48,35862,5,4,0:0:0
184,48,36082,1,0,0:0:0
360,48,36303,1,0,0:0:0
296,48,36523,6,0,B|208:48|208:48|208:144|208:144|120:144|120:144|120:232|120:232|32:72|32:72,1,539.999985694885
384,48,37406,6,0,B|296:48|296:48|208:48|208:48|208:144|208:144|208:232|208:232|120:72|120:72,1,539.999985694885
464,48,38288,6,8,B|464:144|464:144|464:232|464:232|376:232|376:232|288:232|288:232|200:72|200:72,1,539.999985694885
256,192,39391,12,0,40715,0:0:0
112,192,41156,6,0,B|24:32,1,179.999995231629
400,192,41597,2,0,B|488:32,1,179.999995231629
344,192,42038,5,2,0:0:0
168,192,42148,1,0,0:0:0
344,192,42259,1,0,0:0:0
256,192,42369,1,0,0:0:0
168,192,42479,1,2,0:0:0
344,192,42590,1,0,0:0:0
168,192,42700,1,0,0:0:0
344,112,42920,5,4,0:0:0
432,112,43141,1,0,0:0:0
296,112,43306,2,0,B|240:112,1,44.9999988079071
112,112,43582,1,0,0:0:0
251,112,43748,6,2,B|296:112,1,44.9999988079071
432,112,44023,1,0,0:0:0
296,112,44189,2,0,B|224:112,1,44.9999988079071
112,112,44465,1,0,0:0:0
280,112,44630,1,0,0:0:0
344,192,44685,5,8,0:0:0
392,192,44796,1,0,0:0:0
440,192,44906,1,0,0:0:0
352,192,45127,1,0,0:0:0
304,192,45238,1,0,0:0:0
256,192,45348,1,0,0:0:0
208,192,45567,6,2,B|120:192,2,89.9999976158143
296,192,46009,2,0,B|384:192,3,89.9999976158143
480,128,46450,5,8,0:0:0
448,128,46560,1,0,0:0:0
360,128,46670,1,0,0:0:0
184,128,46891,1,0,0:0:0
152,128,47001,1,0,0:0:0
64,128,47112,1,0,0:0:0
32,128,47222,1,0,0:0:0
72,288,47332,6,2,B|24:208,2,89.9999976158143
440,280,47773,2,0,B|488:200,2,89.9999976158143
360,192,48215,5,4,0:0:0
152,192,48435,1,4,0:0:0
360,192,48656,1,4,0:0:0
152,192,48876,1,4,0:0:0
256,192,49097,1,0,0:0:0
440,192,49317,6,0,B|440:104,1,89.9999976158143
344,192,49538,2,0,B|344:104,1,89.9999976158143
248,192,49759,2,0,B|248:104,1,89.9999976158143
256,192,49979,5,2,0:0:0
256,192,50200,1,0,0:0:0
32,192,50310,2,0,B|56:80,1,89.9999976158143
32,192,50641,1,0,0:0:0
256,192,50751,2,2,B|256:104,1,89.9999976158143
256,192,51082,5,8,0:0:0
480,192,51192,2,0,B|456:80,1,89.9999976158143
480,192,51523,1,0,0:0:0
256,192,51633,2,8,B|256:104,1,89.9999976158143
208,192,51854,5,0,0:0:0
80,192,51965,1,0,0:0:0
128,192,52075,1,0,0:0:0
80,192,52185,1,0,0:0:0
0,192,52295,1,0,0:0:0
80,192,52406,1,0,0:0:0
168,192,52516,1,0,0:0:0
256,192,52626,5,2,0:0:0
168,192,52737,1,0,0:0:0
256,192,52847,1,0,0:0:0
344,192,52957,1,0,0:0:0
300,192,53067,1,0,0:0:0
256,192,53178,1,0,0:0:0
344,192,53288,1,0,0:0:0
392,192,53398,1,0,0:0:0
256,192,53509,6,0,B|440:192|440:192|440:16|440:16|256:16|256:16|168:168|168:168|352:168|352:168|352:344|352:344|168:344|168:344|168:256|168:256|256:256|256:256|256:160|256:160|431:160|431:160|392:80|392:80|208:80|208:80|208:168|208:168|164:168|164:168|164:216|164:216|80:216|80:216|80:120|80:120|160:280|160:280|208:208|208:208|304:208|304:208,1,2699.99992847443
256,192,57038,5,4,0:0:0
80,192,57259,1,0,0:0:0
440,192,57479,1,4,0:0:0
80,192,57700,1,0,0:0:0
96,192,57920,5,8,0:0:0
176,192,58031,1,0,0:0:0
256,192,58141,1,0,0:0:0
176,192,58251,1,0,0:0:0
96,192,58362,1,0,0:0:0
176,192,58472,1,0,0:0:0
256,192,58582,1,0,0:0:0
352,192,58692,1,0,0:0:0
256,192,58803,5,2,0:0:0
80,192,59023,1,0,0:0:0
440,192,59244,1,0,0:0:0
352,192,59465,1,0,0:0:0
501,128,59685,5,2,0:0:0
447,128,59740,1,0,0:0:0
393,128,59795,1,0,0:0:0
338,128,59851,1,0,0:0:0
284,128,59906,1,0,0:0:0
229,128,59961,1,0,0:0:0
175,128,60016,1,0,0:0:0
175,128,60071,1,0,0:0:0
229,128,60126,1,4,0:0:0
284,128,60181,1,0,0:0:0
338,128,60237,1,0,0:0:0
284,128,60292,1,0,0:0:0
229,128,60347,1,0,0:0:0
175,128,60402,1,0,0:0:0
120,128,60457,1,0,0:0:0
66,128,60512,1,0,0:0:0
12,128,60567,1,4,0:0:0
56,192,60788,5,0,0:0:0
192,192,61009,2,8,B|376:192|376:192|376:368|376:368|192:368|192:368|160:336,1,539.999985694885
56,192,61891,1,0,0:0:0
464,16,62112,6,4,B|280:16|280:16|280:192|280:192|464:192|464:192|496:160,1,539.999985694885
56,192,62994,1,8,0:0:0
280,192,63215,6,0,B|464:192|464:192|464:368|464:368|280:368|280:368|248:336,1,539.999985694885
56,192,64097,5,4,0:0:0
128,192,64317,1,0,0:0:0
384,192,64538,1,0,0:0:0
456,192,64759,6,0,B|272:192|272:192|184:40|184:40|184:224|184:224,1,539.999985694885
512,192,65641,1,0,0:0:0
184,192,65862,6,4,B|184:8|184:8|288:152|288:152|472:152|472:152|480:144,1,539.999985694885
384,192,66744,6,0,B|480:24,1,179.999995231629
128,192,67185,2,0,B|32:24,1,179.999995231629
216,192,67626,1,2,0:0:0
128,192,67847,5,0,0:0:0
40,192,68067,1,0,0:0:0
304,192,68288,2,8,B|392:32,1,179.999995231629
216,192,68729,5,0,0:0:0
128,192,68949,1,0,0:0:0
392,192,69170,2,2,B|480:32,1,179.999995231629
304,192,69612,5,0,0:0:0
216,192,69832,1,0,0:0:0
480,192,70053,2,8,B|296:192,1,179.999995231629
120,344,70494,6,0,B|216:192,1,179.999995231629
400,192,70935,1,0,0:0:0
32,192,71156,6,4,B|216:192|216:192|216:16|216:16|400:16|400:16|216:16|216:16|312:160|312:160,1,899.999976158143
504,160,72479,1,0,0:0:0
312,0,72700,6,8,B|312:184|312:184|488:184|488:184|336:280|336:280|152:280|152:280|312:184|312:184,1,899.999976158143
112,192,74023,1,0,0:0:0
400,192,74244,1,0,0:0:0
112,192,74465,1,0,0:0:0
400,192,74685,6,2,B|496:40,3,179.999995231629
112,192,75567,6,0,B|16:40,3,179.999995231629
320,192,76450,6,8,B|496:192|496:192|408:32|408:32|496:192|496:192,1,539.999985694885
192,192,77332,6,0,B|16:192|16:192|104:32|104:32|16:192|16:192,1,539.999985694885
376,192,78215,5,4,0:0:0
288,192,78435,1,0,0:0:0
200,192,78656,1,0,0:0:0
112,192,78876,1,0,0:0:0
376,192,79097,5,2,0:0:0
464,192,79317,1,0,0:0:0
376,192,79538,1,0,0:0:0
288,192,79759,1,0,0:0:0
136,192,79979,5,2,0:0:0
224,192,80200,1,0,0:0:0
312,192,80420,1,0,0:0:0
400,192,80640,1,0,0:0:0
136,192,80861,5,2,0:0:0
48,192,81081,1,0,0:0:0
136,192,81302,1,0,0:0:0
224,192,81523,1,0,0:0:0
256,120,81744,5,4,0:0:0
344,120,81965,2,0,B|160:120,2,179.999995231629
296,120,82626,1,2,0:0:0
80,120,82847,6,0,B|264:120,2,179.999995231629
128,120,83509,1,2,0:0:0
440,120,83729,6,0,B|256:120,2,179.999995231629
384,120,84391,1,2,0:0:0
72,120,84611,6,0,B|256:120,2,179.999995231629
252,120,85273,6,4,B|344:120|344:120|344:208|344:208|432:208|432:208|432:304|432:304|256:304|256:304|256:208|256:208|432:208|432:208|432:24|432:24|344:24|344:24|256:176|256:176,1,1259.9999666214
112,192,87038,5,4,0:0:0
16,192,87259,1,0,0:0:0
240,192,87479,1,0,0:0:0
144,192,87700,1,0,0:0:0
368,192,87920,5,2,0:0:0
272,192,88141,1,0,0:0:0
496,192,88361,1,0,0:0:0
400,192,88582,1,0,0:0:0
400,192,88803,5,8,0:0:0
496,192,89024,1,0,0:0:0
272,192,89244,1,0,0:0:0
368,192,89465,1,0,0:0:0
144,192,89685,5,2,0:0:0
240,192,89906,1,0,0:0:0
16,192,90126,1,0,0:0:0
112,192,90347,1,0,0:0:0
16,192,90567,5,4,0:0:0
496,192,90788,1,0,0:0:0
80,192,91009,1,0,0:0:0
432,192,91229,1,0,0:0:0
144,192,91450,5,2,0:0:0
368,192,91670,1,0,0:0:0
256,192,91891,1,0,0:0:0
256,192,92332,12,4,95862,0:0:0
64,192,102920,5,0,0:0:0
152,192,103141,1,0,0:0:0
328,192,103362,1,0,0:0:0
416,192,103582,1,0,0:0:0
504,192,103803,1,0,0:0:0
32,192,104244,6,0,B|216:192,2,179.999995231629
80,192,104906,1,0,0:0:0
288,192,105126,2,0,B|376:192|376:192|376:96|376:96,1,179.999995231629
80,192,105788,5,0,0:0:0
440,192,106009,1,8,0:0:0
80,192,106229,1,0,0:0:0
256,192,106450,2,0,B|72:192,1,179.999995231629
256,192,106891,2,0,B|440:192,1,179.999995231629
320,192,107553,5,0,0:0:0
192,192,107773,2,0,B|8:192,1,179.999995231629
128,192,108215,1,0,0:0:0
376,192,108435,1,0,0:0:0
496,192,108656,2,0,B|312:192,1,179.999995231629
408,192,109097,6,0,B|224:192,1,179.999995231629
312,192,109538,2,0,B|128:192,1,179.999995231629
224,192,109979,6,0,B|40:192|40:192|128:40|128:40|312:40|312:40,1,539.999985694885
224,192,110862,6,0,B|132:32|132:32|307:32|307:32|399:192|399:192,1,539.999985694885
224,192,111744,6,0,B|316:32|316:32|403:184|403:184|311:344|311:344,1,539.999985694885
224,192,112626,6,0,B|408:192|408:192|320:344|320:344|135:344|135:344,1,539.999985694885
136,352,113509,5,2,0:0:0
504,352,113729,1,0,0:0:0
328,352,113950,1,0,0:0:0
408,192,114170,1,0,0:0:0
192,192,114391,5,0,0:0:0
280,192,114612,2,0,B|376:40,1,179.999995231629
280,192,115053,1,0,0:0:0
48,192,115273,5,2,0:0:0
136,192,115494,2,0,B|232:40,1,179.999995231629
136,192,115935,1,0,0:0:0
48,192,116156,5,0,0:0:0
136,192,116376,1,0,0:0:0
464,192,116597,1,0,0:0:0
136,192,116817,1,0,0:0:0
48,192,117038,6,4,B|232:192|232:192|144:40|144:40|144:224|144:224,1,539.999985694885
464,192,117920,6,0,B|280:192|280:192|368:40|368:40|368:224|368:224,1,539.999985694885
192,192,118803,6,8,B|192:8|192:8|40:96|40:96|224:96|224:96,1,539.999985694885
320,192,119685,6,0,B|320:8|320:8|472:96|472:96|288:96|288:96,1,539.999985694885
320,192,120567,5,4,0:0:0
408,192,120788,1,0,0:0:0
232,192,121009,1,0,0:0:0
320,192,121229,1,0,0:0:0
192,192,121450,5,0,0:0:0
104,192,121671,1,0,0:0:0
280,192,121892,1,0,0:0:0
192,192,122112,1,0,0:0:0
16,192,122332,5,8,0:0:0
104,192,122553,1,0,0:0:0
144,192,122773,1,0,0:0:0
56,192,122994,1,0,0:0:0
496,192,123215,5,0,0:0:0
408,192,123436,1,0,0:0:0
368,192,123656,1,0,0:0:0
456,192,123877,1,0,0:0:0
496,192,124097,5,4,0:0:0
168,192,124317,1,0,0:0:0
344,192,124538,1,0,0:0:0
16,192,124759,1,0,0:0:0
24,192,124979,5,0,0:0:0
64,192,125200,1,0,0:0:0
128,192,125420,1,0,0:0:0
224,192,125641,1,0,0:0:0
488,192,125862,5,8,0:0:0
448,192,126083,1,0,0:0:0
384,192,126303,1,0,0:0:0
288,192,126524,1,0,0:0:0
24,112,126744,6,0,B|208:112|208:112,1,179.999995231629
488,112,127185,2,0,B|304:112|304:112,1,179.999995231629
400,112,127626,6,8,B|216:112|216:112,1,179.999995231629
312,112,128067,6,0,B|136:112|136:112|136:296|136:296|224:136|224:136,1,539.999985694885
464,200,128950,6,2,B|376:47|376:47|216:139|216:139|399:135|399:135,1,539.999985694885
496,192,129832,5,0,0:0:0
16,192,130053,1,0,0:0:0
408,192,130273,1,0,0:0:0
104,192,130494,1,0,0:0:0
320,192,130715,1,2,0:0:0
192,192,130935,1,2,0:0:0
256,192,131156,12,0,132920,0:0:0
455,192,133362,5,0,0:0:0
441,266,133417,1,0,0:0:0
396,332,133472,1,0,0:0:0
333,375,133527,1,0,0:0:0
256,391,133582,1,0,0:0:0
181,377,133637,1,0,0:0:0
114,332,133692,1,0,0:0:0
71,269,133747,1,0,0:0:0
56,192,133803,1,8,0:0:0
136,192,134023,1,0,0:0:0
56,192,134244,5,0,0:0:0
70,117,134299,1,0,0:0:0
114,50,134354,1,0,0:0:0
177,14,134409,1,0,0:0:0
256,14,134464,1,0,0:0:0
330,14,134519,1,0,0:0:0
396,50,134574,1,0,0:0:0
439,113,134629,1,0,0:0:0
455,192,134685,1,2,0:0:0
320,192,134906,5,0,0:0:0
456,192,135126,1,0,0:0:0
456,192,135347,1,0,0:0:0
455,192,135568,5,8,0:0:0
441,266,135623,1,0,0:0:0
396,332,135678,1,0,0:0:0
333,375,135733,1,0,0:0:0
256,391,135788,1,0,0:0:0
181,377,135843,1,0,0:0:0
114,332,135898,1,0,0:0:0
71,269,135953,1,0,0:0:0
56,192,136009,5,2,0:0:0
70,117,136064,1,0,0:0:0
114,50,136119,1,0,0:0:0
177,14,136174,1,0,0:0:0
256,14,136229,1,0,0:0:0
330,14,136284,1,0,0:0:0
396,50,136339,1,0,0:0:0
439,113,136394,1,0,0:0:0
455,192,136450,6,4,B|360:192|360:192|360:104|360:104|184:104|184:104|184:192|184:192|88:192|88:192,1,539.999985694885
176,192,137332,5,0,0:0:0
88,192,137553,1,0,0:0:0
368,192,137773,1,0,0:0:0
455,192,137994,1,0,0:0:0
368,192,138215,6,4,B|208:104|208:104|272:48|272:48|344:104|344:104|176:192|176:192,1,539.999985694885
176,192,139097,5,0,0:0:0
88,192,139318,1,0,0:0:0
368,192,139538,1,0,0:0:0
455,192,139759,1,0,0:0:0
176,192,139979,6,8,B|352:192|352:192|264:32|264:32|176:192|176:192|176:16|176:16|360:16|360:16|264:168|264:168|80:168|80:168,1,1259.9999666214
328,104,141744,6,4,B|175:16|175:16|171:198|171:198|328:104|328:104|240:256|240:256|80:164|80:164|239:80|239:80|399:172|399:172,1,1259.9999666214
320,192,143509,6,8,B|504:192,1,179.999995231629
408,192,143950,1,0,0:0:0
440,192,144170,1,0,0:0:0
216,192,144391,6,2,B|400:192,1,179.999995231629
304,192,144832,1,0,0:0:0
336,192,145052,1,0,0:0:0
112,192,145274,6,8,B|296:192,1,179.999995231629
200,192,145715,1,0,0:0:0
232,192,145935,1,0,0:0:0
8,192,146157,6,2,B|192:192,1,179.999995231629
96,192,146598,1,0,0:0:0
128,192,146818,1,0,0:0:0
504,192,147038,5,4,0:0:0
328,192,147259,1,0,0:0:0
400,192,147479,1,0,0:0:0
224,192,147700,1,0,0:0:0
296,192,147920,5,2,0:0:0
120,192,148141,1,0,0:0:0
192,192,148362,1,0,0:0:0
16,192,148582,1,0,0:0:0
8,192,148803,5,8,0:0:0
184,192,149024,1,0,0:0:0
112,192,149244,1,0,0:0:0
288,192,149465,1,0,0:0:0
216,192,149685,5,2,0:0:0
392,192,149906,1,0,0:0:0
320,192,150127,1,0,0:0:0
496,192,150347,1,0,0:0:0
256,192,150567,5,4,0:0:0
40,192,150788,2,0,B|232:192,2,179.999995231629
256,192,151450,5,4,0:0:0
472,192,151671,2,0,B|280:192,1,179.999995231629
40,192,152112,5,2,0:0:0
472,192,152773,5,0,0:0:0
40,192,152994,2,2,B|40:104|40:104|88:24|88:24|152:88|152:88|240:88,1,359.999990463257
472,192,153656,1,0,0:0:0
40,192,154097,6,4,B|224:192|224:192|224:16|224:16|304:176|304:176|488:176|488:176|488:0|488:0|384:152|384:152|208:152|208:152,1,1259.9999666214
32,192,155862,5,2,0:0:0
480,192,156082,1,0,0:0:0
96,192,156303,1,0,0:0:0
416,192,156523,1,0,0:0:0
160,192,156744,5,8,0:0:0
352,192,156965,1,0,0:0:0
224,192,157185,1,0,0:0:0
288,192,157406,1,0,0:0:0
256,192,157626,12,0,159170,0:0:0
320,192,159391,6,2,B|504:192,1,179.999995231629
192,192,159832,2,2,B|8:192|8:192,1,179.999995231629
512,256,160494,2,0,B|256:256|256:64,1,359.999990463257
344,72,161156,5,4,0:0:0
168,72,161376,1,0,0:0:0
256,264,161597,2,0,B|0:264|0:72,1,359.999990463257
24,192,162479,1,0,0:0:0
256,192,162700,1,0,0:0:0
256,192,162920,12,0,164465,0:0:0
480,192,164685,6,2,B|480:8,1,179.999995231629
144,192,165126,2,2,B|144:8,1,179.999995231629
368,192,165567,6,0,B|368:8,1,179.999995231629
32,192,166009,1,0,0:0:0
256,192,166229,1,4,0:0:0
256,192,166450,12,0,167553,0:0:0
72,192,167773,5,0,0:0:0
432,192,167994,1,0,0:0:0
72,192,168215,2,4,B|256:192|256:192,1,179.999995231629
344,192,168656,5,2,0:0:0
32,192,168876,2,0,B|120:192,2,89.9999976158143
496,192,169538,1,0,0:0:0
16,192,169979,2,8,B|200:192|200:192|200:16|200:16|384:16|384:16|384:24,1,539.999985694885
16,192,170862,5,2,0:0:0
504,184,171303,1,8,0:0:0
256,192,171744,1,4,0:0:0
256,192,171965,12,0,173509,0:0:0
