osu file format v13

[General]
AudioFilename: 04 Jump To The Blue Sky.mp3
AudioLeadIn: 1500
PreviewTime: -1
Countdown: 0
SampleSet: Soft
StackLeniency: 0.7
Mode: 0
LetterboxInBreaks: 1
WidescreenStoryboard: 0

[Editor]
DistanceSpacing: 1.1
BeatDivisor: 4
GridSize: 4
TimelineZoom: 1

[Metadata]
Title:Jump to the Blue Sky
TitleUnicode:Jump to the Blue Sky
Artist:Yuji Yoshino & Yoko Ueno
ArtistUnicode:Yuji Yoshino & Yoko Ueno
Creator:Saturos-fangirl
Version:Hard
Source:.hack twilight
Tags:project five human emotions joy SFG taiko ctb
BeatmapID:189492
BeatmapSetID:64372

[Difficulty]
HPDrainRate:6
CircleSize:4
OverallDifficulty:6
ApproachRate:6
SliderMultiplier:1.7
SliderTickRate:2

[Events]
//Background and Video events
0,0,"Minitokyo.School.Rumble.Wallpaper.85737.jpg",0,0
//Break Periods
2,57238,59517
2,96062,101870
2,131356,135400
//Storyboard Layer 0 (Background)
Sprite,Background,Centre,"Euphoria_syndrome.jpg",320,240 L,568,8 F,0,0,330,0,0.25 F,0,330,661,0.25,0 F,0,661,1764,0 L,18215,2 F,0,0,330,0,0.25 F,0,330,661,0.25,0 F,0,661,1544,0 L,25273,2 F,0,0,330,0,0.25 F,0,330,661,0.25,0 F,0,661,1764,0 L,60567,20 F,0,0,330,0,0.4 F,0,330,661,0.4,0 F,0,661,1764,0 L,106450,2 F,0,0,330,0,0.25 F,0,330,661,0.25,0 F,0,661,1764,0 L,113509,2 F,0,0,330,0,0.25 F,0,330,661,0.25,0 F,0,661,1764,0 L,120567,6 F,0,0,330,0,0.25 F,0,330,661,0.25,0 F,0,661,1764,0 L,136450,20 F,0,0,330,0,0.5 F,0,330,661,0.5,0 F,0,661,1764,0
//Storyboard Layer 1 (Fail)
//Storyboard Layer 2 (Pass)
//Storyboard Layer 3 (Foreground)
Sprite,Foreground,Centre,"tenma-chan.png",485,210 F,0,-1500,300000,1 S,0,-1500,300000,0.63
//Storyboard Sound Samples
//Background Colour Transformations
3,100,163,162,255

[TimingPoints]
568,441.176470588235,4,2,1,100,1,0
573,-100,4,2,1,100,0,0
6813,-100,4,2,1,70,0,0
7295,-100,4,2,1,100,0,0
8178,-100,4,2,1,70,0,0
8398,-100,4,2,1,100,0,0
10604,-100,4,2,1,70,0,0
10825,-100,4,2,1,100,0,0
12369,-100,4,2,1,70,0,0
12590,-100,4,2,1,100,0,0
13913,-100,4,2,1,70,0,0
14354,-100,4,2,1,100,0,0
18104,-100,4,2,1,70,0,0
18325,-100,4,2,1,100,0,0
19653,-83.3333333333333,4,2,1,70,0,0
20536,-117.647058823529,4,2,1,100,0,0
21433,-100,4,2,1,100,0,0
21634,-100,4,2,1,70,0,0
21854,-100,4,2,1,100,0,0
25163,-100,4,2,1,70,0,0
25384,-100,4,2,1,100,0,0
26928,-100,4,2,1,70,0,0
27148,-100,4,2,1,100,0,0
28031,-100,4,2,1,70,0,0
28913,-100,4,2,1,100,0,0
31560,-100,4,2,1,70,0,0
32001,-100,4,2,1,100,0,0
35090,-100,4,2,1,70,0,0
35531,-100,4,2,1,100,0,0
44354,-100,4,2,1,60,0,0
44575,-100,4,2,1,100,0,0
47663,-100,4,2,1,70,0,0
48134,-100,4,2,1,100,0,0
49207,-100,4,2,1,70,0,0
49648,-100,4,2,1,100,0,0
67516,-100,4,2,1,70,0,0
67737,-100,4,2,1,100,0,0
79428,-100,4,2,1,70,0,0
79648,-100,4,2,1,100,0,0
88251,-100,4,2,1,70,0,0
88472,-100,4,2,1,100,0,0
117038,-90.9090909090909,4,2,1,100,0,0
124087,-100,4,2,1,100,0,0
136450,-100,4,2,1,100,0,0
155310,-100,4,2,1,70,0,0
155531,-100,4,2,1,100,0,0
164134,-100,4,2,1,70,0,0
164354,-100,4,2,1,100,0,0
166781,-100,4,2,1,70,0,0
167001,-100,4,2,1,100,0,0

[Colours]
Combo1 : 255,255,74
Combo2 : 58,192,14
Combo3 : 139,242,254
Combo4 : 255,89,172

[HitObjects]
152,240,568,5,0,0:3:0:0:
80,180,788,1,0,0:3:0:0:
84,88,1009,1,0,0:3:0:0:
160,32,1229,1,0,0:3:0:0:
256,192,1670,1,0,0:3:0:0:
324,128,1891,1,0,0:3:0:0:
416,136,2112,1,0,0:3:0:0:
488,196,2332,5,0,0:3:0:0:
396,200,2553,1,0,0:3:0:0:
324,128,2773,1,0,0:3:0:0:
316,36,2994,1,0,0:3:0:0:
308,216,3435,1,0,0:3:0:0:
232,268,3656,1,0,0:3:0:0:
144,232,3876,1,0,0:3:0:0:
124,140,4097,6,0,B|168:84|248:88,2,127.5
232,268,5200,1,0,0:3:0:0:
320,236,5420,1,0,0:3:0:0:
340,144,5641,1,0,0:3:0:0:
256,100,5862,6,0,B|188:96|144:152,2,127.5
184,272,6965,1,8,0:3:0:0:
276,252,7185,1,8,0:3:0:0:
324,172,7406,1,0,0:3:0:0:
400,224,7626,6,0,B|440:164|388:100,2,127.5,0|0|8,0:0|0:0|0:3,0:3:0:0:
324,172,8509,1,0,0:3:0:0:
264,100,8729,1,0,0:3:0:0:
172,96,8950,1,0,0:3:0:0:
104,160,9170,1,0,0:3:0:0:
24,208,9391,6,0,B|64:264|142:247,2,127.5
104,160,10273,1,0,0:3:0:0:
188,200,10494,1,0,0:3:0:0:
272,160,10715,1,8,0:3:0:0:
356,200,10935,1,0,0:3:0:0:
440,160,11156,6,0,B|440:232|420:304|344:328|264:328,1,255
260,236,12038,1,0,0:3:0:0:
256,144,12259,1,0,0:3:0:0:
192,76,12479,1,8,0:3:0:0:
100,72,12700,1,0,0:3:0:0:
72,160,12920,6,0,B|72:232|92:304|168:328|248:328,1,255
252,236,13803,1,0,0:3:0:0:
256,144,14023,1,8,0:3:0:0:
320,76,14244,1,8,0:3:0:0:
412,72,14465,1,0,0:3:0:0:
484,132,14685,6,0,B|512:196|444:260|368:244,1,170
304,224,15347,1,0,0:3:0:0:
256,144,15568,1,0,0:3:0:0:
180,92,15788,1,0,0:3:0:0:
88,72,16009,2,0,B|32:88|28:152,1,85
88,204,16450,5,0,0:3:0:0:
164,256,16670,1,0,0:3:0:0:
256,276,16891,2,0,B|312:260|316:196,1,85
492,264,17553,1,0,0:3:0:0:
480,172,17773,2,0,B|464:115|401:110,1,85
404,204,18215,6,0,B|404:252|348:304|280:300,1,170,8|0,0:3|0:0,0:3:0:0:
304,208,18876,2,0,B|239:204|183:256|183:304,1,170
100,336,19538,1,0,0:3:0:0:
52,256,19759,2,0,B|-16:156|120:156|24:40,1,203.999993774414,8|0,0:3|0:0,0:3:0:0:
132,40,20420,1,0,0:3:0:0:
232,60,20641,2,0,B|167:155|303:155|228:260,1,216.750004134178
152,308,21523,1,0,0:3:0:0:
240,340,21744,5,8,0:3:0:0:
328,308,21965,1,0,0:3:0:0:
344,216,22185,2,0,B|396:220|408:272,1,85
406,265,22847,1,0,0:3:0:0:
408,172,23068,2,0,B|418:126|470:122,1,85
288,100,23729,1,0,0:3:0:0:
200,128,23950,2,0,B|252:132|264:184,1,85
104,160,24612,1,0,0:3:0:0:
76,72,24832,1,0,0:3:0:0:
436,72,25273,6,0,B|432:132|416:184|380:224|284:256,1,255,8|0,0:3|0:0,0:3:0:0:
308,164,26156,1,0,0:3:0:0:
328,72,26376,1,0,0:3:0:0:
256,12,26597,1,0,0:3:0:0:
184,72,26818,1,0,0:3:0:0:
92,72,27038,6,0,B|96:132|112:184|148:224|244:256,1,255,8|0,0:3|0:0,0:3:0:0:
336,252,27920,1,0,0:3:0:0:
264,312,28141,1,8,0:3:0:0:
172,304,28362,1,8,0:3:0:0:
96,252,28582,1,0,0:3:0:0:
8,284,28803,6,2,B|-36:200|44:120,1,170,8|0,0:3|0:0,0:3:0:0:
108,72,29465,1,0,0:3:0:0:
152,156,29685,1,0,0:3:0:0:
140,248,29906,1,0,0:3:0:0:
56,212,30126,2,0,B|80:161|142:164,1,85
216,172,30568,5,0,0:3:0:0:
300,216,30788,1,0,0:3:0:0:
368,280,31009,2,0,B|408:240|380:176,1,85
236,93,31670,2,0,B|196:133|224:197,2,85,8|8|0,0:3|0:3|0:0,0:3:0:0:
308,32,32332,6,0,B|364:68|324:128,2,85
216,32,32994,2,0,B|168:40|144:96|164:156,2,127.5
404,40,34097,1,0,0:3:0:0:
376,128,34318,1,0,0:3:0:0:
308,192,34538,1,0,0:3:0:0:
224,232,34759,1,0,0:3:0:0:
296,60,35200,2,0,B|288:120|216:116,2,85,8|8|0,0:3|0:3|0:0,0:3:0:0:
212,16,35862,5,0,0:3:0:0:
156,88,36082,1,0,0:3:0:0:
160,180,36303,1,0,0:3:0:0:
240,228,36523,1,0,0:3:0:0:
156,88,36965,1,0,0:3:0:0:
84,28,37185,2,0,B|24:48|16:100,1,85
52,168,37626,5,0,0:3:0:0:
132,216,37847,1,0,0:3:0:0:
224,208,38067,2,0,B|284:208|304:152,1,85
224,344,38729,1,0,0:3:0:0:
312,316,38950,1,0,0:3:0:0:
380,252,39170,1,0,0:3:0:0:
416,164,39391,6,0,B|412:120|324:56|256:64,1,170,8|0,0:3|0:0,0:3:0:0:
288,65,40053,1,0,0:3:0:0:
184,220,40494,1,0,0:3:0:0:
160,312,40715,1,0,0:3:0:0:
84,256,40935,1,0,0:3:0:0:
96,164,41156,6,0,B|100:120|188:56|256:64,1,170,8|0,0:3|0:0,0:3:0:0:
223,65,41818,1,0,0:3:0:0:
256,152,42038,2,8,B|256:200,6,42.5,8|8|0|8|0|0|8,0:3|0:3|0:3|0:3|0:3|0:3|0:3,0:3:0:0:
288,64,42920,6,0,B|348:76|392:148|392:216,1,170,2|2,3:3|0:3,0:3:0:0:
204,188,43803,2,0,B|212:248|160:316|112:348,1,170,2|0,0:3|0:0,0:3:0:0:
52,300,44465,2,0,B|128:264|152:136|120:160,1,170,8|0,0:3|0:0,0:3:0:0:
56,108,45126,1,0,0:3:0:0:
144,76,45347,2,0,B|192:32|200:64|200:64|212:100|244:100|276:100|288:64|288:64|300:32|344:76,1,255
476,204,46450,6,0,B|428:308|280:352|152:312,1,340
308,184,47773,1,8,0:3:0:0:
144,96,48215,1,0,0:3:0:0:
88,168,48435,1,0,0:3:0:0:
108,260,48656,1,0,0:3:0:0:
181,319,48876,1,0,0:3:0:0:
220,136,49317,1,8,0:3:0:0:
304,96,49538,1,8,0:3:0:0:
380,152,49759,1,0,0:3:0:0:
352,240,49979,6,0,B|308:268|228:268|184:240,1,170,2|2,0:3|0:3,0:3:0:0:
228,60,50862,2,0,B|184:32|104:32|60:60,1,170,2|0,0:3|0:0,0:3:0:0:
140,108,51523,2,0,B|184:136|264:136|308:108,1,170
376,44,52185,1,0,0:3:0:0:
464,12,52406,2,0,B|472:56|448:152|412:184,1,170
360,244,53067,1,0,0:3:0:0:
276,284,53288,1,0,0:3:0:0:
256,192,53509,12,0,57038,0:3:0:0:
168,196,60567,6,0,B|168:164|132:164|132:164|132:128|168:128|168:128|168:92|132:92|132:92|168:64|160:12,1,255,4|0,0:3|0:0,0:3:0:0:
256,52,61450,1,0,0:3:0:0:
284,148,61670,1,0,0:3:0:0:
376,192,61891,1,0,0:3:0:0:
476,184,62112,6,0,B|494:212|485:245|436:239|436:239|412:236|390:260|403:284|403:284|424:329|396:348|363:339,1,255,4|0,0:3|0:0,0:3:0:0:
260,340,62994,1,0,0:3:0:0:
340,152,63435,1,0,0:3:0:0:
256,212,63656,1,0,0:3:0:0:
156,212,63876,1,0,0:3:0:0:
88,136,64097,6,0,B|146:70|237:41|323:59,2,255,4|4|8,0:3|0:3|0:3,0:3:0:0:
284,188,65862,6,0,B|240:180|200:216,1,85
304,244,66303,2,0,B|256:232|226:265,1,85
428,296,66965,1,8,0:3:0:0:
480,208,67185,1,8,0:3:0:0:
464,108,67406,1,0,0:3:0:0:
400,32,67626,6,0,B|296:32|244:136,1,170,4|0,0:3|0:0,0:3:0:0:
360,128,68288,2,0,B|340:193|297:244|233:262|165:254,1,255
64,248,69170,6,0,B|83:205|150:161|202:161,1,170,4|0,0:3|0:0,0:3:0:0:
168,64,69832,1,0,0:3:0:0:
168,64,70053,1,0,0:3:0:0:
356,144,70494,1,0,0:3:0:0:
300,228,70715,1,0,0:3:0:0:
204,256,70935,1,0,0:3:0:0:
208,152,71156,6,0,B|136:168|132:300,1,170,4|0,0:3|0:0,0:3:0:0:
224,336,71817,2,0,B|308:360|392:336,1,170
456,256,72479,1,0,0:3:0:0:
436,156,72700,6,0,B|360:224|284:156,1,170,4|0,0:3|0:0,0:3:0:0:
360,88,73362,1,0,0:3:0:0:
252,128,73582,2,0,B|176:60|100:128,1,170,0|8,0:0|0:3,0:3:0:0:
172,200,74244,1,8,0:3:0:0:
272,212,74465,1,0,0:3:0:0:
352,148,74685,6,0,B|448:128|472:24,1,170,4|0,0:3|0:0,0:3:0:0:
464,172,75347,2,0,B|432:256|348:304|248:292,1,255
204,380,76229,6,0,B|114:391|32:339|-3:245,1,255,4|0,0:3|0:0,0:3:0:0:
24,156,77112,2,0,B|56:192|100:184|100:184|152:176|200:112|200:60,1,255
256,192,78215,12,8,79538,0:3:0:0:
108,252,79979,5,4,0:3:0:0:
196,204,80200,1,0,0:3:0:0:
224,108,80420,1,0,0:3:0:0:
324,88,80641,2,0,B|265:173|325:205|377:241|325:325,1,255
412,268,81523,6,0,B|368:232|336:232|296:260|296:260|256:232|224:232|180:268,1,255,4|0,0:3|0:0,0:3:0:0:
112,204,82406,2,0,B|72:148|108:76|168:60,1,170,0|8,0:0|0:3,0:3:0:0:
252,176,83067,1,8,0:3:0:0:
180,104,83288,1,0,0:3:0:0:
80,132,83509,5,4,0:3:0:0:
144,52,83729,1,0,0:3:0:0:
244,32,83950,1,0,0:3:0:0:
332,80,84170,2,0,B|384:112|332:144|332:144|280:172|332:208|332:208|384:240|332:272,1,255
248,320,85053,6,0,B|232:300|204:296|204:296|192:300|192:316|180:324|180:324|168:316|168:300|148:296|148:296|132:300|132:316|120:324|120:324|108:316|72:312|64:268,1,255,4|0,0:3|0:0,0:3:0:0:
152,220,85935,2,0,B|140:192|168:192|168:192|168:164|140:164|140:164|140:140|168:140|168:140|168:116|140:116|140:116|140:92|168:92|168:92|152:44,1,255,4|0,0:3|0:0,0:3:0:0:
256,192,86817,12,8,88362,0:3:0:0:
296,316,88803,5,4,0:3:0:0:
216,252,89023,1,0,0:3:0:0:
296,188,89244,1,0,0:3:0:0:
216,124,89465,1,0,0:3:0:0:
40,228,89906,1,0,0:3:0:0:
88,136,90126,1,0,0:3:0:0:
36,48,90347,1,4,0:3:0:0:
472,228,90788,5,0,0:3:0:0:
424,136,91008,1,8,0:3:0:0:
476,48,91229,1,0,0:3:0:0:
256,268,91670,1,0,0:3:0:0:
256,164,91891,1,8,0:3:0:0:
256,60,92112,1,0,0:3:0:0:
344,108,92332,6,0,B|348:192|288:212|256:212|256:212|224:212|188:240|176:292,1,255,12|0,0:3|0:0,0:3:0:0:
92,224,93215,1,0,0:3:0:0:
56,128,93435,1,0,0:3:0:0:
8,216,93656,1,0,0:3:0:0:
96,168,93876,1,0,0:3:0:0:
180,112,94097,6,0,B|176:196|244:216|268:216|268:216|292:216|336:240|348:296,1,255,12|0,0:3|0:0,0:3:0:0:
420,196,94979,1,0,0:3:0:0:
408,84,95200,1,0,0:3:0:0:
336,156,95420,1,0,0:3:0:0:
256,92,95641,1,0,0:3:0:0:
256,92,95862,1,4,0:3:0:0:
256,192,102920,5,0,0:3:0:0:
340,264,103141,1,0,0:3:0:0:
368,164,103362,1,0,0:3:0:0:
444,96,103582,1,0,0:3:0:0:
144,164,104244,1,0,0:3:0:0:
68,96,104464,1,0,0:3:0:0:
256,336,105126,1,0,0:3:0:0:
256,232,105347,1,0,0:3:0:0:
256,24,106009,1,0,0:3:0:0:
172,84,106229,1,0,0:3:0:0:
120,172,106450,6,0,B|176:196|120:240|64:280|120:328,1,170,2|0,0:3|0:0,0:3:0:0:
200,272,107112,1,0,0:3:0:0:
392,32,107773,2,0,B|352:104|456:64,1,85
120,28,108656,2,0,B|152:64|84:64|124:104,1,85
244,264,109317,1,2,0:3:0:0:
320,196,109538,1,2,0:3:0:0:
316,92,109759,1,0,0:3:0:0:
412,56,109979,6,0,B|376:136|472:196|452:304,1,255
248,316,111082,1,0,0:3:0:0:
316,240,111303,2,0,B|276:200|220:220,1,85
84,348,111965,1,0,0:3:0:0:
69,247,112186,2,0,B|12:251|-8:307,1,85
196,232,112847,1,0,0:3:0:0:
200,136,113067,2,0,B|312:160|284:272,1,170,0|2,0:0|0:3,0:3:0:0:
196,304,113729,5,0,0:3:0:0:
292,340,113950,1,0,0:3:0:0:
380,292,114170,1,0,0:3:0:0:
380,92,114612,1,0,0:3:0:0:
292,44,114832,1,0,0:3:0:0:
196,80,115053,1,0,0:3:0:0:
368,192,115494,1,0,0:3:0:0:
264,192,115715,1,0,0:3:0:0:
164,192,115935,1,0,0:3:0:0:
64,80,116376,6,0,B|20:100|36:152,2,85,2|2|8,0:3|0:3|0:3,0:3:0:0:
104,172,117038,2,0,B|102:107|160:126|160:126|215:146|208:84|208:84|198:23|272:32,1,280.500008560181,12|0,0:3|0:0,0:3:0:0:
340,96,117920,1,0,0:3:0:0:
328,196,118141,1,0,0:3:0:0:
228,184,118362,2,0,B|180:216|212:272,1,93.5000028533936
144,336,118803,5,0,0:3:0:0:
60,276,119023,1,0,0:3:0:0:
140,212,119244,2,0,B|88:192|108:128,1,93.5000028533936
180,76,119685,1,0,0:3:0:0:
380,36,120126,2,0,B|376:88|324:124,1,93.5000028533936
232,152,120567,6,0,B|264:196|316:184|316:184|348:224|400:208|400:208|428:248|480:224,1,280.500008560181,2|0,0:3|0:0,0:3:0:0:
468,120,121450,1,0,0:3:0:0:
372,148,121670,1,0,0:3:0:0:
400,48,121891,2,0,B|348:48|304:96,1,93.5000028533936
248,152,122332,1,0,0:3:0:0:
276,252,122553,1,0,0:3:0:0:
176,256,122773,2,0,B|176:332|236:344,1,93.5000028533936
36,216,123435,5,2,0:3:0:0:
108,172,123656,1,2,0:3:0:0:
36,128,123876,1,0,0:3:0:0:
108,84,124097,2,0,B|172:88|196:164|196:164|220:88|284:84,1,255
280,168,124979,1,0,0:3:0:0:
196,224,125200,1,0,0:3:0:0:
284,260,125420,6,0,B|344:260|344:196,1,85
376,116,125862,1,0,0:3:0:0:
376,116,126082,1,0,0:3:0:0:
408,212,126303,2,0,B|406:260|466:260,1,85
404,40,126965,5,0,0:3:0:0:
304,32,127185,2,0,B|244:56|240:128,1,85
164,48,127626,2,0,B|84:116|164:156|244:196|164:264,1,255,4|0,0:3|0:0,0:3:0:0:
88,208,128509,1,0,0:3:0:0:
272,236,128950,6,0,B|268:296|208:324,2,85,0|0|4,0:0|0:0|0:3,0:0:0:0:
252,144,129612,1,0,0:3:0:0:
192,72,129832,2,0,B|196:12|256:-16,2,85
156,160,130494,1,0,0:3:0:0:
216,232,130715,1,0,0:3:0:0:
308,212,130935,1,0,0:3:0:0:
252,144,131156,1,4,0:3:0:0:
344,196,136450,6,0,B|344:164|380:164|380:164|380:128|344:128|344:128|344:92|380:92|380:92|344:64|352:12,1,255,4|0,0:3|0:0,0:3:0:0:
256,52,137333,1,0,0:3:0:0:
228,148,137553,1,0,0:3:0:0:
136,192,137774,1,0,0:3:0:0:
36,184,137995,6,0,B|18:212|27:245|76:239|76:239|100:236|122:260|109:284|109:284|88:329|116:348|149:339,1,255,4|0,0:3|0:0,0:3:0:0:
252,340,138877,1,0,0:3:0:0:
172,152,139318,1,0,0:3:0:0:
256,212,139539,1,0,0:3:0:0:
356,212,139759,1,0,0:3:0:0:
424,136,139980,6,0,B|366:70|275:41|189:59,2,255,4|4|8,0:3|0:3|0:3,0:3:0:0:
228,188,141745,6,0,B|272:180|312:216,1,85
208,244,142186,2,0,B|256:232|286:265,1,85
84,296,142848,1,8,0:3:0:0:
32,208,143068,1,8,0:3:0:0:
48,108,143289,1,0,0:3:0:0:
112,32,143509,6,0,B|216:32|268:136,1,170,4|0,0:3|0:0,0:3:0:0:
152,128,144171,2,0,B|172:193|215:244|279:262|347:254,1,255,0|0,0:0|0:0,0:3:0:0:
448,248,145053,6,0,B|429:205|362:161|310:161,1,170,4|0,0:3|0:0,0:3:0:0:
344,64,145715,1,0,0:3:0:0:
344,64,145936,1,0,0:3:0:0:
156,144,146377,1,0,0:3:0:0:
212,228,146598,1,0,0:3:0:0:
308,256,146818,1,0,0:3:0:0:
304,152,147039,6,0,B|376:168|380:300,1,170,4|0,0:3|0:0,0:3:0:0:
288,336,147700,2,0,B|204:360|120:336,1,170
56,256,148362,1,0,0:3:0:0:
76,156,148583,6,0,B|152:224|228:156,1,170,4|0,0:3|0:0,0:3:0:0:
152,88,149245,1,0,0:3:0:0:
260,128,149465,2,0,B|336:60|412:128,1,170,0|8,0:0|0:3,0:3:0:0:
340,200,150127,1,8,0:3:0:0:
240,212,150348,1,0,0:3:0:0:
160,148,150567,6,0,B|64:128|40:24,1,170,4|0,0:3|0:0,0:3:0:0:
48,172,151230,2,0,B|80:256|164:304|264:292,1,255,0|0,3:0|0:0,0:0:0:0:
308,380,152112,6,0,B|398:391|480:339|515:245,1,255,4|0,0:3|0:0,0:3:0:0:
488,156,152995,2,0,B|456:192|412:184|412:184|360:176|312:112|312:60,1,255,4|0,0:3|0:0,0:0:0:0:
256,192,154098,12,8,155421,0:3:0:0:
404,252,155862,5,4,0:3:0:0:
316,204,156083,1,0,0:3:0:0:
288,108,156303,1,0,0:3:0:0:
188,88,156524,2,0,B|247:173|187:205|135:241|187:325,1,255,4|0,0:3|0:0,0:0:0:0:
100,268,157406,6,0,B|144:232|176:232|216:260|216:260|256:232|288:232|332:268,1,255,4|0,0:3|0:0,0:3:0:0:
408,320,158289,2,0,B|448:264|412:192|352:176,1,170
260,176,158950,1,0,0:3:0:0:
332,104,159171,1,0,0:3:0:0:
432,132,159392,5,4,0:3:0:0:
368,52,159612,1,0,0:3:0:0:
268,32,159833,1,0,0:3:0:0:
180,80,160053,2,0,B|128:112|180:144|180:144|232:172|180:208|180:208|128:240|180:272,1,255
264,320,160935,6,0,B|280:300|308:296|308:296|320:300|320:316|332:324|332:324|344:316|344:300|364:296|364:296|380:300|380:316|392:324|392:324|404:316|440:312|448:268,1,255,4|0,0:3|0:0,0:3:0:0:
360,220,161818,2,0,B|372:192|344:192|344:192|344:164|372:164|372:164|372:140|344:140|344:140|344:116|372:116|372:116|372:92|344:92|344:92|360:44,1,255,4|0,0:3|0:0,0:3:0:0:
256,192,162700,12,8,164245,0:3:0:0:
216,316,164686,5,4,0:3:0:0:
296,252,164906,1,0,0:3:0:0:
216,188,165127,1,0,0:3:0:0:
296,124,165348,1,0,0:3:0:0:
472,228,165789,1,0,0:3:0:0:
424,136,166009,1,0,0:3:0:0:
476,48,166230,1,4,0:3:0:0:
40,228,166671,5,0,0:3:0:0:
88,136,166891,1,8,0:3:0:0:
36,48,167112,1,0,0:3:0:0:
256,268,167553,1,0,0:3:0:0:
256,164,167774,1,8,0:3:0:0:
256,60,167995,1,0,0:3:0:0:
168,108,168215,6,0,B|164:192|224:212|256:212|256:212|288:212|324:240|336:292,1,255,12|0,0:3|0:0,0:3:0:0:
420,224,169098,1,0,0:3:0:0:
456,128,169318,1,0,0:3:0:0:
504,216,169539,1,0,0:3:0:0:
416,168,169759,1,0,0:3:0:0:
332,112,169980,6,0,B|336:196|268:216|244:216|244:216|220:216|176:240|164:296,1,255,12|0,0:3|0:0,0:3:0:0:
92,196,170862,1,0,0:3:0:0:
104,84,171083,1,0,0:3:0:0:
176,144,171303,1,0,0:3:0:0:
256,92,171524,1,0,0:3:0:0:
256,196,171745,1,12,0:3:0:0:
