osu file format v14

[General]
AudioFilename: Uchouten Vivace.mp3
AudioLeadIn: 0
PreviewTime: 65045
Countdown: 0
SampleSet: Soft
StackLeniency: 0.7
Mode: 0
LetterboxInBreaks: 0
WidescreenStoryboard: 0

[Editor]
Bookmarks: 7752
DistanceSpacing: 0.9
BeatDivisor: 2
GridSize: 8
TimelineZoom: 1.4

[Metadata]
Title:Uchouten Vivace
TitleUnicode:Uchouten Vivace
Artist:Yuikonnu
ArtistUnicode:Yuikonnu
Creator:novotrixes
Version:Hard
Source:Mikagura School Suite
Tags:Gumi, Last Note, Yuikonnu, Mikagura School Suite
BeatmapID:811612
BeatmapSetID:370290

[Difficulty]
HPDrainRate:4
CircleSize:3
OverallDifficulty:4
ApproachRate:5
SliderMultiplier:1.1
SliderTickRate:1

[Events]
//Background and Video events
0,0,"Himi.png",0,0
Video,-1100,"[Gumi] Uchouten Vivace_video.avi"
//Break Periods
2,83541,88657
2,130458,136476
2,159330,161288
//Storyboard Layer 0 (Background)
//Storyboard Layer 1 (Fail)
//Storyboard Layer 2 (Pass)
//Storyboard Layer 3 (Foreground)
//Storyboard Sound Samples

[TimingPoints]
534,225.563909774436,4,2,1,70,1,0
23315,-100,4,2,2,70,0,0
23428,-100,4,2,1,70,0,0
25120,-100,4,2,2,70,0,0
25233,-100,4,2,1,70,0,0
30533,-100,4,2,2,70,0,0
30646,-100,4,2,1,70,0,0
36173,-100,4,3,1,70,0,0
36624,-100,4,2,1,70,0,0
42263,-100,4,2,2,70,0,0
42376,-100,4,2,1,70,0,0
50609,-100,4,3,1,70,0,0
51060,-133.333333333333,4,2,1,70,0,0
58278,-100,4,2,1,70,0,0
58378,-100,4,1,1,70,0,0
58503,-100,4,2,2,70,0,0
58616,-100,4,2,1,70,0,0
60759,-100,4,2,2,70,0,0
60872,-100,4,2,1,70,0,0
62112,-100,4,2,2,70,0,0
62225,-100,4,2,1,70,0,0
65496,-100,4,1,1,90,0,1
65721,-100,4,2,3,90,0,1
65834,-100,4,1,1,90,0,1
66624,-100,4,2,3,90,0,1
66737,-100,4,1,1,90,0,1
67526,-100,4,2,3,90,0,1
67639,-100,4,1,1,90,0,1
68428,-100,4,2,3,90,0,1
68541,-100,4,1,1,90,0,1
69330,-100,4,2,3,90,0,1
69443,-100,4,1,1,90,0,1
70233,-100,4,2,3,90,0,1
70346,-100,4,1,1,90,0,1
72037,-100,4,2,3,90,0,1
72150,-100,4,1,1,90,0,1
72263,-100,4,2,3,90,0,1
72376,-100,4,1,1,90,0,1
72714,-100,4,2,1,90,0,1
73391,-100,4,1,1,90,0,1
73729,-100,4,2,3,90,0,1
73842,-100,4,1,1,90,0,1
74518,-100,4,2,1,90,0,1
75195,-100,4,1,1,90,0,1
75533,-100,4,2,3,90,0,1
75646,-100,4,1,1,90,0,1
75872,-100,4,3,1,90,0,1
76323,-100,4,1,1,90,0,1
78353,-100,4,2,3,90,0,1
78466,-100,4,1,1,90,0,1
83541,-100,4,2,1,70,0,0
89857,-100,4,1,1,70,0,0
89970,-100,4,2,3,70,0,0
90082,-100,4,1,1,70,0,0
90533,-100,4,2,3,70,0,0
90759,-100,4,1,1,70,0,0
90985,-100,4,2,1,70,0,0
94368,-100,4,1,1,70,0,0
94594,-100,4,2,1,70,0,0
97526,-100,4,3,1,70,0,0
97977,-133.333333333333,4,2,1,70,0,0
105195,-100,4,2,1,70,0,0
105421,-100,4,2,2,70,0,0
105533,-100,4,2,1,70,0,0
106774,-100,4,2,2,70,0,0
106887,-100,4,2,1,70,0,0
109030,-100,4,2,2,70,0,0
109143,-100,4,2,1,70,0,0
112413,-100,4,1,1,90,0,1
112639,-100,4,2,3,90,0,1
112752,-100,4,1,1,90,0,1
113541,-100,4,2,3,90,0,1
113654,-100,4,1,1,90,0,1
114443,-100,4,2,3,90,0,1
114556,-100,4,1,1,90,0,1
115346,-100,4,2,3,90,0,1
115458,-100,4,1,1,90,0,1
116248,-100,4,2,3,90,0,1
116361,-100,4,1,1,90,0,1
117150,-100,4,2,3,90,0,1
117263,-100,4,1,1,90,0,1
119631,-100,4,2,1,90,0,1
120308,-100,4,1,1,90,0,1
120646,-100,4,2,3,90,0,1
120759,-100,4,1,1,90,0,1
121436,-100,4,2,1,90,0,1
122112,-100,4,1,1,90,0,1
122451,-100,4,2,3,90,0,1
122564,-100,4,1,1,90,0,1
122789,-100,4,3,1,90,0,1
123240,-100,4,1,1,90,0,1
125270,-100,4,2,3,90,0,1
125383,-100,4,1,1,90,0,1
130458,-100,4,2,1,70,0,0
143090,-200,4,2,1,70,0,0
143315,-200,4,2,2,70,0,0
143541,-200,4,2,1,70,0,0
143767,-200,4,2,2,70,0,0
143992,-200,4,2,1,70,0,0
144218,-200,4,2,2,70,0,0
144443,-200,4,2,2,70,0,0
144894,-100,4,2,1,70,0,0
158315,-200,4,2,1,30,0,0
159330,-100,4,2,1,70,0,0
162488,-100,4,3,1,70,0,0
162940,-100,4,1,1,90,0,1
166549,-100,4,2,1,90,0,1
167225,-100,4,1,1,90,0,1
168353,-100,4,2,1,90,0,1
169030,-100,4,1,1,90,0,1
169707,-100,4,3,1,90,0,1
170158,-100,4,1,1,90,0,1
173541,-100,4,2,1,70,0,0
173767,-100,4,1,1,90,0,1
173992,-100,4,2,3,90,0,1
174105,-100,4,1,1,90,0,1
176699,-100,4,2,3,90,0,1
176812,-100,4,1,1,90,0,1
177601,-100,4,2,3,90,0,1
177714,-100,4,1,1,90,0,1
178503,-100,4,2,3,90,0,1
178616,-100,4,1,1,90,0,1
180533,-100,4,2,3,90,0,1
180646,-100,4,1,1,90,0,1
180985,-100,4,2,1,90,0,1
181661,-100,4,1,1,90,0,1
182000,-100,4,2,3,90,0,1
182102,-100,4,1,1,90,0,1
182789,-100,4,2,1,90,0,1
183466,-100,4,1,1,90,0,1
184143,-100,4,3,1,90,0,1
184594,-100,4,1,1,90,0,1
186624,-100,4,2,3,90,0,1
186737,-100,4,1,1,90,0,1
187752,-100,4,2,3,90,0,1
187864,-100,4,1,1,90,0,1
191812,-100,4,2,1,70,0,0
205909,-100,4,2,2,70,0,0
206135,-100,4,2,1,70,0,0

[Colours]
Combo1 : 43,186,193
Combo2 : 255,138,21
Combo3 : 147,80,63
Combo4 : 250,211,92
Combo5 : 189,13,13
Combo6 : 255,85,162

[HitObjects]
464,208,7752,6,0,P|392:232|320:208,1,110,0|8,0:0|0:0,0:0:0:0:
232,176,8203,2,0,P|160:176|112:224,1,110,0|8,0:0|0:0,0:0:0:0:
130,196,8541,2,0,B|176:248|176:248|288:264,1,165,0|8,0:0|0:0,0:0:0:0:
312,144,9105,2,0,P|264:112|296:96,1,110,0|8,0:0|0:0,0:0:0:0:
352,88,9556,6,0,L|462:88,1,110,0|8,0:0|0:0,0:0:0:0:
496,184,10007,2,0,L|496:296,1,110,0|8,0:0|0:0,0:0:0:0:
496,294,10346,2,0,P|392:326|336:304,1,165,0|8,0:0|0:0,0:0:0:0:
240,248,10909,2,0,P|192:240|136:272,1,110,0|8,0:0|0:0,0:0:0:0:
88,272,11361,6,0,P|80:216|104:144,1,110,0|8,0:0|0:0,0:0:0:0:
104,64,11812,2,0,L|216:48,1,110,0|8,0:0|0:0,0:0:0:0:
212,48,12150,2,0,P|344:48|392:80,1,165,0|8,0:0|0:0,0:0:0:0:
448,120,12714,2,0,P|464:192|464:280,1,110,0|8,0:0|0:0,0:0:0:0:
256,192,13165,12,0,14518,0:0:0:0:
256,48,14970,6,0,P|224:128|224:200,1,110,0|8,0:0|0:0,0:0:0:0:
328,152,15421,2,0,P|360:240|360:280,1,110,0|8,0:0|0:0,0:0:0:0:
360,288,15759,2,0,L|184:288,1,165,0|8,0:0|0:0,0:0:0:0:
80,288,16323,2,0,P|72:208|96:144,1,110,0|8,0:0|0:0,0:0:0:0:
200,160,16774,6,0,P|256:152|320:120,1,110,0|8,0:0|0:0,0:0:0:0:
224,72,17225,2,0,P|136:96|104:128,1,110,0|8,0:0|0:0,0:0:0:0:
120,160,17564,2,0,P|160:256|224:272,1,165,0|8,0:0|0:0,0:0:0:0:
328,272,18127,2,0,P|384:224|400:160,1,110,0|8,0:0|0:0,0:0:0:0:
368,96,18579,1,8,0:0:0:0:
280,128,18804,6,0,P|184:160|144:152,1,110,8|0,0:0|0:0,0:0:0:0:
80,120,19255,1,8,0:0:0:0:
80,24,19481,1,0,0:0:0:0:
168,40,19706,2,0,L|280:40,2,110,8|0|8,0:0|0:0|0:0,0:0:0:0:
128,152,20383,6,0,L|128:304,1,110,2|8,0:0|0:0,0:0:0:0:
232,296,20834,1,2,0:0:0:0:
424,192,21285,1,6,0:0:0:0:
304,104,21737,2,0,P|216:56|160:56,1,110,2|0,0:0|0:0,0:0:0:0:
496,280,22413,6,0,P|488:304|384:304,1,110,8|0,0:0|0:0,0:0:0:0:
328,280,22864,1,8,0:0:0:0:
232,280,23090,2,0,P|144:160|192:112,1,220
256,80,23767,1,8,0:0:0:0:
456,80,24218,6,0,P|504:168|504:208,1,110,8|0,0:0|0:0,0:0:0:0:
408,168,24669,1,8,0:0:0:0:
328,112,24894,2,0,P|272:112|200:208,2,165,0|0|8,0:0|0:0|0:0,0:0:0:0:
288,280,26022,6,0,L|416:248,1,110,8|0,0:0|0:0,0:0:0:0:
464,184,26473,1,8,0:0:0:0:
464,88,26699,2,0,L|352:72,1,110,0|8,0:0|0:0,0:0:0:0:
304,64,27037,2,0,P|240:48|176:64,1,110
152,80,27376,2,0,P|144:144|104:168,1,110
208,160,27827,5,8,0:0:0:0:
304,112,28052,2,0,P|360:120|400:152,1,110,0|8,0:0|0:0,0:0:0:0:
440,184,28391,2,0,P|472:272|416:296,1,165,0|8,0:0|0:0,0:0:0:0:
352,304,28955,2,0,P|232:272|136:320,1,220,0|4,0:0|0:0,0:0:0:0:
72,224,29631,6,0,L|72:96,1,110,8|0,0:0|0:0,0:0:0:0:
184,96,30082,1,8,0:0:0:0:
224,200,30308,2,0,P|288:224|408:192,1,165
472,96,30985,1,8,0:0:0:0:
344,80,31436,6,0,P|256:96|216:112,1,110,8|0,0:0|0:0,0:0:0:0:
144,136,31887,2,0,L|144:248,1,110,8|0,0:0|0:0,0:0:0:0:
200,296,32338,1,8,0:0:0:0:
256,296,32451,2,0,L|336:200,1,110
360,176,32789,2,0,P|368:112|424:80,1,110,8|4,0:0|0:0,0:0:0:0:
304,112,33240,6,0,B|232:112|208:72|208:72|176:112|96:96,2,220,8|8|8,0:0|0:0|0:0,0:0:0:0:
504,136,34594,1,8,0:0:0:0:
504,136,34819,6,0,P|512:208|496:248,1,110,0|8,0:0|0:0,0:0:0:0:
424,304,35270,2,0,L|280:320,1,110,0|8,0:0|0:0,0:0:0:0:
216,312,35721,1,0,0:0:0:0:
120,280,35947,1,0,0:0:0:0:
48,208,36173,2,8,L|48:144,3,55,8|8|8|2,0:0|0:0|0:0|0:0,0:0:0:0:
144,104,36849,6,0,P|232:104|264:120,1,110,8|0,0:0|0:0,0:0:0:0:
320,184,37300,2,0,P|408:224|448:200,1,110,8|0,0:0|0:0,0:0:0:0:
456,192,37639,2,0,L|384:56,1,110
264,56,38203,1,8,0:0:0:0:
160,152,38654,6,0,B|224:176|224:176|296:176,1,110,8|0,0:0|0:0,0:0:0:0:
368,184,39105,2,0,P|448:224|480:256,1,110,8|0,0:0|0:0,0:0:0:0:
480,280,39443,2,0,P|376:304|344:288,1,110
272,200,40007,1,8,0:0:0:0:
144,200,40458,6,0,P|136:280|152:352,2,110,8|0|8,0:0|0:0|0:0,0:0:0:0:
176,104,41135,1,0,0:0:0:0:
272,72,41361,2,0,P|352:104|400:144,1,110,8|0,0:0|0:0,0:0:0:0:
448,184,41812,1,8,0:0:0:0:
448,280,42037,2,0,P|368:304|224:288,1,220
136,280,42714,2,0,P|48:184|88:96,1,220,8|8,0:0|0:0,0:0:0:0:
168,88,43391,2,0,B|224:88|272:40|272:144|320:88|416:88,1,220,0|4,0:0|0:0,0:0:0:0:
416,184,44067,6,0,P|368:232|312:248,1,110,8|0,0:0|0:0,0:0:0:0:
232,272,44518,2,0,P|120:288|40:208,1,220,8|8,0:0|0:0,0:0:0:0:
112,152,45195,2,0,P|128:88|104:40,2,110,0|8|0,0:0|0:0|0:0,0:0:0:0:
112,216,45872,6,0,P|208:216|240:208,1,110,8|0,0:0|0:0,0:0:0:0:
320,208,46323,2,0,P|416:208|448:216,1,110,8|0,0:0|0:0,0:0:0:0:
472,304,46774,2,0,B|416:328|384:320|384:320|352:336|352:336|304:352|256:336,1,220,8|8,0:0|0:0,0:0:0:0:
208,328,47338,1,8,0:0:0:0:
184,288,47451,1,4,0:0:0:0:
168,176,47676,6,0,B|216:160|240:120|240:120|264:160|304:160|352:128,2,220,8|8|8,0:0|0:0|0:0,0:0:0:0:
72,136,48804,1,0,0:0:0:0:
112,224,49030,1,8,0:0:0:0:
224,264,49255,6,0,P|304:280|360:264,1,110,0|8,0:0|0:0,0:0:0:0:
432,272,49706,1,0,0:0:0:0:
488,192,49932,1,8,0:0:0:0:
448,96,50158,2,0,P|384:56|320:48,1,110,0|8,0:0|0:0,0:0:0:0:
248,48,50609,2,8,L|192:48,3,55
160,56,51060,6,0,P|112:88|80:216,2,165.000006294251,2|8|2,0:0|0:0|0:0,0:0:0:0:
312,56,52413,1,8,0:0:0:0:
408,168,52864,6,0,L|408:248,2,41.2500015735627,2|0|0,0:0|0:0|0:0,0:0:0:0:
408,96,53315,1,8,0:0:0:0:
336,64,53541,1,0,0:0:0:0:
296,64,53654,2,0,P|232:72|168:112,1,123.750004720688
120,136,54218,1,8,0:0:0:0:
80,224,54443,1,8,0:0:0:0:
144,264,54669,6,0,P|232:280|336:264,2,165.000006294251,2|8|2,0:0|0:0|0:0,0:0:0:0:
144,192,55797,1,0,0:0:0:0:
176,128,56022,2,0,P|224:120|280:136,1,82.5000031471254,8|0,0:0|0:0,0:0:0:0:
328,160,56473,2,0,L|400:96,2,82.5000031471254,2|0|8,0:0|0:0|0:0,0:0:0:0:
256,125,57150,1,0,0:0:0:0:
256,160,57263,2,0,P|296:224|352:224,1,123.750004720688
408,216,57827,1,8,0:0:0:0:
456,160,58052,1,8,0:0:0:0:
392,104,58278,6,0,P|280:56|168:72,1,220,2|2,0:0|0:0,0:0:0:0:
80,88,58955,2,0,P|56:136|64:200,1,110,8|2,0:0|0:0,0:0:0:0:
64,240,59293,2,0,L|64:328,2,55,0|8|0,0:0|0:0|0:0,0:0:0:0:
112,248,59631,6,0,P|184:248|240:240,1,110,2|8,0:0|0:0,0:0:0:0:
320,256,60082,2,0,L|408:272,3,55,2|0|8|0,0:0|0:0|0:0|0:0,0:0:0:0:
424,256,60533,2,0,P|432:168|392:88,1,165,2|0,0:0|0:0,0:0:0:0:
368,64,60985,2,0,P|296:72|232:56,1,110,2|8,0:0|0:0,0:0:0:0:
168,72,61436,1,2,0:0:0:0:
96,136,61661,1,8,0:0:0:0:
104,232,61887,6,0,P|200:256|344:224,1,220,2|2,0:0|0:0,0:0:0:0:
336,136,62564,1,8,0:0:0:0:
416,80,62789,2,0,P|472:120|448:272,1,220,2|8,0:0|0:0,0:0:0:0:
312,304,63691,6,0,L|200:304,1,110,8|8,0:0|0:0,0:0:0:0:
136,232,64143,2,0,L|136:112,1,110,8|8,0:0|0:0,0:0:0:0:
136,80,64481,2,0,B|192:48|248:72|264:96|264:96|288:112|336:136|400:88,1,275,2|8,0:0|0:0,0:0:0:0:
400,296,65496,6,0,P|320:312|224:288,1,165
216,152,66173,1,8,0:0:0:0:
296,216,66398,2,0,P|344:216|464:160,1,165
480,72,67075,1,8,0:0:0:0:
384,56,67300,6,0,P|320:40|216:40,1,165
72,40,67977,1,8,0:0:0:0:
72,136,68203,2,0,P|104:216|200:216,1,165
304,160,68879,1,8,0:0:0:0:
360,240,69105,6,0,P|296:256|232:328,1,165
384,328,69782,1,8,0:0:0:0:
416,232,70007,2,0,P|440:144|352:72,1,165
256,72,70684,1,8,0:0:0:0:
288,168,70909,6,0,P|301:220|278:268,1,110,0|8,0:0|0:0,0:0:0:0:
208,200,71361,2,0,P|172:241|121:259,1,110,0|8,0:0|0:0,0:0:0:0:
120,160,71812,2,0,P|168:96|256:96,2,165
184,240,72714,6,0,P|144:312|160:384,2,110,6|8|2,0:0|0:0|0:0,0:0:0:0:
232,152,73391,6,0,L|280:120,1,55,0|8,0:0|0:0,0:0:0:0:
312,88,73616,2,8,P|400:112|456:208,1,165
480,312,74293,1,8,0:0:0:0:
328,280,74518,6,0,P|216:280|176:256,2,110,6|8|2,0:0|0:0|0:0,0:0:0:0:
336,176,75195,6,0,L|336:120,1,55,0|8,0:0|0:0,0:0:0:0:
328,56,75421,2,0,P|256:40|192:48,1,110
136,112,75872,1,8,0:0:0:0:
88,208,76097,1,8,0:0:0:0:
192,232,76323,6,8,P|264:200|312:144,1,110,4|8,0:0|0:0,0:0:0:0:
344,96,76774,2,0,P|402:53|466:37,1,110,0|8,0:0|0:0,0:0:0:0:
456,136,77225,1,0,0:0:0:0:
456,136,77451,2,0,P|456:192|472:248,1,110,8|0,0:0|0:0,0:0:0:0:
400,288,77902,5,8,0:0:0:0:
304,320,78127,2,0,P|184:320|80:280,1,220
88,184,78804,1,8,0:0:0:0:
168,128,79030,5,0,0:0:0:0:
168,128,79143,1,0,0:0:0:0:
168,128,79255,2,0,P|256:128|304:104,1,110,8|8,0:0|0:0,0:0:0:0:
376,120,79706,1,0,0:0:0:0:
424,208,79932,6,0,P|352:208|256:184,1,165,10|0,0:0|0:0,0:0:0:0:
184,56,80609,1,10,0:0:0:0:
88,112,80834,6,0,P|56:224|64:304,1,165,10|0,0:0|0:0,0:0:0:0:
208,280,81511,1,2,0:0:0:0:
304,280,81737,6,0,P|392:200|400:120,1,165,10|2,0:0|0:0,0:0:0:0:
288,64,82413,1,2,0:0:0:0:
192,64,82639,2,0,P|96:136|72:224,2,165,10|0|4,0:0|0:0|0:0,0:0:0:0:
80,104,89857,6,0,L|80:216,1,110,8|0,0:0|0:0,0:0:0:0:
160,272,90308,2,0,P|224:280|384:240,1,220,8|4,0:0|0:0,0:0:0:0:
400,152,90985,5,0,0:0:0:0:
280,136,91210,2,0,P|216:112|136:136,1,110,0|8,0:0|0:0,0:0:0:0:
88,168,91661,1,0,0:0:0:0:
184,256,92000,2,0,P|280:296|344:280,1,165,0|8,0:0|0:0,0:0:0:0:
400,96,92789,6,0,P|424:160|424:240,2,110,8|0|8,0:0|0:0|0:0,0:0:0:0:
304,120,93466,2,0,P|248:136|184:128,1,110,0|8,0:0|0:0,0:0:0:0:
144,128,93804,2,0,P|104:184|88:272,1,110,0|8,0:0|0:0,0:0:0:0:
112,264,94143,2,0,L|248:320,1,110,0|4,0:0|0:0,0:0:0:0:
256,328,94594,2,0,B|352:328|352:264|352:264|400:232|432:264|432:264|472:264,2,220,8|8|8,0:0|0:0|0:0,0:0:0:0:
224,232,95721,2,0,P|288:200|344:200,1,110,0|8,0:0|0:0,0:0:0:0:
424,168,96173,6,0,P|488:128|496:64,1,110,0|8,0:0|0:0,0:0:0:0:
400,64,96624,1,0,0:0:0:0:
304,80,96849,1,8,0:0:0:0:
200,80,97075,2,0,P|152:128|136:200,1,110,0|8,0:0|0:0,0:0:0:0:
168,264,97526,2,0,B|216:264|216:264|256:272|256:272|280:256,1,110
360,264,97977,2,0,P|400:184|376:80,2,165.000006294251,2|8|2,0:0|0:0|0:0,0:0:0:0:
256,160,99330,5,8,0:0:0:0:
144,256,99782,6,0,P|230:296|238:296,1,82.5000031471254,2|0,0:0|0:0,0:0:0:0:
288,296,100233,2,0,P|304:296|408:312,1,82.5000031471254,8|0,0:0|0:0,0:0:0:0:
432,256,100684,1,2,0:0:0:0:
448,176,100909,1,0,0:0:0:0:
440,104,101135,2,0,P|384:96|320:104,1,82.5000031471254,8|8,0:0|0:0,0:0:0:0:
288,96,101586,6,0,P|208:80|128:96,2,165.000006294251,2|8|2,0:0|0:0|0:0,0:0:0:0:
440,112,102940,1,8,0:0:0:0:
504,248,103391,2,0,P|496:304|480:328,1,82.5000031471254,2|0,0:0|0:0,0:0:0:0:
408,312,103842,2,0,L|304:264,1,82.5000031471254,8|0,0:0|0:0,0:0:0:0:
304,256,104180,2,0,P|312:160|400:96,1,206.250007867813,0|8,0:0|0:0,0:0:0:0:
472,96,104970,1,8,0:0:0:0:
448,192,105195,6,0,P|368:240|256:192,1,220,2|2,0:0|0:0,0:0:0:0:
224,96,105872,2,0,P|144:88|96:104,1,110,8|2,0:0|0:0,0:0:0:0:
80,200,106323,1,8,0:0:0:0:
160,256,106549,6,0,P|280:264|392:248,1,220,2|2,0:0|0:0,0:0:0:0:
408,216,107112,1,0,0:0:0:0:
424,184,107225,1,8,0:0:0:0:
424,144,107338,1,0,0:0:0:0:
424,104,107451,2,0,P|352:96|280:56,1,110,2|8,0:0|0:0,0:0:0:0:
224,48,107902,1,2,0:0:0:0:
136,88,108127,2,0,P|112:168|120:240,1,110,8|2,0:0|0:0,0:0:0:0:
160,280,108579,1,8,0:0:0:0:
208,192,108804,6,0,P|232:128|384:96,1,220,2|2,0:0|0:0,0:0:0:0:
432,152,109481,2,0,L|376:272,1,110,8|2,0:0|0:0,0:0:0:0:
312,320,109932,2,0,P|224:320|176:304,1,110,8|10,0:0|0:0,0:0:0:0:
64,240,110609,6,0,L|64:128,1,110,8|8,0:0|0:0,0:0:0:0:
208,56,111060,1,8,0:0:0:0:
240,56,111173,1,0,0:0:0:0:
272,56,111285,1,0,0:0:0:0:
312,80,111398,2,0,B|384:136|424:168|480:120|480:120|424:64|384:96|304:168,1,385
208,136,112413,6,0,P|136:96|40:112,1,165
152,216,113090,1,8,0:0:0:0:
248,216,113315,2,0,P|320:192|400:120,1,165
272,40,113992,5,8,0:0:0:0:
368,40,114218,2,0,P|440:56|464:144,1,165
456,280,114894,1,8,0:0:0:0:
360,304,115120,2,0,B|336:280|304:280|304:280|240:304|208:224,1,165
360,192,115797,1,8,0:0:0:0:
368,200,115909,1,8,0:0:0:0:
368,200,116022,6,0,B|344:128|304:96|304:96|264:128|264:152,1,165
240,272,116699,1,8,0:0:0:0:
240,352,116924,2,0,P|320:336|384:280,2,165,0|8|8,0:0|0:0|0:0,0:0:0:0:
160,296,117827,6,0,P|88:320|8:296,1,110,0|8,0:0|0:0,0:0:0:0:
96,224,118278,2,0,P|40:208|0:144,1,110,0|8,0:0|0:0,0:0:0:0:
16,72,118729,1,0,0:0:0:0:
112,80,118955,2,8,B|136:104|144:136|144:136|176:120|216:120,1,110
272,88,119631,6,0,L|272:216,2,110,6|8|2,0:0|0:0|0:0,0:0:0:0:
368,104,120308,2,0,L|408:176,1,55,0|8,0:0|0:0,0:0:0:0:
394,152,120533,2,0,P|410:216|352:304,1,165,0|8,0:0|0:0,0:0:0:0:
224,312,121210,1,8,0:0:0:0:
136,304,121436,6,0,L|136:176,2,110,6|8|2,0:0|0:0|0:0,0:0:0:0:
224,264,122112,2,0,L|264:224,1,55,0|8,0:0|0:0,0:0:0:0:
262,225,122338,2,0,P|294:129|286:89,1,110
208,72,122789,1,8,0:0:0:0:
120,120,123015,1,8,0:0:0:0:
136,240,123240,6,0,B|192:280|192:280|248:232,1,110,4|8,0:0|0:0,0:0:0:0:
264,160,123691,2,0,B|321:115|321:115|372:164,1,110,0|8,0:0|0:0,0:0:0:0:
344,240,124143,1,0,0:0:0:0:
408,272,124368,2,0,P|416:200|400:120,1,110,8|0,0:0|0:0,0:0:0:0:
360,80,124819,5,8,0:0:0:0:
264,64,125045,2,0,P|208:64|64:192,1,220
128,256,125947,5,0,0:0:0:0:
216,296,126173,2,0,P|296:312|368:288,1,110,8|8,0:0|0:0,0:0:0:0:
424,256,126624,1,0,0:0:0:0:
408,144,126849,2,0,P|320:80|232:64,1,165,10|0,0:0|0:0,0:0:0:0:
136,128,127526,5,10,0:0:0:0:
96,264,127752,2,0,P|160:296|256:296,1,165,10|0,0:0|0:0,0:0:0:0:
360,192,128428,5,10,0:0:0:0:
424,112,128654,2,0,P|312:80|224:88,1,165,10|2,0:0|0:0,0:0:0:0:
120,104,129330,2,0,P|104:160|96:248,1,110,10|6,0:0|0:0,0:0:0:0:
200,256,129782,1,0,0:0:0:0:
200,256,130007,1,4,0:0:0:0:
384,64,137676,6,0,P|424:128|432:168,1,110,0|8,0:0|0:0,0:0:0:0:
336,160,138127,2,0,P|351:212|383:256,2,110,0|8|0,0:0|0:0|0:0,0:0:0:0:
264,96,138804,1,0,0:0:0:0:
216,72,138917,2,0,P|160:64|48:152,1,165,0|8,0:0|0:0,0:0:0:0:
128,176,139481,5,0,0:0:0:0:
88,264,139706,1,8,0:0:0:0:
176,304,139932,2,0,B|240:304|304:272|304:272,1,110,0|8,0:0|0:0,0:0:0:0:
360,216,140383,2,0,L|400:144,3,55,0|0|8|0,0:0|0:0|0:0|0:0,0:0:0:0:
256,192,141285,12,8,142864,0:0:0:0:
296,120,143090,6,0,P|208:264|208:128,1,440,0|12,0:0|0:0,0:0:0:0:
32,80,145346,5,8,0:0:0:0:
168,24,145684,1,0,0:0:0:0:
456,368,146699,6,0,P|480:288|432:160,2,220,0|8|0,0:0|0:0|0:0,0:0:0:0:
160,160,148503,5,0,0:0:0:0:
296,16,148955,1,8,0:0:0:0:
368,144,149293,1,0,0:0:0:0:
96,312,150308,6,0,P|168:328|312:288,2,220,0|8|0,0:0|0:0|0:0,0:0:0:0:
240,176,151661,1,8,0:0:0:0:
216,136,151774,1,8,0:0:0:0:
176,104,151887,1,8,0:0:0:0:
96,152,152112,5,2,0:0:0:0:
144,240,152338,2,0,P|224:224|264:200,1,110,8|2,0:0|0:0,0:0:0:0:
328,144,152789,2,0,P|384:112|448:96,1,110,8|2,0:0|0:0,0:0:0:0:
456,192,153240,6,0,L|456:320,2,110,8|0|8,0:0|0:0|0:0,0:0:0:0:
368,144,153917,5,2,0:0:0:0:
336,240,154143,2,0,P|256:224|216:200,1,110,8|2,0:0|0:0,0:0:0:0:
163,140,154594,2,0,P|107:108|43:92,1,110,8|2,0:0|0:0,0:0:0:0:
64,192,155045,6,0,L|64:320,2,110,8|0|8,0:0|0:0|0:0,0:0:0:0:
64,144,155609,1,0,0:0:0:0:
64,144,155721,5,2,0:0:0:0:
168,104,155947,2,0,P|208:152|224:216,1,110,8|2,0:0|0:0,0:0:0:0:
320,200,156398,2,0,P|338:251|374:292,1,110,8|2,0:0|0:0,0:0:0:0:
424,208,156849,6,0,L|424:80,2,110,8|0|8,0:0|0:0|0:0,0:0:0:0:
328,208,157526,6,0,P|280:144|224:112,1,110,2|8,0:0|0:0,0:0:0:0:
168,88,157977,1,2,0:0:0:0:
168,120,158090,1,0,0:0:0:0:
168,152,158203,1,0,0:0:0:0:
168,176,158315,2,0,L|168:328,1,137.5
208,80,162488,38,8,L|208:160,2,55
304,104,162940,54,0,P|376:88|432:104,1,110,0|8,0:0|0:0,0:0:0:0:
400,144,163278,2,0,P|336:184|224:176,1,165,0|8,0:0|0:0,0:0:0:0:
168,208,163842,2,0,L|78:271,1,110,0|8,0:0|0:0,0:0:0:0:
72,224,164180,1,0,0:0:0:0:
64,128,164406,6,0,P|104:96|192:96,1,110
208,88,164744,2,0,P|280:80|320:56,1,110,0|8,0:0|0:0,0:0:0:0:
408,80,165195,2,0,P|368:136|288:144,1,110,0|8,0:0|0:0,0:0:0:0:
232,152,165646,2,0,P|272:216|344:216,2,110,0|8|0,0:0|0:0|0:0,0:0:0:0:
144,192,166323,1,8,0:0:0:0:
64,256,166549,6,0,B|118:277|118:277|204:278,2,110,6|8|2,0:0|0:0|0:0,0:0:0:0:
96,152,167225,6,0,L|176:128,1,55,0|8,0:0|0:0,0:0:0:0:
192,120,167451,2,0,P|256:104|368:128,1,165,0|8,0:0|0:0,0:0:0:0:
488,168,168127,1,8,0:0:0:0:
440,256,168353,6,0,B|386:277|386:277|300:278,2,110,6|8|2,0:0|0:0|0:0,0:0:0:0:
368,184,169030,6,0,L|288:160,1,55,0|8,0:0|0:0,0:0:0:0:
264,160,169256,2,0,P|200:144|152:160,1,110
112,72,169707,1,8,0:0:0:0:
48,144,169932,1,8,0:0:0:0:
56,240,170158,6,0,P|120:280|160:224,1,110,4|8,0:0|0:0,0:0:0:0:
216,200,170609,2,0,P|274:173|322:213,1,110,0|8,0:0|0:0,0:0:0:0:
336,272,171060,1,0,0:0:0:0:
336,272,171285,2,0,L|336:152,1,110,8|0,0:0|0:0,0:0:0:0:
304,64,171737,5,8,0:0:0:0:
208,56,171962,2,0,P|136:56|96:80,2,110,0|8|0,0:0|0:0|0:0,0:0:0:0:
304,64,172639,1,8,0:0:0:0:
440,96,172864,6,0,P|448:176|440:224,1,110,0|8,0:0|0:0,0:0:0:0:
400,232,173203,2,0,L|232:272,1,165,0|2,0:0|0:0,0:0:0:0:
144,280,173767,2,0,P|104:192|112:120,2,165,4|0|8,0:0|0:0|0:0,0:0:0:0:
200,200,174669,5,0,0:0:0:0:
280,144,174894,2,0,P|336:192|408:200,1,110,8|0,0:0|0:0,0:0:0:0:
464,240,175346,6,0,L|464:320,2,55,8|0|0,0:0|0:0|0:0,0:0:0:0:
464,144,175797,2,0,P|384:128|328:144,1,110,8|0,0:0|0:0,0:0:0:0:
264,96,176248,1,8,0:0:0:0:
168,88,176473,2,0,P|192:152|184:256,1,165
328,288,177150,5,8,0:0:0:0:
424,288,177376,2,0,P|448:192|424:112,2,165,0|0|8,0:0|0:0|0:0,0:0:0:0:
352,216,178278,2,0,B|328:184|328:112|328:112|280:136|248:128,1,165
128,128,178955,1,8,0:0:0:0:
160,32,179180,2,0,L|296:16,1,110,0|8,0:0|0:0,0:0:0:0:
368,40,179631,2,0,P|376:104|440:160,1,110,0|8,0:0|0:0,0:0:0:0:
432,208,180082,1,0,0:0:0:0:
368,288,180308,2,0,B|344:248|328:240|320:192|320:192|272:136|216:160,1,220,8|0,0:0|0:0,0:0:0:0:
144,112,180985,70,0,P|104:184|112:248,2,110,6|8|2,0:0|0:0|0:0,0:0:0:0:
240,80,181661,2,0,L|296:80,1,55,0|8,0:0|0:0,0:0:0:0:
344,88,181887,2,0,P|400:136|416:184,1,110
424,264,182338,1,8,0:0:0:0:
424,264,182564,1,8,0:0:0:0:
328,256,182789,22,0,P|264:224|240:168,2,110,6|8|2,0:0|0:0|0:0,0:0:0:0:
344,144,183466,2,0,L|344:72|344:56,1,55,0|8,0:0|0:0,0:0:0:0:
296,72,183691,2,0,P|208:47|168:55,1,110
96,88,184143,2,0,P|96:144|160:144,1,110,8|8,0:0|0:0,0:0:0:0:
248,160,184594,6,0,P|336:192|368:240,1,110,4|8,0:0|0:0,0:0:0:0:
392,288,185045,1,0,0:0:0:0:
488,296,185270,2,0,L|488:152,2,110,8|0|8,0:0|0:0|0:0,0:0:0:0:
392,288,185947,1,0,0:0:0:0:
296,288,186173,5,8,0:0:0:0:
174,287,186398,2,0,P|120:224|184:104,1,220
248,176,187075,1,8,0:0:0:0:
264,80,187300,6,0,P|336:72|376:80,1,110,0|8,0:0|0:0,0:0:0:0:
392,80,187639,2,0,P|436:146|452:194,1,110
448,192,187977,1,8,0:0:0:0:
454,317,188203,6,0,P|374:317|278:277,1,165,6|0,0:0|0:0,0:0:0:0:
304,160,188879,1,0,0:0:0:0:
224,96,189105,6,0,P|144:96|48:136,1,165,6|0,0:0|0:0,0:0:0:0:
48,280,189782,2,0,L|112:280,1,55
152,280,190007,2,0,P|256:280|360:240,2,165,2|0|2,0:0|0:0|0:0,0:0:0:0:
48,280,190909,1,6,0:0:0:0:
96,120,191812,6,0,P|168:160|208:160,1,110,0|8,0:0|0:0,0:0:0:0:
264,112,192263,2,0,P|360:96|408:120,1,110,0|8,0:0|0:0,0:0:0:0:
408,128,192601,2,0,P|360:192|272:192,1,165,0|8,0:0|0:0,0:0:0:0:
184,224,193165,1,0,0:0:0:0:
184,224,193391,1,8,0:0:0:0:
256,288,193616,5,0,0:0:0:0:
344,288,193842,2,0,P|376:200|360:144,1,110,8|0,0:0|0:0,0:0:0:0:
344,88,194293,1,8,0:0:0:0:
296,80,194406,2,0,P|216:80|128:104,1,165,0|8,0:0|0:0,0:0:0:0:
136,200,194970,1,0,0:0:0:0:
232,200,195195,2,0,L|232:256,2,55,8|8|0,0:0|0:0|0:0,0:0:0:0:
248,80,195646,6,0,P|176:56|128:56,1,110,8|0,0:0|0:0,0:0:0:0:
120,152,196097,2,0,P|192:176|240:176,1,110,8|0,0:0|0:0,0:0:0:0:
328,176,196549,1,0,0:0:0:0:
328,272,196774,1,0,0:0:0:0:
232,304,197000,1,8,0:0:0:0:
256,192,197225,12,0,198579,0:0:0:0:
176,112,199030,6,0,P|160:184|184:216,1,110,0|8,0:0|0:0,0:0:0:0:
280,208,199481,2,0,P|301:256|281:306,2,110,0|8|0,0:0|0:0|0:0,0:0:0:0:
296,96,200158,1,8,0:0:0:0:
408,104,200383,2,0,L|504:168,1,110,0|8,0:0|0:0,0:0:0:0:
440,240,200834,5,0,0:0:0:0:
344,264,201060,2,0,P|344:208|416:184,1,110,8|0,0:0|0:0,0:0:0:0:
344,272,201511,2,0,B|304:288|256:264|256:264|232:296|200:320|200:320|160:288|120:296,1,220,8|8,0:0|0:0,0:0:0:0:
72,240,202188,2,0,P|24:184|8:112,1,110,0|8,0:0|0:0,0:0:0:0:
48,120,202526,6,0,L|120:120,1,55,8|0,0:0|0:0,0:0:0:0:
200,104,202864,2,0,P|272:128|352:128,1,110,8|0,0:0|0:0,0:0:0:0:
392,224,203315,1,8,0:0:0:0:
344,224,203428,2,0,L|176:224,1,165,0|8,0:0|0:0,0:0:0:0:
88,224,203992,2,0,P|56:256|56:320,1,110,0|8,0:0|0:0,0:0:0:0:
152,320,204443,6,0,L|208:280,3,55,0|0|8|0,0:0|0:0|0:0|0:0,0:0:0:0:
232,256,204894,2,0,L|264:200,3,55,0|0|8|0,0:0|0:0|0:0|0:0,0:0:0:0:
296,176,205346,2,0,L|392:160,2,55,8|0|8,0:0|0:0|0:0,0:0:0:0:
200,184,205797,2,0,P|144:144|192:64,1,165,8|8,0:0|0:0,0:0:0:0:
224,56,206248,6,0,L|344:56,1,110,2|0,0:0|0:0,0:0:0:0:
334,56,206586,2,0,P|384:88|416:136,1,110,10|0,0:0|0:0,0:0:0:0:
416,176,206924,1,8,0:0:0:0:
400,272,207150,6,0,P|352:240|336:168,1,110,2|0,0:0|0:0,0:0:0:0:
334,192,207488,2,0,P|280:152|232:168,1,110,2|0,0:0|0:0,0:0:0:0:
208,192,207827,1,8,0:0:0:0:
136,264,208052,6,0,B|144:304|184:320|184:320|232:288,1,110,2|0,0:0|0:0,0:0:0:0:
211,301,208391,2,0,B|272:288|304:256|304:256|368:288,1,165,2|2,0:0|0:0,0:0:0:0:
448,328,208955,1,6,0:0:0:0:
