osu file format v14

[General]
AudioFilename: Uchouten Vivace.mp3
AudioLeadIn: 0
PreviewTime: 65045
Countdown: 0
SampleSet: Soft
StackLeniency: 0.7
Mode: 0
LetterboxInBreaks: 0
WidescreenStoryboard: 1

[Editor]
Bookmarks: 7752
DistanceSpacing: 0.9
BeatDivisor: 2
GridSize: 8
TimelineZoom: 1.8

[Metadata]
Title:Uchouten Vivace
TitleUnicode:Uchouten Vivace
Artist:Yuikonnu
ArtistUnicode:Yuikonnu
Creator:novotrixes
Version:Easy
Source:Mikagura School Suite
Tags:Gumi, Last Note, Yuikonnu, Mikagura School Suite
BeatmapID:813643
BeatmapSetID:370290

[Difficulty]
HPDrainRate:2
CircleSize:2.3
OverallDifficulty:2
ApproachRate:3
SliderMultiplier:0.500000005960464
SliderTickRate:1

[Events]
//Background and Video events
0,0,"Himi.png",0,0
Video,-1100,"[Gumi] Uchouten Vivace_video.avi"
//Break Periods
2,83541,88304
2,130458,143454
2,159330,161048
//Storyboard Layer 0 (Background)
//Storyboard Layer 1 (Fail)
//Storyboard Layer 2 (Pass)
//Storyboard Layer 3 (Foreground)
//Storyboard Sound Samples

[TimingPoints]
534,225.563909774436,4,2,1,70,1,0
20834,-100,4,2,4,70,0,0
21060,-100,4,2,1,70,0,0
21285,-100,4,2,4,70,0,0
21511,-100,4,2,1,70,0,0
27827,-100,4,2,2,70,0,0
28052,-100,4,2,1,70,0,0
28278,-100,4,2,2,70,0,0
28503,-100,4,2,1,70,0,0
28729,-100,4,2,2,70,0,0
28955,-100,4,2,1,70,0,0
29180,-100,4,2,2,70,0,0
29406,-100,4,2,1,70,0,0
30533,-100,4,2,2,70,0,0
30646,-100,4,2,1,70,0,0
32338,-100,4,2,2,70,0,0
32564,-100,4,2,1,70,0,0
33240,-100,4,2,2,70,0,0
33466,-100,4,2,1,70,0,0
33691,-100,4,2,2,70,0,0
33917,-100,4,2,1,70,0,0
35045,-100,4,2,2,70,0,0
35270,-100,4,2,1,70,0,0
35496,-100,4,2,2,70,0,0
35721,-100,4,2,1,70,0,0
35947,-100,4,2,2,70,0,0
36173,-100,4,2,3,70,0,0
36624,-100,4,2,1,70,0,0
37752,-100,4,2,2,70,0,0
37864,-100,4,2,1,70,0,0
39556,-100,4,2,2,70,0,0
39669,-100,4,2,1,70,0,0
44970,-100,4,2,2,70,0,0
45195,-100,4,2,1,70,0,0
46774,-100,4,2,2,70,0,0
46887,-100,4,2,1,70,0,0
47112,-100,4,2,2,70,0,0
47338,-100,4,2,1,70,0,0
47676,-100,4,2,2,70,0,0
47789,-100,4,2,1,70,0,0
48127,-100,4,2,2,70,0,0
48353,-100,4,2,1,70,0,0
48579,-100,4,2,2,70,0,0
48804,-100,4,2,1,70,0,0
49030,-100,4,2,2,70,0,0
49255,-100,4,2,1,70,0,0
50609,-100,4,3,1,70,0,0
51060,-133.333333333333,4,2,1,70,0,0
51511,-133.333333333333,4,2,2,70,0,0
51624,-133.333333333333,4,2,1,70,0,0
51962,-133.333333333333,4,2,4,70,0,0
52075,-133.333333333333,4,2,1,70,0,0
53767,-133.333333333333,4,2,4,70,0,0
53879,-133.333333333333,4,2,1,70,0,0
54443,-133.333333333333,4,2,2,70,0,0
54556,-133.333333333333,4,2,1,70,0,0
54669,-133.333333333333,4,2,4,70,0,0
54782,-133.333333333333,4,2,1,70,0,0
56924,-133.333333333333,4,2,2,70,0,0
57037,-133.333333333333,4,2,1,70,0,0
58278,-100,4,2,1,70,0,0
58378,-100,4,1,1,70,0,0
58503,-100,4,2,2,70,0,0
58616,-100,4,2,1,70,0,0
58729,-100,4,2,4,70,0,0
58859,-100,4,2,2,70,0,0
59067,-100,4,2,1,70,0,0
60308,-100,4,2,2,70,0,0
60421,-100,4,2,1,70,0,0
60533,-100,4,2,4,70,0,0
60646,-100,4,2,1,70,0,0
60759,-100,4,2,2,70,0,0
60872,-100,4,2,1,70,0,0
60985,-100,4,2,4,70,0,0
61097,-100,4,2,1,70,0,0
61210,-100,4,2,2,70,0,0
61323,-100,4,2,1,70,0,0
61436,-100,4,2,4,70,0,0
61549,-100,4,2,1,70,0,0
62112,-100,4,2,2,70,0,0
62225,-100,4,2,1,70,0,0
62338,-100,4,2,4,70,0,0
62451,-100,4,2,1,70,0,0
63015,-100,4,2,2,70,0,0
63127,-100,4,2,1,70,0,0
65496,-100,4,1,1,90,0,1
65721,-100,4,2,3,90,0,1
65834,-100,4,1,1,90,0,1
66624,-100,4,2,3,90,0,1
66737,-100,4,1,1,90,0,1
67526,-100,4,2,3,90,0,1
67639,-100,4,1,1,90,0,1
68428,-100,4,2,3,90,0,1
68541,-100,4,1,1,90,0,1
69330,-100,4,2,3,90,0,1
69443,-100,4,1,1,90,0,1
70233,-100,4,2,3,90,0,1
70346,-100,4,1,1,90,0,1
71135,-100,4,2,3,90,0,1
71248,-100,4,1,1,90,0,1
72037,-100,4,2,3,90,0,1
72488,-100,4,1,1,90,0,1
72714,-100,4,2,1,90,0,1
72940,-100,4,2,2,90,0,1
73052,-100,4,2,1,90,0,1
73165,-100,4,2,4,90,0,1
73391,-100,4,1,1,90,0,1
74518,-100,4,2,1,90,0,1
74744,-100,4,2,2,90,0,1
74970,-100,4,2,4,90,0,1
75195,-100,4,1,1,90,0,1
75872,-100,4,2,3,90,0,1
76097,-100,4,1,1,90,0,1
76323,-100,4,1,1,90,0,1
76549,-100,4,2,3,90,0,1
76774,-100,4,1,1,90,0,1
77451,-100,4,2,3,90,0,1
77676,-100,4,1,1,90,0,1
78353,-100,4,2,3,90,0,1
78466,-100,4,1,1,90,0,1
78804,-100,4,2,3,90,0,1
79030,-100,4,1,1,90,0,1
79255,-100,4,2,3,90,0,1
79706,-100,4,2,3,90,0,1
79932,-100,4,1,1,90,0,1
83541,-100,4,2,1,70,0,0
89857,-100,4,1,1,70,0,0
89970,-100,4,2,3,70,0,0
90082,-100,4,1,1,70,0,0
90759,-100,4,1,1,70,0,0
90985,-100,4,2,1,70,0,0
94368,-100,4,1,1,70,0,0
94594,-100,4,2,2,70,0,0
94819,-100,4,2,1,70,0,0
95045,-100,4,2,2,70,0,0
95270,-100,4,2,1,70,0,0
95496,-100,4,2,2,70,0,0
95721,-100,4,2,1,70,0,0
95947,-100,4,2,2,70,0,0
96173,-100,4,2,1,70,0,0
97526,-100,4,3,1,70,0,0
97977,-133.333333333333,4,2,1,70,0,0
98428,-133.333333333333,4,2,2,70,0,0
98541,-133.333333333333,4,2,1,70,0,0
101135,-133.333333333333,4,2,2,70,0,0
101248,-133.333333333333,4,2,1,70,0,0
102037,-133.333333333333,4,2,2,70,0,0
102150,-133.333333333333,4,2,1,70,0,0
105195,-100,4,2,1,70,0,0
105421,-100,4,2,2,70,0,0
105533,-100,4,2,1,70,0,0
105646,-100,4,2,4,70,0,0
105759,-100,4,2,1,70,0,0
106774,-100,4,2,2,70,0,0
106887,-100,4,2,1,70,0,0
107676,-100,4,2,2,70,0,0
107789,-100,4,2,1,70,0,0
108353,-100,4,2,4,70,0,0
108466,-100,4,2,1,70,0,0
109030,-100,4,2,2,70,0,0
109143,-100,4,2,1,70,0,0
109255,-100,4,2,4,70,0,0
109368,-100,4,2,1,70,0,0
109932,-100,4,2,2,70,0,0
110158,-100,4,2,1,70,0,0
112413,-100,4,1,1,90,0,1
112639,-100,4,2,3,90,0,1
112752,-100,4,1,1,90,0,1
113541,-100,4,2,3,90,0,1
113654,-100,4,1,1,90,0,1
114443,-100,4,2,3,90,0,1
114556,-100,4,1,1,90,0,1
115346,-100,4,2,3,90,0,1
115458,-100,4,1,1,90,0,1
116248,-100,4,2,3,90,0,1
116361,-100,4,1,1,90,0,1
117150,-100,4,2,3,90,0,1
117263,-100,4,1,1,90,0,1
117940,-100,4,2,3,90,0,1
118165,-100,4,1,1,90,0,1
118955,-100,4,2,3,90,0,1
119293,-100,4,1,1,90,0,1
119631,-100,4,2,1,90,0,1
120308,-100,4,1,1,90,0,1
121436,-100,4,2,1,90,0,1
122112,-100,4,1,1,90,0,1
123240,-100,4,1,1,90,0,1
123466,-100,4,2,3,90,0,1
123579,-100,4,1,1,90,0,1
124368,-100,4,2,3,90,0,1
124481,-100,4,1,1,90,0,1
125270,-100,4,2,3,90,0,1
125383,-100,4,1,1,90,0,1
130458,-100,4,2,1,70,0,0
158315,-200,4,2,1,30,0,0
159330,-100,4,2,1,70,0,0
162488,-100,4,3,1,70,0,0
162940,-100,4,1,1,90,0,1
163165,-100,4,2,3,90,0,1
163278,-100,4,1,1,90,0,1
164067,-100,4,2,3,90,0,1
164180,-100,4,1,1,90,0,1
164970,-100,4,2,3,90,0,1
165082,-100,4,1,1,90,0,1
165872,-100,4,2,3,90,0,1
165985,-100,4,1,1,90,0,1
166549,-100,4,2,1,90,0,1
166774,-100,4,2,2,90,0,1
167000,-100,4,2,4,90,0,1
167225,-100,4,1,1,90,0,1
168353,-100,4,2,1,90,0,1
168579,-100,4,2,2,90,0,1
168804,-100,4,2,4,90,0,1
169030,-100,4,1,1,90,0,1
169707,-100,4,3,1,90,0,1
170158,-100,4,1,1,90,0,1
171285,-100,4,2,3,90,0,1
171398,-100,4,1,1,90,0,1
171737,-100,4,2,3,90,0,1
171849,-100,4,1,1,90,0,1
173541,-100,4,2,1,70,0,0
173767,-100,4,1,1,90,0,1
173992,-100,4,2,3,90,0,1
174105,-100,4,1,1,90,0,1
174894,-100,4,2,3,90,0,1
175007,-100,4,1,1,90,0,1
175797,-100,4,2,3,90,0,1
175909,-100,4,1,1,90,0,1
176699,-100,4,2,3,90,0,1
176812,-100,4,1,1,90,0,1
177601,-100,4,2,3,90,0,1
177714,-100,4,1,1,90,0,1
178503,-100,4,2,3,90,0,1
178616,-100,4,1,1,90,0,1
179406,-100,4,2,3,90,0,1
179631,-100,4,1,1,90,0,1
179857,-100,4,2,3,90,0,1
180082,-100,4,1,1,90,0,1
180985,-100,4,2,1,90,0,1
181210,-100,4,2,2,90,0,1
181436,-100,4,2,4,90,0,1
181661,-100,4,1,1,90,0,1
182789,-100,4,2,1,90,0,1
183015,-100,4,2,2,90,0,1
183240,-100,4,2,4,90,0,1
183466,-100,4,1,1,90,0,1
184368,-100,4,3,1,90,0,1
184594,-100,4,1,1,90,0,1
184819,-100,4,2,3,90,0,1
184932,-100,4,1,1,90,0,1
185270,-100,4,2,3,90,0,1
185383,-100,4,1,1,90,0,1
187526,-100,4,2,3,90,0,1
187639,-100,4,1,1,90,0,1
187752,-100,4,2,3,90,0,1
187864,-100,4,1,1,90,0,1
191812,-100,4,2,1,70,0,0
192037,-100,4,2,2,70,0,0
192150,-100,4,2,1,70,0,0
193842,-100,4,2,2,70,0,0
193955,-100,4,2,1,70,0,0
195646,-100,4,2,2,70,0,0
195759,-100,4,2,1,70,0,0
201060,-100,4,2,2,70,0,0
201173,-100,4,2,1,70,0,0
202864,-100,4,2,2,70,0,0
202977,-100,4,2,1,70,0,0
203767,-100,4,2,2,70,0,0
203879,-100,4,2,1,70,0,0
204669,-100,4,2,2,70,0,0
204894,-100,4,2,1,70,0,0
205120,-100,4,2,2,70,0,0
205346,-100,4,2,1,70,0,0
205571,-100,4,2,2,70,0,0
205797,-100,4,2,1,70,0,0
205909,-100,4,2,1,70,0,0
206135,-100,4,2,1,70,0,0

[Colours]
Combo1 : 43,186,193
Combo2 : 255,138,21
Combo3 : 147,80,63
Combo4 : 250,211,92
Combo5 : 189,13,13
Combo6 : 255,85,162

[HitObjects]
72,168,7752,5,0,0:0:0:0:
112,160,7977,2,0,P|168:144|208:112,1,100.000001192093,8|8,0:0|0:0,0:0:0:0:
280,72,8879,2,0,P|336:72|376:120,1,100.000001192093,8|8,0:0|0:0,0:0:0:0:
328,176,9782,6,0,P|328:216|344:280,1,100.000001192093,8|8,0:0|0:0,0:0:0:0:
424,312,10684,2,0,P|360:352|320:344,1,100.000001192093,8|8,0:0|0:0,0:0:0:0:
272,296,11586,6,0,P|232:232|200:216,1,100.000001192093,8|8,0:0|0:0,0:0:0:0:
120,216,12488,2,0,P|88:168|96:120,1,100.000001192093,8|8,0:0|0:0,0:0:0:0:
256,192,13165,12,0,14518,0:0:0:0:
352,56,14970,5,0,0:0:0:0:
352,56,15195,2,0,P|272:56|248:72,1,100.000001192093,8|8,0:0|0:0,0:0:0:0:
280,152,16097,2,0,P|296:168|376:168,1,100.000001192093,8|8,0:0|0:0,0:0:0:0:
448,216,17000,6,0,P|432:272|392:304,1,100.000001192093,8|8,0:0|0:0,0:0:0:0:
312,272,17902,2,0,P|272:248|208:256,1,100.000001192093,8|8,0:0|0:0,0:0:0:0:
144,296,18804,6,0,L|88:192,1,100.000001192093,8|8,0:0|0:0,0:0:0:0:
96,120,19706,2,0,P|136:72|136:24,1,100.000001192093,8|8,0:0|0:0,0:0:0:0:
184,40,20383,6,0,P|296:72|248:232,1,300.000003576279,2|2,0:0|0:0,0:0:0:0:
128,280,22413,5,8,0:0:0:0:
200,328,22864,1,8,0:0:0:0:
288,328,23315,2,0,P|328:304|368:248,1,100.000001192093,8|8,0:0|0:0,0:0:0:0:
240,232,24218,6,0,L|192:136,1,100.000001192093,8|8,0:0|0:0,0:0:0:0:
176,56,25120,2,0,P|240:64|272:104,1,100.000001192093,8|8,0:0|0:0,0:0:0:0:
304,184,26022,5,8,0:0:0:0:
336,264,26473,1,8,0:0:0:0:
392,336,26924,2,0,P|440:288|448:240,1,100.000001192093,8|8,0:0|0:0,0:0:0:0:
448,216,27601,6,0,B|432:176|416:160|416:160|432:136|456:112|456:112|440:80|440:40,2,200.000002384186
400,224,29631,6,0,P|344:224|304:200,1,100.000001192093,8|8,0:0|0:0,0:0:0:0:
264,200,30308,2,0,P|216:216|192:216,2,75.0000008940697,0|0|8,0:0|0:0|0:0,0:0:0:0:
296,112,31436,5,8,0:0:0:0:
216,64,31887,1,8,0:0:0:0:
168,64,32112,2,0,P|112:112|88:192,1,150.000001788139,0|8,0:0|0:0,0:0:0:0:
120,216,33015,6,0,P|136:248|136:312,2,100.000001192093
144,176,34143,2,0,P|192:152|256:152,1,100.000001192093,8|8,0:0|0:0,0:0:0:0:
280,144,34819,6,0,P|328:144|400:264,2,200.000002384186,0|8|2,0:0|0:0|0:0,0:0:0:0:
248,184,36849,5,8,0:0:0:0:
184,248,37300,1,0,0:0:0:0:
216,280,37526,2,0,P|280:304|304:304,2,75.0000008940696,0|0|8,0:0|0:0|0:0,0:0:0:0:
104,240,38654,5,8,0:0:0:0:
56,160,39105,1,0,0:0:0:0:
72,120,39330,2,0,P|128:64|144:56,2,75.0000008940696,0|0|8,0:0|0:0|0:0,0:0:0:0:
144,160,40458,5,8,0:0:0:0:
232,160,40909,2,0,L|328:96,1,100.000001192093,8|8,0:0|0:0,0:0:0:0:
368,176,41812,2,0,L|272:240,2,100.000001192093,8|8|8,0:0|0:0|0:0,0:0:0:0:
440,232,43165,1,8,0:0:0:0:
464,272,43391,2,0,P|432:312|376:328,1,100.000001192093,0|4,0:0|0:0,0:0:0:0:
344,320,44067,6,0,P|304:304|248:320,1,100.000001192093,8|8,0:0|0:0,0:0:0:0:
192,328,44744,2,0,P|152:272|168:192,1,150.000001788139,0|8,0:0|0:0,0:0:0:0:
232,136,45872,6,0,P|272:136|336:104,1,100.000001192093,8|8,0:0|0:0,0:0:0:0:
336,152,46549,2,0,P|352:240|440:240,1,175.000002086162
440,240,47451,6,0,P|440:136|352:136,2,200.000002384186,0|0|4,0:0|0:0|0:0,0:0:0:0:
384,312,49706,1,4,0:0:0:0:
296,312,50158,1,4,0:0:0:0:
208,320,50609,2,0,L|168:296,3,25.0000002980232
168,304,51060,6,0,B|168:200|168:200|184:144|184:144|184:80,1,225.000011265278,2|8,0:0|0:0,0:0:0:0:
80,96,52864,5,2,0:0:0:0:
48,152,53315,2,0,P|56:200|-8:288,2,150.000007510185,8|8|8,0:0|0:0|0:0,0:0:0:0:
72,88,55571,5,2,0:0:0:0:
128,56,56022,1,8,0:0:0:0:
192,56,56473,2,0,P|256:48|336:88,1,150.000007510185,2|2,0:0|0:0,0:0:0:0:
320,152,57827,1,8,0:0:0:0:
296,208,58278,6,0,P|224:232|96:200,1,200.000002384186,2|2,0:0|0:0,0:0:0:0:
136,120,59631,1,2,0:0:0:0:
80,40,60082,2,0,P|16:64|16:168,2,175.000002086162,2|0|8,0:0|0:0|0:0,0:0:0:0:
120,56,61887,6,0,P|192:64|272:48,1,150.000001788139,2|8,0:0|0:0,0:0:0:0:
312,56,62789,2,0,P|328:104|328:176,1,100.000001192093,2|10,0:0|0:0,0:0:0:0:
280,224,63691,5,4,0:0:0:0:
312,256,63917,2,0,B|352:272|384:320|384:320|432:288|464:280|464:280|472:240|456:200,1,250.000002980232,8|0,0:0|0:0,0:0:0:0:
400,160,65496,6,0,P|448:120|408:32,1,150.000001788139,0|8,0:0|0:0,0:0:0:0:
384,32,66398,2,0,P|328:32|304:48,1,75.0000008940696
383,111,67075,1,8,0:0:0:0:
383,111,67300,6,0,P|343:167|271:151,1,150.000001788139,0|8,0:0|0:0,0:0:0:0:
272,152,68203,2,0,P|248:144|192:168,1,75.0000008940696
120,192,68879,1,8,0:0:0:0:
120,120,69105,6,0,P|80:96|40:88,2,75.0000008940696,0|0|8,0:0|0:0|0:0,0:0:0:0:
120,168,70007,2,0,P|176:208|256:208,1,150.000001788139,0|8,0:0|0:0,0:0:0:0:
296,200,70909,6,0,P|336:144|416:128,1,150.000001788139,0|8,0:0|0:0,0:0:0:0:
411,127,71812,2,0,P|485:104|437:32,1,175.000002086162,0|8,0:0|0:0,0:0:0:0:
368,40,72714,6,0,P|304:56|216:56,1,150.000001788139,6|8,0:0|0:0,0:0:0:0:
176,48,73616,2,0,L|88:8,2,75.0000008940696,8|8|8,0:0|0:0|0:0,0:0:0:0:
160,88,74518,6,0,P|168:168|112:224,1,150.000001788139,6|8,0:0|0:0,0:0:0:0:
88,184,75421,2,0,P|48:232|104:296,1,150.000001788139,8|8,0:0|0:0,0:0:0:0:
136,280,76323,6,0,P|192:232|288:232,1,150.000001788139,4|8,0:0|0:0,0:0:0:0:
312,224,77225,2,0,P|359:211|391:173,1,100.000001192093
392,80,78127,2,0,P|264:80|200:128,2,200.000002384186,0|0|10,0:0|0:0|0:0,0:0:0:0:
448,120,80270,5,0,0:0:0:0:
464,184,80609,1,6,0:0:0:0:
448,224,80834,2,0,P|392:264|376:264,1,75.0000008940696,10|0,0:0|0:0,0:0:0:0:
296,264,81511,5,6,0:0:0:0:
272,224,81737,2,0,P|216:192|200:192,1,75.0000008940696,10|2,0:0|0:0,0:0:0:0:
144,192,82413,5,6,0:0:0:0:
96,192,82639,2,0,P|48:152|88:64,1,150.000001788139,10|4,0:0|0:0,0:0:0:0:
344,56,89744,6,0,P|408:88|440:136,1,125.000001490116
440,176,90533,1,8,0:0:0:0:
376,240,90985,5,8,0:0:0:0:
288,248,91436,2,0,L|200:184,2,100.000001192093,8|8|8,0:0|0:0|0:0,0:0:0:0:
208,288,92789,5,0,0:0:0:0:
120,304,93240,2,0,P|64:304|32:256,2,100.000001192093,8|8|8,0:0|0:0|0:0,0:0:0:0:
96,264,94368,6,0,B|112:232|152:200|152:200|120:136|160:88,2,200.000002384186
40,192,96624,5,0,0:0:0:0:
40,104,97075,1,0,0:0:0:0:
120,56,97526,2,0,L|176:24,1,50.0000005960464,8|8,0:0|0:0,0:0:0:0:
200,32,97977,6,0,P|264:48|320:120,1,150.000007510185,2|2,0:0|0:0,0:0:0:0:
272,184,99330,1,8,0:0:0:0:
304,248,99782,2,0,P|352:264|384:256,1,75.0000037550927,2|8,0:0|0:0,0:0:0:0:
424,216,100684,2,0,L|464:96,1,112.500005632639,2|8,0:0|0:0,0:0:0:0:
448,80,101586,6,0,P|368:56|288:56,1,150.000007510185,2|2,0:0|0:0,0:0:0:0:
240,80,102940,1,8,0:0:0:0:
200,144,103391,2,0,P|168:200|160:208,1,75.0000037550927,2|8,0:0|0:0,0:0:0:0:
88,224,104293,2,0,P|64:256|64:304,1,75.0000037550927,2|8,0:0|0:0,0:0:0:0:
88,304,104970,1,8,0:0:0:0:
152,312,105195,6,0,P|248:312|312:288,1,150.000001788139,2|8,0:0|0:0,0:0:0:0:
304,248,106097,1,2,0:0:0:0:
312,160,106549,6,0,P|336:112|392:80,1,100.000001192093,2|2,0:0|0:0,0:0:0:0:
440,144,107451,2,0,P|472:200|512:232,1,100.000001192093,2|2,0:0|0:0,0:0:0:0:
496,272,108127,2,0,P|432:320|392:328,1,100.000001192093,8|8,0:0|0:0,0:0:0:0:
384,304,108804,6,0,L|312:160,1,150.000001788139,2|8,0:0|0:0,0:0:0:0:
272,160,109706,2,0,P|192:160|160:152,1,100.000001192093,2|8,0:0|0:0,0:0:0:0:
48,136,110609,6,0,L|16:80,2,50.0000005960464,8|0|8,0:0|0:0|0:0,0:0:0:0:
64,176,111285,1,0,0:0:0:0:
64,176,111398,2,0,P|144:272|192:280,1,175.000002086162,8|0,0:0|0:0,0:0:0:0:
232,272,112413,6,0,P|280:248|384:248,1,150.000001788139,0|8,0:0|0:0,0:0:0:0:
416,248,113315,2,0,P|464:248|488:160,1,150.000001788139,0|8,0:0|0:0,0:0:0:0:
464,136,114218,6,0,P|408:112|336:40,1,150.000001788139,0|8,0:0|0:0,0:0:0:0:
296,40,115120,2,0,P|248:64|208:72,1,75.0000008940696
112,56,116022,6,0,P|64:96|88:176,1,150.000001788139,0|8,0:0|0:0,0:0:0:0:
128,192,116924,2,0,L|80:264,1,75.0000008940696
120,312,117601,1,8,0:0:0:0:
168,312,117827,6,0,P|248:312|312:288,1,150.000001788139,0|8,0:0|0:0,0:0:0:0:
352,272,118729,2,0,P|440:272|448:208,1,150.000001788139,0|12,0:0|0:0,0:0:0:0:
440,176,119631,6,0,L|352:48,1,150.000001788139
312,32,120533,2,0,P|272:24|216:24,2,75.0000008940696
296,96,121436,6,0,P|248:176|200:200,1,150.000001788139
144,208,122338,2,0,P|80:208|56:216,2,75.0000008940696
184,232,123240,6,0,B|208:264|256:256|256:256|288:240|328:264,1,150.000001788139,0|8,0:0|0:0,0:0:0:0:
368,264,124143,2,0,P|400:264|472:232,1,100.000001192093
472,192,124819,1,8,0:0:0:0:
456,136,125045,6,0,P|368:112|344:112,1,100.000001192093
272,120,125947,2,0,L|232:120,3,25.0000002980232,0|0|8|8,0:0|0:0|0:0|0:0,0:0:0:0:
176,128,126624,1,0,0:0:0:0:
128,136,126849,6,0,P|80:168|32:256,1,150.000001788139,2|2,0:0|0:0,0:0:0:0:
72,272,127752,6,0,P|144:272|224:240,1,150.000001788139,2|2,0:0|0:0,0:0:0:0:
216,244,128654,2,0,L|256:160,1,75.0000008940696,2|2,0:0|0:0,0:0:0:0:
280,120,129330,5,2,0:0:0:0:
312,88,129556,2,0,P|376:64|424:80,1,100.000001192093,2|0,0:0|0:0,0:0:0:0:
168,56,144894,6,0,P|96:64|64:88,1,100.000001192093,2|8,0:0|0:0,0:0:0:0:
40,136,145684,1,0,0:0:0:0:
136,312,146699,6,0,P|224:288|248:272,1,100.000001192093,2|8,0:0|0:0,0:0:0:0:
272,232,147488,1,0,0:0:0:0:
288,32,148503,6,0,B|344:32|344:32|392:40,1,100.000001192093,2|8,0:0|0:0,0:0:0:0:
440,88,149293,1,0,0:0:0:0:
360,272,150308,6,0,P|320:208|320:176,1,100.000001192093,2|8,0:0|0:0,0:0:0:0:
288,128,151097,2,0,P|224:96|168:96,1,125.000001490116,0|8,0:0|0:0,0:0:0:0:
88,120,152112,5,2,0:0:0:0:
88,208,152564,2,0,L|176:256,1,100.000001192093,2|2,0:0|0:0,0:0:0:0:
216,264,153240,6,0,B|248:280|288:264|288:264|328:280|368:264,1,150.000001788139,8|2,0:0|0:0,0:0:0:0:
432,216,154368,5,2,0:0:0:0:
432,128,154819,1,2,0:0:0:0:
432,80,155045,2,0,B|398:66|358:82|358:82|318:66|286:82,1,150.000001788139,8|2,0:0|0:0,0:0:0:0:
200,72,156173,5,2,0:0:0:0:
120,104,156624,1,2,0:0:0:0:
112,136,156849,2,0,B|96:168|112:208|112:208|96:248|109:281,1,150.000001788139,8|2,0:0|0:0,0:0:0:0:
208,320,157977,5,2,0:0:0:0:
240,320,158315,2,0,L|312:320,1,62.500000745058
392,160,162488,6,8,P|360:152|352:152,3,25.0000002980232
344,136,162940,6,0,P|280:112|192:144,1,150.000001788139,0|8,0:0|0:0,0:0:0:0:
160,144,163842,2,0,P|88:152|72:144,1,75.0000008940696
56,72,164518,5,8,0:0:0:0:
104,64,164744,2,0,P|200:64|256:40,1,150.000001788139,0|8,0:0|0:0,0:0:0:0:
296,48,165646,2,0,P|384:64|408:80,1,100.000001192093,0|8,0:0|0:0,0:0:0:0:
440,152,166549,6,0,P|432:216|352:272,1,150.000001788139,2|8,0:0|0:0,0:0:0:0:
328,256,167451,2,0,P|272:240|240:248,2,75.0000008940696,8|8|8,0:0|0:0|0:0,0:0:0:0:
320,304,168353,6,0,B|280:296|248:328|248:328|216:352|176:328,1,150.000001788139,2|8,0:0|0:0,0:0:0:0:
136,312,169255,2,0,P|88:296|56:240,1,100.000001192093,8|8,0:0|0:0,0:0:0:0:
56,216,169932,1,8,0:0:0:0:
80,176,170158,5,0,0:0:0:0:
112,144,170383,2,0,P|176:120|224:128,1,100.000001192093,8|8,0:0|0:0,0:0:0:0:
232,160,171060,2,0,L|144:232,2,100.000001192093
304,144,172413,5,0,0:0:0:0:
392,120,172864,2,0,L|368:128,4,25.0000002980232,0|0|8|0|8,0:0|0:0|0:0|0:0|0:0,0:0:0:0:
424,152,173541,1,0,0:0:0:0:
456,184,173767,6,0,P|432:248|360:288,1,150.000001788139,0|8,0:0|0:0,0:0:0:0:
320,280,174669,2,0,L|240:256,1,75.0000008940696
184,240,175346,1,8,0:0:0:0:
168,200,175571,6,0,P|120:168|24:168,1,150.000001788139,0|8,0:0|0:0,0:0:0:0:
32,120,176473,2,0,P|64:48|72:40,1,75.0000008940696
128,32,177150,1,8,0:0:0:0:
168,56,177376,6,0,P|240:64|320:48,1,150.000001788139,0|8,0:0|0:0,0:0:0:0:
320,96,178278,2,0,L|280:176,1,75.0000008940696
216,168,178955,1,8,0:0:0:0:
200,208,179180,6,0,P|152:232|96:240,2,100.000001192093
232,280,180421,1,0,0:0:0:0:
320,208,180985,6,0,P|352:168|440:184,1,150.000001788139,2|8,0:0|0:0,0:0:0:0:
464,224,181887,2,0,L|408:280,2,75.0000008940696,8|8|8,0:0|0:0|0:0,0:0:0:0:
496,192,182789,6,0,P|496:120|424:88,1,150.000001788139,2|8,0:0|0:0,0:0:0:0:
392,72,183691,2,0,L|280:80,1,100.000001192093,8|8,0:0|0:0,0:0:0:0:
248,80,184368,1,8,0:0:0:0:
200,80,184594,6,0,P|104:64|96:72,2,100.000001192093
216,144,185834,2,0,L|288:192,1,75.0000008940696,0|8,0:0|0:0,0:0:0:0:
312,216,186398,1,0,0:0:0:0:
312,216,186849,1,0,0:0:0:0:
344,304,187300,6,0,L|256:304,2,75.0000008940696,0|8|8,0:0|0:0|0:0,0:0:0:0:
392,304,188203,6,0,P|432:240|424:152,1,150.000001788139,2|2,0:0|0:0,0:0:0:0:
430,167,189105,2,0,P|390:103|398:15,1,150.000001788139,2|2,0:0|0:0,0:0:0:0:
424,56,190007,2,0,P|400:64|344:72,1,75.0000008940696,2|2,0:0|0:0,0:0:0:0:
280,72,190684,1,2,0:0:0:0:
232,72,190909,1,2,0:0:0:0:
56,80,191812,6,0,P|96:152|104:184,1,100.000001192093
136,192,192488,2,0,P|192:176|240:144,2,100.000001192093,8|8|8,0:0|0:0|0:0,0:0:0:0:
96,200,193616,6,0,P|80:256|88:312,1,100.000001192093
128,280,194293,2,0,P|144:336|136:392,2,100.000001192093,8|8|8,0:0|0:0|0:0,0:0:0:0:
152,248,195421,6,0,B|192:192|192:192|240:176,1,100.000001192093
264,176,196097,2,0,L|384:152,2,100.000001192093,8|8|8,0:0|0:0|0:0,0:0:0:0:
256,192,197225,12,0,198579,0:0:0:0:
64,168,199030,5,0,0:0:0:0:
64,216,199255,2,0,L|64:320,1,100.000001192093,8|8,0:0|0:0,0:0:0:0:
152,320,200158,2,0,P|240:312|248:304,1,100.000001192093,8|8,0:0|0:0,0:0:0:0:
272,280,200834,6,0,P|312:216|312:176,1,100.000001192093
320,152,201511,2,0,B|336:120|336:120|376:96|416:104,2,100.000001192093,8|8|8,0:0|0:0|0:0,0:0:0:0:
272,160,202639,6,0,P|224:168|152:160,1,100.000001192093
128,160,203315,2,0,P|144:120|288:64,1,200.000002384186,8|8,0:0|0:0,0:0:0:0:
320,48,204443,6,0,B|328:80|328:80|320:104|320:104|328:128|328:128|320:152|320:152|328:184|328:184|320:208|320:208|328:232|328:232|320:256|320:256|328:280|328:280|320:304|320:304|328:336|328:336,1,300.000003576278,0|8,0:0|0:0,0:0:0:0:
327,334,206022,1,8,0:0:0:0:
280,328,206248,6,0,P|144:328|120:320,1,150.000001788139,2|2,0:0|0:0,0:0:0:0:
96,296,207150,6,0,P|96:160|104:136,1,150.000001788139,2|2,0:0|0:0,0:0:0:0:
144,144,208052,6,0,P|144:80|136:48,2,75.0000008940696,2|2|2,0:0|0:0|0:0,0:0:0:0:
152,192,208955,1,2,0:0:0:0:
