osu file format v14

[General]
AudioFilename: yuikonnu - Kakushinteki-Metamaruphose!.mp3
AudioLeadIn: 0
PreviewTime: 57726
Countdown: 1
SampleSet: Soft
StackLeniency: 0.7
Mode: 0
LetterboxInBreaks: 1
WidescreenStoryboard: 0

[Editor]
DistanceSpacing: 2
BeatDivisor: 2
GridSize: 4
TimelineZoom: 2.1

[Metadata]
Title:Kakushinteki-Metamaruphose!
TitleUnicode:Kakushinteki-Metamaruphose!
Artist:Yuikonnu
ArtistUnicode:Yuikonnu
Creator:Keada
Version:U.M.R
Source:
Tags:Umaru
BeatmapID:908751
BeatmapSetID:419982

[Difficulty]
HPDrainRate:6
CircleSize:4
OverallDifficulty:8.5
ApproachRate:9.8
SliderMultiplier:1.4
SliderTickRate:1

[Events]
//Background and Video events
0,0,"umnr.jpg",0,0
//Break Periods
//Storyboard Layer 0 (Background)
//Storyboard Layer 1 (Fail)
//Storyboard Layer 2 (Pass)
//Storyboard Layer 3 (Foreground)
//Storyboard Sound Samples

[TimingPoints]
80,215.827338129496,5,2,0,100,1,0
1159,215.827338129496,4,2,0,100,1,0
8065,-133.333333333333,4,2,0,100,0,0
14108,-111.111111111111,4,2,0,100,0,0
20151,-90.9090909090909,4,2,0,100,0,0
26410,-200,4,2,0,20,0,0
27058,-133.333333333333,4,2,0,100,0,0
28784,-100,4,2,0,100,0,0
29216,-133.333333333333,4,2,0,100,0,0
40871,301.507537688442,3,2,0,100,1,0
40871,-83.3333333333333,3,2,0,100,0,0
50820,215.827338129496,4,2,0,100,1,0
51251,-83.3333333333333,4,2,0,100,0,0
57726,-66.6666666666667,4,2,0,100,0,0
58158,-100,4,2,0,100,0,0
58589,-76.9230769230769,4,2,0,100,0,1
69165,-66.6666666666667,4,2,0,100,0,1
69812,-76.9230769230769,4,2,0,100,0,1
70028,-66.6666666666667,4,2,0,100,0,1
70676,-76.9230769230769,4,2,0,100,0,1
77150,-133.333333333333,4,2,0,100,0,1
77582,-100,4,2,0,100,0,0
80604,-66.6666666666667,4,2,0,100,0,0
80819,-90.9090909090909,4,2,0,100,0,0
84489,-111.111111111111,4,2,0,100,0,0

[HitObjects]
408,100,80,6,0,L|352:100,3,46.6666666666667
392,200,511,1,0,0:0:0:0:
400,220,583,1,0,0:0:0:0:
392,240,655,1,0,0:0:0:0:
400,260,727,2,0,B|344:260|344:260|312:276|312:276|244:276,1,140
212,220,1051,1,0,0:0:0:0:
208,144,1159,6,0,P|160:160|144:188,1,70
140,252,1374,2,0,P|115:276|81:282,1,70
72,124,1590,1,0,0:0:0:0:
72,124,1698,1,0,0:0:0:0:
72,124,1806,2,0,L|84:200,1,70
184,332,2022,6,0,P|220:340|256:324,1,70
304,272,2238,2,0,P|336:260|370:268,1,70
408,364,2453,1,0,0:0:0:0:
408,364,2561,1,0,0:0:0:0:
408,364,2669,2,0,L|328:336,1,70
212,220,2885,5,0,0:0:0:0:
212,220,3101,5,0,0:0:0:0:
240,132,3209,1,0,0:0:0:0:
304,196,3317,1,0,0:0:0:0:
192,224,3533,5,0,0:0:0:0:
240,108,3641,1,0,0:0:0:0:
320,200,3748,6,0,L|316:284,1,70
456,184,3964,2,0,L|452:114,1,70
240,84,4180,2,0,P|300:116|364:68,1,140
120,24,4612,5,0,0:0:0:0:
100,100,4720,1,0,0:0:0:0:
140,168,4828,2,0,L|128:248,1,70
44,348,5043,5,0,0:0:0:0:
116,316,5151,1,0,0:0:0:0:
188,344,5259,2,0,L|276:336,1,70
400,344,5475,5,0,0:0:0:0:
368,272,5583,1,0,0:0:0:0:
396,200,5691,2,0,L|384:120,1,70
476,20,5907,5,0,0:0:0:0:
404,52,6015,1,0,0:0:0:0:
332,28,6123,2,0,L|236:28,1,70
120,24,6338,5,0,0:0:0:0:
256,156,6554,2,0,L|272:204,3,35
176,184,6770,2,0,L|168:268,1,70
40,144,6986,2,0,L|33:74,1,70
256,68,7202,5,0,0:0:0:0:
256,68,7417,6,0,L|260:164,1,70
424,168,7633,1,0,0:0:0:0:
176,184,7849,1,0,0:0:0:0:
428,348,8065,6,0,B|328:384|328:292|221:330|221:330|256:288|248:224,1,315.000012016297
204,80,8928,6,0,B|172:172|172:260|172:260|172:172|108:140,1,315.000012016297
176,0,9792,6,0,B|256:-16|296:72|296:72|392:56|420:148,1,315.000012016297
464,296,10655,6,0,B|411:320|368:286|368:286|320:252|268:292,1,210.000008010865
192,352,11302,1,0,0:0:0:0:
72,40,11518,6,0,B|100:96|159:110|159:110|224:128|250:189|250:189|208:204|176:156,1,315.000012016297
440,40,12382,6,0,B|411:96|352:110|352:110|288:128|261:189|261:189|304:204|336:156,1,315.000012016297
256,52,13245,6,0,P|216:88|184:136,2,105.000004005432
333,272,13892,2,0,P|335:218|328:192,1,78.7500030040742
264,188,14108,6,0,L|344:200,2,62.9999980773926
176,156,14432,1,0,0:0:0:0:
192,248,14540,2,0,L|204:324,1,62.9999980773926
88,280,14756,2,0,L|97:217,1,62.9999980773926
112,52,14971,6,0,P|56:72|116:112,1,157.499995193482
180,88,15295,2,0,L|312:88,1,125.999996154785
392,48,15619,2,0,P|400:88|388:132,1,62.9999980773926
264,188,15835,6,0,P|304:180|348:184,1,62.9999980773926
308,260,16051,2,0,P|341:282|370:316,1,62.9999980773926
440,256,16266,2,0,P|448:295|444:340,1,62.9999980773926
357,298,16482,2,0,P|334:331|300:360,1,62.9999980773926
32,188,16698,6,0,P|132:184|176:192,1,125.999996154785
240,284,17022,2,0,P|140:288|96:280,1,125.999996154785
32,188,17346,2,0,P|32:136|40:104,1,62.9999980773926
240,32,17561,6,0,P|248:116|236:304,1,251.999992309571
88,72,18209,5,0,0:0:0:0:
88,72,18317,1,0,0:0:0:0:
88,72,18425,2,0,L|172:72,1,62.9999980773926
280,152,18641,2,0,L|196:152,1,62.9999980773926
112,40,18856,2,0,L|196:40,1,62.9999980773926
304,128,19072,2,0,L|220:128,1,62.9999980773926
68,32,19288,5,0,0:0:0:0:
60,24,19720,1,0,0:0:0:0:
52,16,19935,1,0,0:0:0:0:
24,192,20151,6,0,P|96:224|180:184,1,154.000004699707
100,72,20475,1,0,0:0:0:0:
100,72,20583,2,0,L|96:160,1,77.0000023498536
160,292,20799,1,0,0:0:0:0:
272,344,20907,1,0,0:0:0:0:
256,220,21015,6,0,L|252:128,1,77.0000023498536
112,24,21230,2,0,L|108:100,1,77.0000023498536
336,272,21446,2,0,L|332:180,1,77.0000023498536
184,76,21662,2,0,L|180:152,1,77.0000023498536
408,228,21878,6,0,P|360:196|256:236,1,154.000004699707
236,336,22202,1,0,0:0:0:0:
124,384,22310,2,0,P|92:364|64:324,1,77.0000023498536
119,220,22525,2,0,P|113:182|96:148,1,77.0000023498536
24,48,22741,5,0,0:0:0:0:
140,88,22849,1,0,0:0:0:0:
36,20,22957,1,0,0:0:0:0:
120,112,23065,1,0,0:0:0:0:
72,0,23173,1,0,0:0:0:0:
84,124,23281,1,0,0:0:0:0:
104,4,23389,1,0,0:0:0:0:
48,116,23497,1,0,0:0:0:0:
200,12,23605,6,0,B|248:12|248:12|292:52|292:52|348:52,1,154.000004699707
452,52,23928,1,0,0:0:0:0:
372,144,24036,2,0,L|272:148,1,77.0000023498536
140,88,24252,2,0,L|236:88,1,77.0000023498536
372,224,24468,6,0,L|272:228,1,77.0000023498536
140,172,24684,2,0,L|236:172,1,77.0000023498536
372,304,24900,1,0,0:0:0:0:
292,332,25007,1,0,0:0:0:0:
204,312,25115,2,0,P|172:284|152:240,1,77.0000023498536
303,74,25331,6,0,B|303:146|303:146|295:166|295:166|295:258,1,154.000004699707
72,272,25655,2,0,B|72:211|72:211|64:191|64:191|64:119,1,154.000004699707
280,36,25979,2,0,L|280:120,1,77.0000023498536
44,304,26194,5,0,0:0:0:0:
264,248,26410,6,0,L|268:216,2,23.3333333333333,0|0|0,2:0|2:0|2:0,2:0:0:0:
340,220,26626,6,0,L|344:192,2,23.3333333333333,0|0|0,2:0|2:0|2:0,2:0:0:0:
416,192,26842,6,0,L|420:164,2,23.3333333333333,0|0|0,2:0|2:0|2:0,2:0:0:0:
400,296,27058,6,0,P|360:272|340:212,1,105.000004005432
468,252,27382,1,0,0:0:0:0:
332,76,27705,1,0,0:0:0:0:
332,76,27921,5,0,0:0:0:0:
252,76,28029,1,0,0:0:0:0:
172,76,28137,1,0,0:0:0:0:
292,148,28353,1,0,0:0:0:0:
212,4,28569,1,0,0:0:0:0:
344,224,28784,6,0,P|348:272|276:216,1,210.000008010865
400,172,29216,2,0,P|420:212|424:244,1,52.5000020027161
428,300,29432,1,0,0:0:0:0:
408,320,29648,5,0,0:0:0:0:
464,260,29756,1,0,0:0:0:0:
488,340,29864,1,0,0:0:0:0:
312,328,30079,1,0,0:0:0:0:
400,172,30295,1,0,0:0:0:0:
236,332,30511,6,0,B|192:340|136:320|136:320|168:308|188:276,1,157.500006008148
56,280,30943,2,0,P|48:328|52:352,1,52.5000020027161
180,287,31158,1,0,0:0:0:0:
56,280,31374,2,0,P|56:248|60:220,1,52.5000020027161
184,292,31590,1,0,0:0:0:0:
56,280,31806,1,0,0:0:0:0:
184,292,32022,1,0,0:0:0:0:
36,152,32238,6,0,B|24:96|40:40|40:40|48:96,1,157.500006008148
128,236,32669,2,0,P|136:292|104:356,1,105.000004005432
56,280,32993,1,0,0:0:0:0:
56,280,33101,6,0,L|44:224,1,52.5000020027161
160,160,33317,6,0,L|192:160,3,26.2500010013581
108,104,33533,2,0,P|136:88|160:84,1,52.5000020027161
232,88,33748,2,0,P|263:96|282:110,1,52.5000020027161
244,320,33964,6,0,P|212:276|252:168,1,157.500006008148
392,236,34396,2,0,L|280:248,1,105.000004005432
296,280,34720,1,0,0:0:0:0:
304,304,34828,6,0,L|288:240,1,52.5000020027161
216,96,35043,2,0,L|203:146,1,52.5000020027161
128,296,35259,1,0,0:0:0:0:
312,168,35475,5,0,0:0:0:0:
312,168,35583,1,0,0:0:0:0:
312,168,35691,2,0,P|356:136|416:124,2,105.000004005432
128,296,36338,1,0,0:0:0:0:
128,296,36554,6,0,L|116:232,1,52.5000020027161
248,304,36770,2,0,L|238:355,1,52.5000020027161
44,300,36986,1,0,0:0:0:0:
328,308,37202,1,0,0:0:0:0:
76,216,37417,6,0,B|76:100|76:100|92:148,1,157.500006008148
128,296,37849,2,0,L|128:356,1,52.5000020027161
292,236,38065,1,0,0:0:0:0:
44,300,38281,5,0,0:0:0:0:
120,76,38497,1,0,0:0:0:0:
292,236,38712,1,0,0:0:0:0:
56,272,38928,1,0,0:0:0:0:
276,76,39144,5,0,0:0:0:0:
192,352,39576,5,0,0:0:0:0:
0,140,40007,5,0,0:0:0:0:
304,152,40439,6,0,L|336:148,2,26.2500010013581
104,320,40871,6,0,B|88:260|108:208|108:208|168:160|168:80,1,251.999992309571
64,100,41474,1,0,0:0:0:0:
192,268,41624,1,0,0:0:0:0:
12,176,41775,2,0,L|16:84,1,83.9999974365235
195,184,42077,2,0,L|191:276,1,83.9999974365235
104,124,42378,2,0,P|156:80|224:80,1,125.999996154785
240,88,42680,5,0,0:0:0:0:
328,232,42830,1,0,0:0:0:0:
304,24,42981,1,0,0:0:0:0:
232,176,43132,1,0,0:0:0:0:
440,176,43283,1,0,0:0:0:0:
328,52,43433,1,0,0:0:0:0:
272,292,43584,6,0,B|308:316|348:312|348:312|376:332|376:332|404:328|432:336,2,167.999994873047
68,160,44489,6,0,B|140:160|140:160|168:176|168:176|232:176|232:176|188:192|176:248,1,251.999992309571
208,340,45092,2,0,P|164:352|120:344,1,83.9999974365235
4,240,45393,6,0,P|-24:160|12:68,2,167.999994873047
260,232,46298,6,0,P|292:144|160:136,1,251.999992309571
116,320,46901,1,0,0:0:0:0:
226,168,47051,1,0,0:0:0:0:
40,348,47202,6,0,B|32:304|48:276|48:276|32:240|32:240|44:212|40:168,1,167.999994873047
276,104,47805,1,0,0:0:0:0:
336,260,47956,1,0,0:0:0:0:
196,88,48107,6,0,P|228:36|336:48,1,167.999994873047
444,160,48559,1,0,0:0:0:0:
272,187,48710,2,0,L|276:95,1,83.9999974365235
104,48,49011,6,0,L|107:131,1,83.9999974365235
240,280,49313,1,0,0:0:0:0:
240,280,49463,1,0,0:0:0:0:
240,280,49614,2,0,L|140:276,1,83.9999974365235
40,272,49916,5,0,0:0:0:0:
132,132,50066,1,0,0:0:0:0:
120,344,50217,5,0,0:0:0:0:
224,112,50368,1,0,0:0:0:0:
24,332,50519,5,0,0:0:0:0:
164,40,50669,1,0,0:0:0:0:
56,384,50820,5,0,0:0:0:0:
368,212,51251,6,0,B|308:224|308:224|224:208,1,125.999996154785
164,176,51467,2,0,B|224:188|224:188|308:172,1,125.999996154785
360,132,51683,5,0,0:0:0:0:
224,112,51791,1,0,0:0:0:0:
360,132,51899,1,0,0:0:0:0:
144,96,52007,2,0,P|176:48|284:56,1,167.999994873047
404,200,52330,2,0,P|360:212|292:184,1,83.9999974365235
164,176,52546,5,0,0:0:0:0:
188,316,52654,1,0,0:0:0:0:
76,172,52762,2,0,L|56:72,1,83.9999974365235
256,160,52978,2,0,L|239:242,1,83.9999974365235
100,320,53194,1,0,0:0:0:0:
68,180,53302,1,0,0:0:0:0:
200,352,53409,6,0,P|128:360|64:264,1,167.999994873047
256,160,53733,2,0,P|312:205|289:318,1,167.999994873047
60,192,54057,1,0,0:0:0:0:
192,248,54165,1,0,0:0:0:0:
4,240,54273,6,0,L|-8:148,1,83.9999974365235
192,56,54489,2,0,L|181:139,1,83.9999974365235
100,320,54704,2,0,L|184:308,1,83.9999974365235
424,344,54920,2,0,L|340:356,1,83.9999974365235
192,248,55136,5,0,0:0:0:0:
156,156,55244,1,0,0:0:0:0:
204,68,55352,1,0,0:0:0:0:
304,52,55460,1,0,0:0:0:0:
284,213,55568,5,0,0:0:0:0:
192,248,55676,1,0,0:0:0:0:
104,201,55784,1,0,0:0:0:0:
88,101,55892,1,0,0:0:0:0:
352,140,55999,5,0,0:0:0:0:
260,280,56107,1,0,0:0:0:0:
248,112,56215,5,0,0:0:0:0:
356,240,56323,1,0,0:0:0:0:
196,188,56431,5,0,0:0:0:0:
348,116,56539,1,0,0:0:0:0:
256,256,56647,5,0,0:0:0:0:
240,88,56755,1,0,0:0:0:0:
352,216,56863,5,0,0:0:0:0:
224,360,57079,5,0,0:0:0:0:
152,168,57295,5,0,0:0:0:0:
336,328,57510,5,0,0:0:0:0:
90,201,57726,6,0,P|102:117|190:225,1,315.000012016297
74,361,58158,6,0,L|4:367,1,70
205,300,58373,6,0,L|135:307,1,70
360,96,58589,6,0,B|360:156|360:156|376:216|376:216|376:304,1,181.999991668702
74,361,58913,2,0,B|74:301|74:301|90:241|90:241|90:181,1,181.999991668702
260,56,59237,1,0,0:0:0:0:
292,172,59345,1,0,0:0:0:0:
220,268,59453,6,0,L|204:160,1,90.9999958343508
360,96,59668,2,0,L|346:186,1,90.9999958343508
144,296,59884,1,0,0:0:0:0:
248,348,59992,1,0,0:0:0:0:
356,296,60100,2,0,L|248:296,1,90.9999958343508
72,332,60316,6,0,P|76:252|180:224,1,181.999991668702
356,296,60640,2,0,P|437:267|445:181,1,181.999991668702
260,56,60963,5,0,0:0:0:0:
260,56,61071,1,0,0:0:0:0:
260,56,61179,2,0,L|268:164,1,90.9999958343508
248,348,61395,1,0,0:0:0:0:
144,296,61503,1,0,0:0:0:0:
240,228,61611,1,0,0:0:0:0:
204,340,61719,1,0,0:0:0:0:
124,252,61827,1,0,0:0:0:0:
220,180,61935,1,0,0:0:0:0:
160,336,62043,5,0,0:0:0:0:
160,336,62258,2,0,L|120:244,1,90.9999958343508
260,56,62474,1,0,0:0:0:0:
180,144,62582,1,0,0:0:0:0:
140,32,62690,2,0,L|240:32,1,90.9999958343508
416,36,62906,5,0,0:0:0:0:
416,36,63122,2,0,L|408:160,1,90.9999958343508
204,240,63337,1,0,0:0:0:0:
284,152,63445,1,0,0:0:0:0:
324,264,63553,2,0,L|224:264,1,90.9999958343508
52,128,63769,5,0,0:0:0:0:
52,128,63985,2,0,L|44:248,1,90.9999958343508
210,330,64201,2,0,L|203:239,1,90.9999958343508
176,68,64417,1,0,0:0:0:0:
176,68,64525,1,0,0:0:0:0:
176,68,64632,5,0,0:0:0:0:
256,68,64740,1,0,0:0:0:0:
336,68,64848,2,0,P|400:64|436:68,1,90.9999958343508
355,245,65064,5,0,0:0:0:0:
298,188,65172,1,0,0:0:0:0:
241,131,65280,2,0,P|192:88|170:60,1,90.9999958343508
4,4,65496,6,0,P|28:68|4:208,1,181.999991668702
4,364,65819,2,0,P|72:332|184:376,1,181.999991668702
340,348,66143,1,0,0:0:0:0:
440,256,66251,1,0,0:0:0:0:
355,154,66359,6,0,L|355:270,1,90.9999958343508
160,168,66575,2,0,L|160:77,1,90.9999958343508
372,92,66791,2,0,L|372:208,1,90.9999958343508
160,244,67007,2,0,P|112:228|88:180,1,90.9999958343508
318,37,67222,6,0,P|362:17|446:105,1,181.999991668702
440,256,67546,1,0,0:0:0:0:
424,264,67654,2,0,B|360:264|360:264|320:244|320:244|240:244,1,181.999991668702
124,76,67978,1,0,0:0:0:0:
136,88,68086,6,0,B|172:176|80:176|140:296,1,181.999991668702
216,324,68409,1,0,0:0:0:0:
308,168,68517,5,0,0:0:0:0:
224,208,68625,1,0,0:0:0:0:
144,248,68733,1,0,0:0:0:0:
64,288,68841,1,0,0:0:0:0:
216,324,68949,6,0,P|228:260|184:168,1,136.499993751526
12,264,69165,2,0,L|160:264,1,105.000004005432
316,300,69381,1,0,0:0:0:0:
388,224,69489,1,0,0:0:0:0:
400,120,69596,1,0,0:0:0:0:
340,36,69704,1,0,0:0:0:0:
224,208,69812,6,0,P|304:216|352:148,1,136.499993751526
248,44,70028,6,0,L|276:160,1,105.000004005432
316,300,70244,1,0,0:0:0:0:
420,324,70352,1,0,0:0:0:0:
492,248,70460,1,0,0:0:0:0:
480,144,70568,1,0,0:0:0:0:
309,112,70676,6,0,L|292:212,1,90.9999958343508
108,256,70891,2,0,L|123:166,1,90.9999958343508
324,68,71107,2,0,L|307:168,1,90.9999958343508
100,224,71323,2,0,L|115:134,1,90.9999958343508
368,228,71539,5,0,0:0:0:0:
316,300,71647,1,0,0:0:0:0:
228,320,71755,2,0,P|168:320|116:296,1,90.9999958343508
144,124,71971,1,0,0:0:0:0:
231,109,72079,1,0,0:0:0:0:
308,157,72187,2,0,P|350:199|370:253,1,90.9999958343508
100,224,72402,6,0,L|112:132,1,90.9999958343508
356,48,72618,1,0,0:0:0:0:
356,48,72726,1,0,0:0:0:0:
356,48,72834,2,0,L|364:172,1,90.9999958343508
228,320,73050,1,0,0:0:0:0:
228,320,73158,1,0,0:0:0:0:
228,320,73266,6,0,L|222:229,1,90.9999958343508
313,66,73481,2,0,L|307:156,1,90.9999958343508
148,248,73697,6,0,L|118:161,1,90.9999958343508
304,232,73913,2,0,L|321:321,1,90.9999958343508
40,180,74129,6,0,P|56:116|184:120,1,181.999991668702
368,280,74453,6,0,P|311:313|223:220,1,181.999991668702
468,152,74776,2,0,L|452:260,1,90.9999958343508
148,248,74992,6,0,B|112:156|196:156|136:60,1,181.999991668702
80,120,75316,1,0,0:0:0:0:
160,116,75424,1,0,0:0:0:0:
240,112,75532,1,0,0:0:0:0:
320,108,75640,1,0,0:0:0:0:
400,104,75748,1,0,0:0:0:0:
364,176,75855,5,0,0:0:0:0:
116,48,76503,1,0,0:0:0:0:
364,176,76719,5,0,0:0:0:0:
224,264,76935,1,0,0:0:0:0:
312,44,77150,6,0,B|379:24|448:47|448:47|404:64,1,183.750007009506
344,120,77582,6,0,L|252:136,1,70
155,252,77798,2,0,L|247:268,1,70
416,200,78014,1,0,0:0:0:0:
416,200,78122,1,0,0:0:0:0:
416,200,78230,2,0,L|332:216,1,70
152,172,78445,6,0,P|144:120|148:80,1,70
312,44,78661,2,0,P|311:78|304:113,1,70
156,252,78877,1,0,0:0:0:0:
156,252,78985,1,0,0:0:0:0:
156,252,79093,2,0,P|204:264|236:260,1,70
392,288,79309,5,0,0:0:0:0:
396,300,79525,1,0,0:0:0:0:
372,208,79632,1,0,0:0:0:0:
464,236,79740,2,0,L|472:320,1,70
340,208,79956,2,0,L|346:138,1,70
464,40,80172,6,0,B|420:40|420:40|404:48|404:48|336:48,1,105
304,28,80388,2,0,L|288:96,1,70
268,224,80604,2,0,P|216:260|248:216,1,157.500006008148
208,112,80819,5,0,0:0:0:0:
200,112,80891,1,0,0:0:0:0:
192,112,80963,1,0,0:0:0:0:
184,112,81035,6,0,L|152:204,1,77.0000023498536
24,304,81251,5,0,0:0:0:0:
32,304,81323,1,0,0:0:0:0:
40,304,81395,1,0,0:0:0:0:
48,304,81467,6,0,L|80:212,1,77.0000023498536
236,48,81683,5,0,0:0:0:0:
244,48,81755,1,0,0:0:0:0:
252,48,81827,1,0,0:0:0:0:
260,48,81899,6,0,L|292:140,1,77.0000023498536
412,304,82114,5,0,0:0:0:0:
404,304,82186,1,0,0:0:0:0:
396,304,82258,1,0,0:0:0:0:
388,304,82330,6,0,L|356:212,1,77.0000023498536
464,4,82546,1,0,0:0:0:0:
492,76,82654,1,0,0:0:0:0:
456,144,82762,2,0,L|356:144,1,77.0000023498536
183,48,82978,2,0,L|283:48,1,77.0000023498536
368,228,83194,2,0,L|271:202,1,77.0000023498536
128,64,83410,2,0,L|224:89,1,77.0000023498536
448,216,83625,6,0,P|440:272|344:312,1,154.000004699707
256,24,84057,2,0,B|216:112|252:192|252:192|276:153|264:112,1,231.000007049561
128,64,84489,6,0,B|100:176|176:176|126:302|126:302|220:204|259:279|324:184,1,472.499985580445
364,120,85352,6,0,B|364:160|364:160|380:196|380:196|380:256,1,125.999996154785
427,324,85676,2,0,P|375:336|307:300,1,125.999996154785
268,176,85999,1,0,0:0:0:0:
268,176,86107,1,0,0:0:0:0:
268,176,86215,6,0,P|212:184|156:120,1,125.999996154785
324,56,86539,6,0,P|380:48|436:112,1,125.999996154785
366,182,86863,2,0,L|362:94,1,62.9999980773926
484,200,87078,5,0,0:0:0:0:
304,264,87510,6,0,L|248:264,6,31.4999990386963
