osu file format v9

[General]
AudioFilename: inside,outside.mp3
AudioLeadIn: 0
PreviewTime: 83106
Countdown: 0
SampleSet: Soft
StackLeniency: 0.7
Mode: 0
LetterboxInBreaks: 1

[Editor]
Bookmarks: 49106,99122,124122
DistanceSpacing: 1.2
BeatDivisor: 4
GridSize: 4

[Metadata]
Title:inside,outside
Artist:Yuiko
Creator:TTTTTTTTTTTT
Version:Hard
Source:
Tags:Primary

[Difficulty]
HPDrainRate:6
CircleSize:5
OverallDifficulty:7
ApproachRate:7
SliderMultiplier:1.9
SliderTickRate:1

[Events]
//Background and Video events
0,0,"bg.jpg"
//Break Periods
//Storyboard Layer 0 (Background)
//Storyboard Layer 1 (Fail)
//Storyboard Layer 2 (Pass)
//Storyboard Layer 3 (Foreground)
//Storyboard Sound Samples
//Background Colour Transformations
3,100,163,162,255

[TimingPoints]
1122,500,4,2,2,50,1,0
1122,-200,4,2,2,50,0,0
49106,-133.333333333333,4,2,2,50,0,0
65122,-100,4,2,2,50,0,0
82997,-100,4,2,1,41,0,0
83231,-100,4,2,1,50,0,0
91122,-200,4,2,1,50,0,0
91622,-100,4,2,1,55,0,0
98497,-100,4,1,1,25,0,0
98747,-100,4,1,1,29,0,0
98997,-100,4,2,1,40,0,0
99247,-100,4,2,1,56,0,0
99997,-100,4,2,1,46,0,0
114997,-100,4,2,0,34,0,0
115247,-100,4,2,1,50,0,0
130872,-200,4,2,1,50,0,0
131122,-100,4,1,1,46,0,1
131247,-100,4,1,1,55,0,1
135122,-133.333333333333,4,1,1,55,0,1
136122,-100,4,1,1,55,0,1
138122,-133.333333333333,4,1,1,55,0,1
138622,-100,4,1,1,55,0,1
140622,-133.333333333333,4,1,1,55,0,1
141122,-100,4,1,1,55,0,1
146622,-200,4,1,1,55,0,1
146997,-100,4,1,1,55,0,1
159122,-100,4,2,1,46,0,0
162872,-200,4,2,1,46,0,0
163122,-100,4,2,1,46,0,0
173122,-100,4,2,1,35,0,0
173247,-100,4,2,1,46,0,0

[Colours]
Combo1 : 176,176,255
Combo2 : 128,128,192
Combo3 : 138,138,253

[HitObjects]
132,52,9122,1,0
156,80,9372,1,0
188,96,9622,1,0
224,108,9872,1,0
296,84,10372,1,2
364,48,10872,1,0
400,60,11122,5,0
428,88,11372,1,0
440,124,11622,1,0
440,160,11872,1,0
408,228,12372,1,2
332,236,12872,1,0
296,236,13122,5,0
260,248,13372,1,0
228,272,13622,1,0
208,304,13872,1,0
176,236,14372,1,2
140,168,14872,1,0
256,192,15122,12,0,17122
60,44,17622,5,0
88,72,17872,2,0,B|140:112|232:108,1,142.5,0|0
256,92,18872,1,2
288,68,19122,2,0,B|344:48|400:72,1,95,0|0
412,88,19872,1,2
389,160,20372,1,0
396,196,20622,2,0,B|408:300,1,95
388,324,21372,1,0
352,312,21622,2,0,B|324:208,1,95,2|0
236,196,22622,5,0
188,196,22872,2,0,B|128:196,1,47.5,0|0
92,196,23372,1,0
100,148,23622,2,0,B|164:148,1,47.5,0|0
244,148,24372,1,2
332,36,25122,5,0
356,76,25372,1,0
380,116,25622,2,0,B|424:200,1,95
420,248,26372,1,0
372,236,26622,2,0,B|324:140,1,95,2|0
304,112,27372,5,2
280,72,27622,2,0,B|252:12,1,47.5,0|0
172,60,28372,1,0
188,104,28622,2,0,B|208:164,1,47.5,0|2
180,240,29372,1,0
156,200,29622,2,0,B|120:112,2,95,0|2|0
132,240,30872,1,2
80,320,31372,5,0
124,332,31622,1,0
172,340,31872,1,2
268,340,32372,1,0
432,292,33122,5,0
404,240,33372,1,0
380,188,33622,2,0,B|336:164|276:200,1,95,0|2
316,244,34372,1,0
260,248,34622,2,0,B|200:260|176:204,1,95,0|0
84,152,35622,1,2
128,116,35872,2,0,B|180:116,1,47.5
284,84,36622,1,0
248,40,36872,2,0,B|192:40,1,47.5,2|0
144,40,37372,1,0
88,40,37622,6,0,B|56:88|92:144,2,95,2|0|0
140,64,38872,1,2
252,64,39372,1,0
308,48,39622,1,0
360,28,39872,1,2
448,100,40372,1,0
448,300,41122,5,0
384,280,41372,1,0
324,256,41622,2,0,B|216:256,2,95
376,216,42872,1,0
424,168,43122,2,0,B|424:72,2,95,2|0|2
360,144,44372,1,0
304,104,44622,1,0
252,60,44872,6,0,B|152:60,1,95,2|0
108,104,45622,1,2
68,156,45872,1,0
28,208,46122,1,0
120,304,46622,5,0
172,264,46872,2,0,B|280:264,1,95,2|0
332,264,47622,1,2
444,192,48122,5,0
392,152,48372,1,0
344,108,48622,2,0,B|232:108,1,95,0|2
120,108,49622,1,2
64,80,49872,1,0
44,208,50372,1,0
104,236,50622,1,0
160,264,50872,1,0
220,288,51122,6,0,B|372:288,2,142.499995753169,2|0|2
76,224,52622,1,0
20,168,52872,1,0
80,116,53122,2,0,B|168:116,1,71.2499978765846,2|0
184,44,53622,2,0,B|16:44,2,142.499995753169,2|0|0
244,92,54872,1,0
304,44,55122,2,0,B|456:44,1,142.499995753169,2|0
492,108,55872,1,0
436,160,56122,6,0,B|440:308,1,142.499995753169
368,272,56872,1,0
296,304,57122,2,0,B|296:152,1,142.499995753169,2|0
236,112,57872,1,0
20,36,58622,5,0
60,104,58872,1,0
104,168,59122,2,0,B|104:344,1,142.499995753169,2|0
260,300,60122,2,0,B|260:124,1,142.499995753169,0|0
324,116,60872,1,0
388,68,61122,2,0,B|388:232,1,142.499995753169,2|0
388,288,61872,1,0
212,132,62622,5,2
240,60,62872,1,0
88,24,63372,1,0
40,88,63622,1,2
100,140,63872,1,0
164,188,64122,2,0,B|164:344,2,142.499995753169,2|0|2
236,144,65372,5,0
304,196,65622,1,0
372,244,65872,1,0
420,172,66122,1,2
456,96,66372,1,0
384,48,66622,2,0,B|260:48,1,95,0|0
300,132,67122,6,0,B|192:132,1,95,2|0
120,132,67622,1,0
72,204,67872,1,0
20,272,68122,1,2
68,344,68372,2,0,B|180:344,1,95
191,260,68872,6,0,B|304:260,1,95,0|2
364,224,69372,1,0
440,188,69622,1,0
368,144,69872,1,0
292,108,70122,1,2
212,76,70372,1,0
128,76,70622,2,0,B|4:84|16:224,1,190,0|2
88,248,71372,5,0
164,288,71622,1,0
240,328,71872,1,0
316,288,72122,1,2
392,244,72372,1,0
460,192,72622,2,0,B|484:68|368:0,1,190,0|2
328,72,73372,5,0
256,116,73622,1,0
256,32,73872,1,0
180,72,74122,1,2
96,72,74372,1,0
20,32,74622,2,0,B|20:168,1,95
92,172,75122,6,0,B|72:276|116:308|208:296|224:256|216:204|200:152,1,285,2|0
272,120,76122,1,2
340,172,76372,1,0
340,172,76622,2,0,B|324:100|372:64|424:100|448:124|400:180|440:180,1,190,0|2
424,252,77372,1,0
384,328,77622,1,0
344,252,77872,1,0
260,252,78122,6,0,B|132:252,1,95,2|0
120,180,78622,2,0,B|332:180,1,190,0|2
256,36,80122,5,2
256,348,81122,1,2
256,188,82122,1,2
488,120,82622,6,0,B|380:120,1,95
296,84,83122,1,4
204,36,83372,1,0
196,36,83497,1,0
188,36,83622,2,0,B|152:140,1,95,2|0
124,224,84122,1,8
256,344,84372,1,0
256,344,84622,2,0,B|256:216,1,95,2|0
256,240,84997,1,8
256,232,85122,1,8
456,188,85372,5,8
364,140,85622,2,0,B|364:24,1,95,2|0
268,92,86122,1,8
120,92,86372,1,0
268,92,86622,1,8
196,168,86872,1,8
196,176,86997,1,0
196,184,87122,5,4
268,260,87372,1,0
328,176,87622,1,2
480,172,87872,1,0
480,181,87997,1,0
480,191,88122,2,0,B|480:295,1,95,8|0
372,312,88622,2,0,B|372:204,1,95,2|0
371,205,88997,1,8
371,195,89122,1,8
371,90,89372,5,8
280,40,89622,2,0,B|160:40,1,95,2|0
72,112,90122,1,8
148,172,90372,1,0
92,244,90622,2,0,B|140:268,1,47.5,0|0
84,280,90872,2,0,B|132:264,1,47.5
104,304,91122,2,0,B|132:268,1,47.5,4|0
252,340,91622,6,0,B|336:268|440:316,1,190,2|8
328,280,92372,1,0
312,260,92497,1,0
296,240,92622,2,0,B|236:168,1,95,8|0
332,60,93122,2,8,B|400:136,1,95
236,167,93622,5,2
144,116,93872,2,0,B|40:116,1,95,0|8
72,240,94372,1,0
92,240,94497,1,0
112,240,94622,2,8,B|220:240,1,95,0|8
284,168,95122,5,8
408,116,95372,2,0,B|408:224,1,95,0|2
308,228,95872,1,0
300,220,95997,1,0
292,212,96122,2,0,B|292:116,1,95,8|0
184,56,96622,1,2
72,112,96872,1,0
68,124,96997,1,8
64,136,97122,6,8,B|88:244,1,95
196,248,97622,1,2
272,332,97872,1,0
344,244,98122,1,8
276,176,98372,1,0
352,120,98622,1,0
276,64,98872,1,0
220,28,99122,5,4
156,24,99372,1,2
128,80,99622,2,0,B|136:128|140:180,1,95,0|0
32,192,100122,2,0,B|84:268|160:360,1,190,8|0
36,304,100872,5,0
60,288,100997,1,0
84,272,101122,1,0
168,248,101372,1,0
240,296,101622,1,0
320,256,101872,1,2
456,316,102122,6,0,B|444:208|332:176,1,190,8|0
268,164,102872,1,0
192,160,103122,2,0,B|80:164|76:172,1,95
16,168,103622,1,0
88,144,103872,1,0
148,96,104122,1,8
192,36,104372,1,0
272,36,104622,6,0,B|264:104|256:136,1,95
184,184,105122,1,0
252,248,105372,1,0
336,192,105622,1,0
264,128,105872,1,2
340,60,106122,6,0,B|400:108|440:184,1,142.5,8|0
456,152,106622,2,0,B|436:248,1,95,0|8
364,308,107122,5,0
296,288,107372,1,0
348,236,107622,2,0,B|296:216|248:184,1,95,0|0
244,120,108122,2,0,B|268:216|204:300,1,190,8|0
128,208,108872,5,0
116,232,108997,1,0
96,244,109122,1,0
32,280,109372,1,0
60,180,109622,1,0
144,248,109872,1,0
176,148,110122,2,0,B|104:80|32:20,1,190,8|0
48,96,110872,5,0
128,88,111122,2,0,B|168:56|224:48,1,95
288,72,111622,1,0
224,128,111872,1,0
180,196,112122,1,8
256,192,112372,1,0
332,188,112622,5,0
428,152,112872,1,0
448,176,112997,1,0
460,208,113122,1,2
364,224,113372,1,0
288,276,113622,1,2
392,288,113872,2,0,B|432:340|452:368,1,95,0|8
472,276,114372,5,0
364,224,114622,2,0,B|336:176|304:128,1,95,8|0
256,48,115122,6,0,B|212:60|212:60|168:68|168:68|68:96,1,190,4|0
20,160,115872,1,0
40,176,115997,1,0
64,192,116122,2,0,B|172:192,1,95,8|0
256,176,116622,1,0
412,160,116872,1,8
432,176,116997,1,0
452,192,117122,2,0,B|352:192,1,95,0|8
256,116,117622,5,0
64,192,117872,2,0,B|172:192,1,95,0|8
452,192,118622,2,0,B|352:192,1,95,0|2
256,116,119122,2,0,B|256:312,1,190
256,216,119872,1,0
256,116,120122,6,0,B|256:28,3,63.3333333333333,8|0|0|0
256,216,120872,1,8
288,192,120997,1,0
320,168,121122,1,0
448,188,121372,2,0,B|356:236,1,95,8|0
256,216,121872,1,0
344,308,122122,6,0,B|420:352,3,63.3333333333333,8|0|0|0
256,216,122872,1,0
256,192,123122,12,8,124122
284,144,124622,5,0
372,104,124872,2,8,B|372:48,2,47.5,8|0|0
460,144,125372,1,8
256,340,125872,5,0
176,292,126122,2,0,B|176:168,2,95,8|0|0
252,32,127122,1,0
476,312,127872,5,0
392,268,128122,1,8
80,236,128622,6,0,B|168:180,1,95,0|8
171,179,128997,1,0
180,174,129122,1,0
252,112,129372,1,0
176,52,129622,1,8
80,52,129872,5,0
4,140,130122,1,8
8,152,130247,1,0
11,162,130372,1,0
48,247,130622,1,8
54,228,130747,1,0
60,208,130872,2,8,B|80:156,1,47.5,0|4
116,36,131372,5,0
232,100,131622,1,0
324,168,131872,2,0,B|444:164,1,95,0|8
316,88,132372,1,0
276,104,132497,1,0
232,100,132622,1,0
120,84,132872,5,0
92,224,133122,1,8
116,276,133247,1,0
140,328,133372,1,0
168,376,133497,2,0,B|240:352|332:344,1,142.5,0|0
364,336,133997,1,0
420,336,134122,1,8
480,200,134372,5,0
436,124,134622,2,0,B|364:136|316:88,1,95
312,60,134997,1,0
252,60,135122,2,0,B|260:136|179:190,1,142.499995753169,8|0
96,108,135872,1,0
108,168,135997,1,0
124,224,136122,2,0,B|96:332,1,95,8|0
316,336,136622,6,0,B|336:224,1,95
444,212,137122,1,8
440,156,137247,1,0
416,104,137372,1,0
384,56,137497,1,0
332,36,137622,2,0,B|292:16|232:32,1,95
184,128,138122,2,0,B|84:144|44:68,1,142.499995753169,8|0
104,264,138872,1,0
192,244,139122,6,0,B|240:244|316:204,1,95,12|0
332,188,139497,1,0
368,144,139622,1,0
256,64,139872,2,0,B|148:52,1,95,0|8
104,48,140247,1,0
48,60,140372,1,0
32,116,140497,1,0
68,160,140622,2,0,B|112:216|88:316,1,142.499995753169,0|8
256,360,141372,1,0
376,288,141622,5,0
432,196,141872,1,0
344,132,142122,1,8
240,180,142372,1,0
208,148,142497,1,0
172,116,142622,2,0,B|172:220,1,95,0|0
256,352,143122,1,12
380,236,143497,1,0
380,248,143622,1,0
476,188,143872,5,0
380,96,144122,1,8
244,164,144372,1,0
220,144,144497,1,0
196,124,144622,5,0
104,60,144872,2,0,B|60:108|4:52,1,95,0|8
60,28,145372,1,0
32,156,145622,1,0
120,268,145872,1,0
256,340,146122,1,8
424,356,146372,1,0
368,256,146622,6,0,B|340:200,1,47.5
332,220,146997,2,0,B|320:280,1,47.5,0|12
208,276,147372,1,0
124,200,147622,2,0,B|176:112,1,95
200,68,147997,1,0
232,20,148122,1,8
368,60,148372,5,0
400,168,148622,1,0
368,276,148872,2,0,B|308:320,1,47.5,0|0
380,332,149122,2,0,B|252:352|252:364,1,95,8|0
232,216,149622,2,0,B|352:196,1,95,0|0
436,180,150122,1,8
348,108,150372,5,0
296,88,150497,1,0
244,68,150622,2,0,B|136:68,1,95,0|0
68,196,151122,5,8
157,190,151372,2,0,B|185:246,2,47.5
156,188,151872,2,0,B|192:152|256:164,1,95,0|8
368,228,152372,1,0
484,148,152622,5,0
388,88,152872,2,0,B|332:128,1,47.5
296,96,153122,2,0,B|292:184|384:176,1,95,8|0
208,232,153622,2,0,B|212:144|120:152,1,95,0|0
84,236,154122,1,8
200,300,154372,5,0
344,252,154622,1,0
432,104,154872,1,0
344,32,155122,6,0,B|280:72|208:64,1,142.5,12|0
236,36,155622,2,0,B|204:156,1,95,0|0
288,240,156122,2,0,B|312:128,1,95,8|0
460,148,156622,2,0,B|424:316,1,142.5
404,264,157122,2,0,B|428:168,1,95,8|0
360,104,157622,5,0
272,68,157872,1,0
176,68,158122,1,8
88,100,158372,1,0
176,68,158622,1,8
272,68,158872,1,8
360,104,159122,1,8
256,192,159247,12,0,161122
84,52,161372,5,8
136,108,161622,1,0
212,108,161872,1,8
236,80,161997,1,0
260,48,162122,1,0
336,44,162372,2,0,B|392:120,1,95,8|0
432,124,162747,1,0
420,88,162872,2,0,B|384:32,1,47.5,0|4
360,136,163372,5,0
324,224,163622,1,0
284,136,163872,2,0,B|252:224,1,95,0|8
216,316,164372,1,0
180,228,164622,2,0,B|136:328,1,95,0|8
132,268,164997,2,8,B|128:212,1,47.5,0|0
120,88,165372,5,8
188,20,165622,2,0,B|196:136,1,95,0|0
240,104,165997,2,0,B|212:56,1,47.5,0|8
276,172,166372,1,0
332,284,166622,2,0,B|400:284,3,47.5,8|0|0|0
379,331,167122,6,0,B|424:280|372:240,2,95,8|0|0
264,288,167872,1,0
148,328,168122,2,0,B|116:216,1,95,8|0
92,152,168622,1,0
91,152,168872,2,0,B|43:120,2,47.5,8|0|0
208,180,169372,1,8
284,124,169622,6,0,B|352:160|388:72,2,95,0|0|8
317,68,170372,1,0
224,64,170622,1,0
208,175,170872,1,0
206,176,171122,2,0,B|242:288|162:364,1,190,4|0
120,252,171872,1,0
56,180,172122,6,0,B|32:68,1,95,8|0
76,60,172497,2,0,B|80:112,1,47.5,0|2
168,200,172872,2,8,B|188:140,1,47.5
220,124,173122,2,0,B|232:236,1,95,8|0
324,192,173622,1,2
420,204,173872,1,0
500,256,174122,1,8
420,204,174372,6,0,B|320:192,1,95,0|0
316,192,174747,1,0
308,192,174872,1,0
300,192,174997,1,0
292,192,175122,2,0,B|252:292|216:292,1,95,4|0
60,72,175872,1,8
60,72,176122,2,0,B|16:136|8:200,1,95
164,184,176622,1,4
376,56,177122,6,0,B|420:156,2,95,0|8|0
444,208,177872,2,0,B|488:308,2,95,0|8|0
420,192,178497,1,0
392,184,178622,2,0,B|308:196,1,47.5
320,200,178872,1,0
292,212,178997,2,0,B|248:260,1,47.5,0|4
172,304,179372,5,0
100,228,179622,1,0
124,156,179872,1,0
200,144,180122,1,8
256,236,180372,1,0
360,264,180622,5,0
416,212,180872,1,0
372,148,181122,1,0
300,176,181372,1,8
232,72,181622,1,0
336,56,181872,5,0
300,124,182122,1,8
228,148,182372,1,0
180,208,182622,1,0
264,284,182872,1,0
180,360,183122,1,8
116,304,183372,5,0
36,336,183622,1,0
40,252,183872,1,0
48,168,184122,1,8
108,228,184372,1,0
48,168,184622,1,0
160,120,184872,5,0
60,92,185122,1,0
116,28,185372,1,8
200,40,185622,1,0
280,72,185872,1,0
352,120,186122,1,8
416,204,186372,5,0
448,324,186622,1,0
356,348,186872,1,0
264,324,187122,1,4
188,336,187372,5,0
112,324,187622,1,0
36,336,187872,1,0
64,264,188122,1,8
112,216,188372,5,0
52,188,188622,1,0
104,148,188872,1,0
168,172,189122,1,8
244,112,189372,5,8
320,56,189622,1,0
228,32,189872,1,0
244,112,190122,1,8
168,172,190372,1,0
72,160,190622,6,0,B|44:268|112:352,2,190,0|4|0
156,244,191872,1,0
240,320,192122,2,0,B|268:212|200:128,2,190,8|4|0
316,276,193372,1,8
396,304,193622,5,0
464,72,194122,1,8
300,120,194622,1,0
256,188,194872,1,0
256,192,195122,5,4
256,192,195247,12,0,198372
