osu file format v9

[General]
AudioFilename: YuiKaori - Our Steady Boy (TV Size).mp3
AudioLeadIn: 2000
PreviewTime: 62048
Countdown: 0
SampleSet: Soft
StackLeniency: 0.4
Mode: 0
LetterboxInBreaks: 0

[Editor]
DistanceSpacing: 1
BeatDivisor: 4
GridSize: 8

[Metadata]
Title:Our Steady Boy (TV Size)
Artist:YuiKaori
Creator:osuplayer111
Version:Our Steady Kite
Source:kissxsis
Tags:Ogura Yui Ishihara Kaori Ako Riko Ecchi ykcarrot Vicho-kun kanpakyin Kite

[Difficulty]
HPDrainRate:3
CircleSize:4
OverallDifficulty:3
ApproachRate:5
SliderMultiplier:1.2
SliderTickRate:1

[Events]
//Background and Video events
0,0,"kissxsisBG.jpg"
Video,400,"KissXsis Ending Creditless.avi"
//Break Periods
//Storyboard Layer 0 (Background)
//Storyboard Layer 1 (Fail)
//Storyboard Layer 2 (Pass)
//Storyboard Layer 3 (Foreground)
//Storyboard Sound Samples
//Background Colour Transformations
3,100,0,128,255

[TimingPoints]
1090,346.820809248555,4,2,1,70,1,0
2477,-100,4,2,1,75,0,0
5165,-100,4,2,1,80,0,0
18864,-100,4,1,0,70,0,0
19037,-100,4,2,1,80,0,0
20078,-100,4,2,1,5,0,0
20251,-100,4,2,1,80,0,0
28402,-100,4,2,1,5,0,0
28575,-100,4,2,1,80,0,0
31176,-100,4,2,1,5,0,0
31350,-100,4,2,1,80,0,0
39500,-100,4,2,1,5,0,0
39673,-100,4,2,1,80,0,0
42274,-100,4,2,1,5,0,0
42448,-100,4,2,1,80,0,0
49905,-100,4,2,1,5,0,0
50078,-100,4,2,1,80,0,0
54066,-100,4,2,1,5,0,0
54240,-100,4,2,1,80,0,0
59789,-100,4,2,2,80,0,0
61610,-100,4,2,1,80,0,0
62130,-100,4,2,1,80,0,1
62390,-100,4,2,1,5,0,1
62563,-100,4,2,1,80,0,1
65511,-100,4,2,1,5,0,1
65685,-100,4,2,1,80,0,1
73142,-100,4,2,1,80,0,0
73228,-100,4,2,1,80,0,1
74182,-100,4,2,1,5,0,1
74355,-100,4,2,1,80,0,1
76610,-100,4,2,1,5,0,1
76783,-100,4,2,1,80,0,1
84326,-100,4,2,1,80,0,0

[Colours]
Combo1 : 128,0,255
Combo2 : 0,128,255
Combo3 : 0,255,128
Combo4 : 255,0,128

[HitObjects]
256,120,1090,2,0,B|320:128|344:192,1,120,2|0
256,264,1783,2,0,B|192:256|168:192,1,120,2|0
144,72,2477,5,2
256,40,2824,1,0
368,72,3170,1,2
336,184,3517,2,0,B|288:224|224:224|168:184,1,180,0|0
72,120,4384,1,0
72,120,4558,2,0,B|72:240,1,120,2|0
160,320,5251,6,0,B|264:248|392:288,2,240,4|0|8
128,144,7159,2,0,B|96:200,4,60,2|0|0|2|0
288,64,8373,5,2
400,96,8720,2,0,B|464:176|408:264,2,180,0|8|0
280,88,10107,6,0,B|232:48|168:56,1,120,2|0
168,55,10627,2,0,B|168:120|112:160,1,120,0|2
168,264,11321,6,0,B|152:297|128:312,2,60,0|4|0
232,256,11841,2,0,B|247:222|272:208,2,60,0|0|4
320,336,12535,1,0
424,280,12881,1,4
480,112,13402,6,0,B|413:115|365:83,1,120,4|0
328,128,13922,1,8
312,184,14095,2,0,B|256:224|200:184,1,120,4|0
184,128,14616,1,8
146,83,14789,2,0,B|98:115|32:112,2,120,4|0|0
192,48,15656,5,4
320,48,16003,1,4
256,152,16350,1,8
256,152,16523,6,0,B|200:184|216:256,1,120,4|2
256,304,17043,2,0,B|312:272|296:200,1,120,4|2
296,200,17563,1,4
312,80,17910,5,2
256,64,18084,1,0
200,80,18257,1,4
112,304,18951,6,0,B|160:264|224:288,1,120,4|0
272,328,19471,1,10
272,328,19818,2,0,B|360:328|416:272|408:168,1,240,0|2
352,152,20685,2,0,B|336:88|272:64,1,120,0|2
160,48,21379,2,0,B|176:112|240:136,1,120,0|2
256,256,22072,5,0
256,256,22246,2,0,B|224:312|152:320,1,120,10|0
40,304,22939,2,0,B|72:248|144:240,1,120,8|4
224,152,23633,1,8
224,152,23806,2,0,B|168:72|64:80,1,180,4|8
256,192,24673,12,4,26754
320,336,27448,6,0,B|336:272|400:256,1,120,4|8
456,152,28142,2,0,B|448:88|392:48|328:48,1,180
328,48,28835,1,0
240,128,29182,1,8
120,104,29529,1,0
32,184,29876,1,8
72,296,30222,6,0,B|136:272|192:304,1,120,0|8
304,336,30916,2,0,B|336:272|400:264|464:280,1,180
480,224,31610,2,0,B|456:160|472:104,1,120,0|8
368,48,32303,2,0,B|392:112|376:168,1,120,0|8
296,256,32997,6,0,B|272:192|208:176,1,120,0|8
88,176,33691,2,0,B|112:240|176:256,1,120,0|8
256,344,34384,1,0
360,288,34731,1,8
384,168,35078,1,0
352,56,35425,2,0,B|304:96|240:88,1,120,8|0
120,56,36118,6,0,B|86:62|64:80,3,60,8|0|0|0
152,160,36985,2,0,B|144:232|80:256,1,120,4|0
80,312,37506,1,8
120,352,37679,1,0
176,344,37853,1,2
256,248,38199,1,8
248,128,38546,6,0,B|296:88|360:96,1,120,4|8
448,176,39240,2,0,B|464:248|424:304|360:312,1,180
364,311,39933,1,0
280,232,40280,1,8
192,312,40627,1,0
112,224,40974,1,8
200,144,41321,6,0,B|192:80|144:40,1,120,0|8
32,72,42014,2,0,B|32:256,1,180
64,304,42708,2,0,B|128:288|184:320,1,120,0|8
264,232,43402,2,0,B|200:248|144:216,1,120,0|8
144,96,44095,6,0,B|208:112|256:72,1,120,4|8
368,96,44789,2,0,B|304:112|256:72,1,120,4|8
256,192,45483,1,4
320,296,45829,1,8
192,296,46176,1,4
256,192,46523,1,8
136,176,46870,6,0,B|200:72,1,120,4|2
313,73,47563,2,0,B|376:176,1,120,4|2
201,232,48431,2,0,B|257:256,1,60,4|2
311,231,48777,2,0,B|255:255,1,60,2|4
256,136,49298,1,8
144,96,49644,6,0,B|152:192|64:248,2,180,4|0|8
256,56,51032,1,0
368,96,51379,2,0,B|400:152|376:216,1,120,8|0
304,304,52072,2,0,B|272:248|296:184,2,120,8|0|8
184,320,53113,5,0
72,280,53459,1,8
152,192,53806,2,0,B|144:96|232:40,2,180,4|4|8
256,256,55194,6,0,B|328:248|360:304,2,120,4|8|0
152,192,56234,1,8
256,128,56581,2,0,B|184:136|152:80,2,120,4|8|0
360,192,57621,1,8
416,296,57968,6,0,B|368:336|304:320,1,120,4|8
96,296,58662,2,0,B|144:336|208:320,1,120,4|8
256,208,59355,1,4
136,72,59876,6,8,B|168:128,2,60
256,64,60569,1,8
376,72,60916,2,8,B|344:128,2,60
376,72,61436,2,8,B|440:72|472:136,1,120
440,248,62130,6,0,B|376:360|232:328,1,240,4|2
233,328,62997,2,0,B|224:264|168:232,2,120,0|4|0
112,304,64037,1,0
112,304,64211,2,0,B|56:272|47:208,1,120
168,216,64905,1,0
88,128,65251,6,4,B|136:48|248:72,1,180,4|2
360,112,66118,2,0,B|328:168|256:160,1,120,4|2
160,224,66812,5,0
40,216,67159,2,0,B|40:336,2,120,0|2|0
80,104,68199,2,0,B|144:88|192:136,1,120,2|0
256,232,68893,2,0,B|192:248|144:200,2,120,2|0|0
336,320,69933,6,0,B|368:328|400:320,3,60,0|8|0|4
432,208,70800,1,8
368,104,71147,1,4
256,64,71494,1,8
144,104,71841,1,4
80,208,72188,1,8
116,321,72535,2,0,B|144:328|176:320,2,60,0|0|8
80,208,73228,5,4
80,208,73575,1,8
80,208,73922,2,0,B|168:176|192:72,1,180,2|2
312,72,74789,6,0,B|272:120|272:184,1,120,0|2
320,288,75483,2,0,B|360:240|360:176,1,120,0|2
359,177,76003,1,0
424,80,76350,6,0,B|352:16|256:48,1,180,4|2
144,88,77217,2,0,B|200:120|200:192,1,120,4|2
160,304,77910,6,0,B|104:272|104:200,2,120,0|2|0
256,232,78951,1,2
352,304,79298,2,0,B|408:272|408:200,1,120,0|2
408,205,79818,2,0,B|407:137|463:105,2,120,8|4|8
320,120,80858,1,4
152,56,81379,6,0,B|88:80|72:152,1,120,4|0
40,192,81899,1,8
74,242,82072,2,0,B|88:304|152:328,2,120,4|0|2
184,192,83113,6,0,B|248:192,1,60,0|8
312,88,83633,1,2
376,192,83980,1,8
312,296,84326,1,0
256,192,84500,12,4,89009
