osu file format v9

[General]
AudioFilename: YuiKaori - Our Steady Boy (TV Size).mp3
AudioLeadIn: 2000
PreviewTime: 62048
Countdown: 0
SampleSet: Soft
StackLeniency: 0.4
Mode: 0
LetterboxInBreaks: 0

[Editor]
Bookmarks: 5251,19124,27448,38546,49644,62130,73228,84326
DistanceSpacing: 1
BeatDivisor: 4
GridSize: 4

[Metadata]
Title:Our Steady Boy (TV Size)
Artist:YuiKaori
Creator:osuplayer111
Version:Our Steady Carrot
Source:kissxsis
Tags:Ogura Yui Ishihara Kaori Ako Riko Ecchi ykcarrot Vicho-kun kanpakyin Kite

[Difficulty]
HPDrainRate:4
CircleSize:4
OverallDifficulty:6
ApproachRate:7
SliderMultiplier:1.6
SliderTickRate:0.5

[Events]
//Background and Video events
0,0,"kissxsisBG.jpg"
Video,400,"KissXsis Ending Creditless.avi"
//Break Periods
2,19150,23773
//Storyboard Layer 0 (Background)
//Storyboard Layer 1 (Fail)
//Storyboard Layer 2 (Pass)
//Storyboard Layer 3 (Foreground)
//Storyboard Sound Samples
//Background Colour Transformations
3,100,0,128,255

[TimingPoints]
1090,346.820809248555,4,2,1,60,1,0
13315,-100,4,1,0,50,0,0
15396,-100,4,2,1,60,0,0
16436,-100,4,1,0,50,0,0
36899,-100,4,2,1,60,0,0
38286,-100,4,1,0,50,0,0
48257,-100,4,2,1,60,0,0
49471,-100,4,1,0,50,0,0
62130,-100,4,1,0,50,0,1
73142,-100,4,1,0,50,0,0
73228,-100,4,1,0,50,0,1
83373,-100,4,2,1,60,0,1
84326,-100,4,1,0,50,0,0

[Colours]
Combo1 : 128,0,255
Combo2 : 0,128,255
Combo3 : 0,255,128
Combo4 : 255,0,128

[HitObjects]
256,288,1090,1,2
336,288,1263,2,0,B|380:288|408:248,2,80
256,288,1783,1,2
176,288,1957,2,0,B|132:288|104:248,2,80
176,208,2477,5,2
336,208,2824,1,0
176,208,3170,1,2
336,208,3517,1,0
256,208,3691,2,0,B|228:284|284:284|256:364,2,160,2|2|2
256,132,4558,1,2
256,52,4731,6,0,B|256:4,6,40,0|0|0|0|0|0|12
136,348,5945,1,0
376,348,6465,2,0,B|420:348|452:316,2,80,8|8|8
336,192,7159,5,0
296,124,7332,1,0
216,124,7506,1,0
176,192,7679,1,0
256,192,7853,2,0,B|256:276,1,80,0|8
180,44,8373,6,0,B|256:0|332:44,1,160
332,124,8893,2,0,B|256:168|180:124,1,160,0|8
180,124,9413,1,8
180,124,9587,1,8
256,352,9933,5,0
256,352,10020,1,0
256,352,10107,2,0,B|304:352|336:304,1,80,8|8
376,256,10454,1,0
412,184,10627,2,0,B|456:200|456:256,2,80,0|12|0
180,124,11321,5,0
112,80,11494,1,12
44,124,11668,1,8
44,204,11841,1,0
112,248,12014,1,0
180,204,12188,2,0,B|256:244|256:340,2,160,12|8|8
112,164,13055,2,8,B|64:164,2,40
180,124,13402,6,0,B|256:80|332:124,1,160,4|0
292,192,13922,1,8
372,192,14095,2,0,B|372:284|316:336,1,160,4|0
256,284,14616,1,8
196,336,14789,2,0,B|140:288|140:188,1,160,4|0
220,192,15309,1,8
256,120,15483,5,8
324,72,15656,1,12
324,72,16003,2,0,B|296:24|216:24|188:72,1,160,12|0
128,124,16523,5,6
256,328,16870,1,2
256,328,17043,1,6
384,124,17390,1,2
384,124,17563,2,0,B|392:224|316:256,1,160,6|2
196,256,18084,1,2
196,256,18257,2,0,B|120:224|128:124,1,160,6|0
256,124,18777,2,0,B|256:208,1,80,0|4
164,272,24673,6,0,B|164:356,1,80,6|0
256,272,25020,2,0,B|256:356,1,80,6|0
348,272,25367,2,0,B|348:356,1,80,6|2
324,68,25887,6,2,B|300:20|212:20|188:68,1,160
256,112,26407,2,2,B|256:200,2,80
60,248,27274,5,0
104,316,27448,1,4
184,316,27621,1,0
228,248,27795,2,0,B|316:248|376:304,1,160,8|0
436,352,28315,2,0,B|472:332|472:280,1,80,0|8
472,204,28662,5,0
392,204,28835,2,0,B|392:112|472:72,2,160,0|8|0
392,284,29702,2,0,B|356:312|320:284,1,80,0|8
256,232,30049,5,0
196,284,30222,1,0
116,284,30396,1,0
56,232,30569,2,0,B|12:156|56:80,1,160,8|0
136,80,31090,2,0,B|216:80,1,80,0|8
296,80,31436,5,0
376,80,31610,2,0,B|468:80|496:180,2,160,0|8|0
376,160,32477,2,0,B|376:208|332:232,1,80,0|8
280,284,32824,5,0
280,284,32910,1,0
280,284,32997,2,0,B|220:252|164:284,1,120
128,300,33344,2,0,B|84:284|84:232,1,80,8|0
84,160,33691,2,0,B|40:160|16:200,2,80,0|0|8
324,96,34384,22,0,B|292:56|256:92|256:92|220:56|188:96,2,160,0|8|0
312,176,35251,1,0
312,176,35425,2,0,B|256:232|256:232|200:176,1,160,8|0
140,324,36118,5,8
216,352,36292,1,0
296,352,36465,1,0
372,324,36639,2,0,B|412:308|432:268,1,80,0|8
460,196,36985,6,0,B|460:108|376:72,1,160,12|8
296,56,37506,1,8
216,56,37679,1,8
144,88,37853,2,0,B|140:96|140:96|148:104|148:104|140:112|140:112|148:120|148:120|140:128|140:128|148:136|148:136|140:144|140:144|148:152|148:152|140:160|140:160|148:168|148:168|140:176|140:176|148:184|148:184|140:192|140:192|148:200|148:200|144:208,1,160,12|2
144,284,38373,6,0,B|100:284|72:328,2,80,0|4|0
224,284,38893,2,0,B|256:332|328:332|360:284,1,160,8|0
360,284,39413,1,0
360,284,39587,1,8
292,240,39760,5,0
292,240,39933,2,0,B|292:76,2,160,0|8|0
224,284,40800,1,0
224,284,40974,1,8
144,284,41147,6,0,B|100:284|76:244,2,80
144,204,41668,2,0,B|144:36,1,160,8|0
144,44,42188,1,0
144,44,42361,1,8
212,88,42535,5,0
212,88,42708,2,0,B|180:136|108:136|76:88,2,160,0|8|0
256,20,43575,1,0
256,20,43748,1,8
300,88,43922,5,0
300,88,44009,1,0
300,88,44095,2,0,B|300:152|368:184,1,120
404,184,44442,2,0,B|428:220|404:260,1,80,8|0
368,332,44789,2,0,B|404:360|440:332,2,80,0|0|8
296,300,45309,5,0
216,300,45483,1,0
256,64,45829,1,8
296,300,46176,2,0,B|296:344|256:364,2,80,0|0|8
512,192,46870,5,2
256,364,47217,1,2
0,192,47563,1,2
256,20,47910,1,2
336,364,48431,5,12
296,296,48604,1,12
216,296,48777,1,12
176,364,48951,2,0,B|84:364|44:284,1,160,12|0
180,88,49644,6,0,B|224:164|180:240,1,160,4|8
180,320,50165,2,0,B|256:364|332:320,1,160
332,240,50685,2,0,B|288:164|332:88,1,160,8|0
92,92,51379,6,0,B|48:108|48:156,1,80,8|0
48,232,51725,2,0,B|48:276|92:292,2,80,0|0|8
116,192,52246,1,0
116,192,52419,2,0,B|280:192,1,160,0|8
492,88,53113,6,0,B|452:48|388:48|348:88,1,160,0|8
380,160,53633,1,0
380,160,53806,2,0,B|380:336,1,160,4|8
460,320,54326,2,0,B|460:148,1,160,4|8
460,160,54847,1,8
420,88,55020,5,0
420,88,55194,2,0,B|436:68|476:68|492:88,2,80,4|0|8
356,136,55714,2,0,B|308:212|204:212|156:136,1,240,0|8
92,88,56407,5,0
92,88,56494,1,0
92,88,56581,2,0,B|76:68|36:68|20:88,2,80,4|0|8
156,136,57101,2,0,B|204:212|308:212|356:136,1,240,0|8
176,292,57968,6,0,B|256:292,1,80,12|0
336,292,58315,2,0,B|256:292,1,80,8|0
256,212,58662,2,0,B|212:212|188:172,2,80,8|0|8
256,132,59182,1,0
256,212,59355,2,0,B|300:212|324:172,2,80,12|0|0
256,132,59876,5,8
256,132,60049,1,8
256,132,60222,2,0,B|256:44,1,80,8|0
336,52,60569,2,0,B|376:52|376:52|412:76,2,80,8|10|10
176,52,61090,2,0,B|136:52|136:52|100:76,2,80,10|10|10
256,192,61610,2,0,B|256:236,2,40,0|0|4
176,332,62130,6,0,B|92:332|48:248,2,160,4|8|0
220,264,62997,2,0,B|240:244|272:244|292:264,1,80,0|8
336,332,63344,2,0,B|420:332|464:248,1,160
468,168,63864,1,8
400,128,64037,5,0
400,48,64211,2,0,B|444:48|468:88,2,80,0|0|8
320,48,64731,2,0,B|260:108,1,80
96,276,65251,5,2
96,276,65598,2,0,B|8:276,2,80,2|2|8
176,256,66118,2,2,B|228:236|228:148|176:128,1,160,2|0
96,108,66639,1,8
96,192,66812,6,0,B|12:192,2,80
176,192,67332,1,8
256,192,67506,2,0,B|344:192|384:272,1,160
424,340,68026,1,8
344,340,68199,6,0,B|256:340,2,80
424,340,68720,1,8
384,272,68893,2,0,B|344:192|256:192,1,160
184,160,69413,2,0,B|124:160|124:48|184:48,1,160,8|0
256,12,69933,6,0,B|284:48|256:84,2,80,0|8|0
256,12,70454,1,2
0,192,70800,1,2
256,372,71147,1,2
512,192,71494,5,2
512,192,71668,1,0
512,192,71841,2,0,B|512:148|472:120,2,80,2|2|0
512,272,72361,2,2,B|436:320|360:272,1,160,2|0
280,272,72881,2,0,B|280:224|316:204,1,80,8|8
368,148,73228,6,0,B|452:180|452:280,2,160,4|8|0
292,124,74095,2,0,B|268:144|244:144|220:124,1,80,0|8
144,148,74442,2,0,B|60:180|60:280,1,160
60,352,74962,1,8
132,312,75136,5,0
212,312,75309,2,0,B|212:356|176:380,2,80,0|0|8
212,232,75829,2,0,B|284:172,1,80,0|0
460,32,76350,5,2
460,32,76696,2,0,B|504:52|504:96,2,80,2|2|8
420,104,77217,2,2,B|344:148|268:104,1,160,2|0
200,64,77737,1,8
120,64,77910,5,0
80,132,78084,2,0,B|32:132|12:88,2,80,0|0|8
160,132,78604,2,0,B|208:132|228:176,2,80,0|6|0
120,200,79124,1,8
120,280,79298,5,0
120,360,79471,2,0,B|168:360|192:312,1,80,6|0
236,260,79818,2,0,B|256:240|288:240|308:260,1,80,8|0
376,304,80165,2,0,B|468:304|488:204,2,160,6|2|2
376,224,81032,2,0,B|376:140,1,80,8|8
324,84,81379,6,0,B|292:36|220:36|188:84,1,160,4|0
136,144,81899,1,8
216,156,82072,2,0,B|216:220|296:220|296:292,1,160,4|0
256,356,82592,1,8
216,288,82766,2,0,B|216:220|296:220|296:156,1,160,4|0
376,144,83286,1,8
324,84,83459,5,8
324,84,83546,1,8
324,84,83633,2,0,B|292:36|220:36|188:84,2,160,12|12|0
256,132,84500,6,0,B|256:296,1,160,6|2
256,372,85020,1,4
176,372,85194,2,0,B|120:372,2,40,0|0|2
176,292,85540,6,0,B|128:264|128:184|176:156,1,160,6|2
256,132,86061,1,2
336,156,86234,2,0,B|384:184|384:264|336:292,1,160,6|0
256,316,86754,2,0,B|256:228,1,80,0|4
256,28,87274,5,6
256,28,87621,1,2
256,132,87795,1,6
256,132,88142,1,2
256,236,88315,5,6
256,236,88662,1,6
320,348,88835,1,6
192,348,89009,1,6
