osu file format v9

[General]
AudioFilename: YuiKaori - Our Steady Boy (TV Size).mp3
AudioLeadIn: 2000
PreviewTime: 62048
Countdown: 0
SampleSet: Soft
StackLeniency: 0.4
Mode: 0
LetterboxInBreaks: 0

[Editor]
DistanceSpacing: 1
BeatDivisor: 4
GridSize: 8

[Metadata]
Title:Our Steady Boy (TV Size)
Artist:YuiKaori
Creator:osuplayer111
Version:Our Steady Andrea
Source:kissxsis
Tags:Ogura Yui Ishihara Kaori Ako Riko Ecchi ykcarrot Vicho-kun kanpakyin Kite

[Difficulty]
HPDrainRate:8
CircleSize:4
OverallDifficulty:8
ApproachRate:8
SliderMultiplier:1.8
SliderTickRate:1

[Events]
//Background and Video events
0,0,"kissxsisBG.jpg"
Video,400,"KissXsis Ending Creditless.avi"
//Break Periods
//Storyboard Layer 0 (Background)
//Storyboard Layer 1 (Fail)
//Storyboard Layer 2 (Pass)
//Storyboard Layer 3 (Foreground)
//Storyboard Sound Samples
Sample,33344,0,"soft-hitclap.wav",70
Sample,44442,0,"soft-hitclap.wav",70
Sample,65945,0,"soft-hitclap.wav",70
//Background Colour Transformations
3,100,0,128,255

[TimingPoints]
1090,346.820809248555,4,2,1,70,1,0
2477,-100,4,2,1,75,0,0
4991,-100,4,2,1,70,0,0
5165,-100,4,2,1,80,0,0
59789,-100,4,2,2,80,0,0
61610,-100,4,2,1,80,0,0
62130,-100,4,2,1,80,0,1
73142,-100,4,2,1,80,0,0
73228,-100,4,2,1,80,0,1
84326,-100,4,2,1,80,0,0

[Colours]
Combo1 : 128,0,255
Combo2 : 0,128,255
Combo3 : 0,255,128
Combo4 : 255,0,128

[HitObjects]
120,192,1090,2,0,B|168:176|184:128,1,90,2|0
96,104,1436,1,0
168,56,1610,1,0
256,80,1783,1,2
344,56,1957,1,0
416,104,2130,1,0
392,192,2303,2,0,B|344:176|328:128,1,90,0|2
256,344,2824,6,0,B|256:160,1,180,0|2
112,272,3517,2,0,B|112:320|160:344,1,90,0|2
256,80,4037,1,0
400,272,4384,2,0,B|400:320|352:344,1,90,0|2
312,264,4731,1,8
328,176,4905,1,0
416,184,5078,1,0
400,272,5251,5,4
112,272,5945,1,0
256,48,6465,1,8
256,72,6639,1,8
256,96,6812,1,8
120,136,7159,6,0,B|192:192,1,90
256,248,7506,1,0
320,191,7679,2,0,B|392:136,1,90
456,200,8026,1,8
256,344,8373,1,0
56,200,8720,2,0,B|120:136,1,90
256,40,9240,1,8
256,64,9413,1,8
256,88,9587,1,8
88,336,9933,5,0
112,312,10020,1,0
136,288,10107,2,0,B|160:240|224:240,1,90,8|0
376,288,10454,2,0,B|352:240|288:240,1,90
256,320,10800,1,4
256,64,11321,6,0,B|344:64,1,90,0|4
440,144,11668,2,0,B|352:144,2,90
440,232,12188,2,0,B|376:304|272:272,2,180,4|8|4
512,288,13055,1,0
488,312,13142,1,0
464,336,13228,1,8
376,368,13402,6,0,B|275:398|211:326,1,180,4|0
152,264,13922,1,8
208,192,14095,2,0,B|271:120|372:150,1,180,4|0
464,152,14616,1,8
464,64,14789,2,0,B|272:64,1,180,4|0
192,64,15309,2,0,B|144:64|112:104,1,90,8|0
48,160,15656,2,0,B|48:256|144:304,1,180,4|8
320,64,16350,5,2
320,64,16523,2,4,B|416:64|480:144,1,180,4|2
320,320,17043,2,0,B|416:320|480:240,1,180,4|2
400,192,17563,2,0,B|208:192,1,180,4|2
128,192,18084,1,0
40,192,18257,1,6
224,112,18604,5,8
248,96,18691,1,0
272,80,18777,1,8
296,64,18864,1,0
320,48,18951,2,0,B|424:48|472:136,1,180,4|0
469,252,19471,2,0,B|424:336|320:336,2,180,10|0|8
296,192,20511,6,0,B|184:192,1,90,2|0
160,272,20858,1,8
72,272,21032,2,0,B|24:224|24:160|72:112,1,180,2|0
160,112,21552,1,8
208,192,21725,1,0
296,192,21899,6,0,B|384:192,1,90,4|0
432,272,22246,2,0,B|480:224|480:160|432:112,2,180,10|2|8
384,344,23113,1,2
360,320,23199,1,0
336,296,23286,2,0,B|240:296,1,90,4|0
152,296,23633,1,8
80,240,23806,2,0,B|176:216|208:120,1,180,4|0
305,123,24326,2,0,B|336:216|432:240,1,180,8|4
424,136,24847,5,0
328,40,25020,1,2
184,40,25194,1,0
88,136,25367,1,4
256,192,25540,2,0,B|256:376,2,180,2|4|0
152,272,26407,1,2
256,192,26581,1,0
360,272,26754,1,4
256,117,27014,6,0,B|256:72,1,45,8|8
328,40,27274,1,0
184,40,27448,2,0,B|128:40|104:88,1,90,4|0
48,144,27795,1,8
104,216,27968,1,0
104,216,28055,2,0,B|176:216|216:288,1,135
256,360,28488,1,8
299,283,28662,5,0
336,200,28835,2,0,B|384:240|416:248|448:240|496:200,2,180,0|8|0
416,160,29702,1,0
456,80,29876,1,8
368,80,30049,2,0,B|272:78,1,90
184,80,30396,2,0,B|216:120|185:163,1,90,0|8
136,240,30743,2,0,B|88:240,1,45
166,352,31090,6,0,B|257:352,1,90,0|8
344,352,31436,1,0
392,272,31610,2,0,B|208:272,2,180,0|8|0
432,352,32477,1,0
472,272,32650,1,8
424,192,32824,5,0
352,136,32997,2,0,B|352:56|288:24,2,135
256,112,33691,2,0,B|144:96|88:176,1,180,0|8
256,272,34384,2,0,B|368:288|424:208,1,180,0|8
224,24,35078,2,0,B|112:8|56:88,1,180,0|8
288,360,35772,6,0,B|400:376|456:296,1,180,0|8
464,216,36292,1,0
424,136,36465,1,0
336,112,36639,1,0
256,272,36985,1,4
63,79,37332,1,2
48,168,37506,1,4
88,248,37679,1,2
176,272,37853,1,8
256,112,38199,6,0,B|256:80,4,22.5
208,192,38546,2,0,B|152:176|152:120,1,90,4|0
304,192,38893,2,0,B|360:176|360:120,1,90,8|0
359,129,39153,1,0
128,312,39413,1,0
212,272,39587,1,8
300,272,39760,1,0
384,312,39933,1,0
128,312,40280,1,8
256,22,40627,6,0,B|256:114,1,90,0|2
192,192,40974,2,0,B|88:192,1,90,10|0
320,192,41321,2,0,B|424:192,1,90
256,362,41668,2,0,B|256:270,1,90,8|0
256,272,41928,1,0
64,88,42188,5,0
128,24,42361,1,8
192,88,42535,1,0
256,24,42708,2,0,B|352:24|408:112,1,180,0|8
408,288,43402,5,0
408,288,43575,2,0,B|320:288,1,90,2|10
256,360,43922,1,0
192,288,44095,2,0,B|120:288|80:216,2,135,4|0|2
256,224,44789,1,4
376,88,45136,5,8
312,152,45309,1,0
248,88,45483,2,0,B|152:136|88:48,2,180,4|8|4
184,24,46350,1,0
248,88,46523,1,8
40,192,46870,5,4
160,344,47217,1,2
352,344,47563,1,4
472,192,47910,1,2
96,272,48431,5,4
184,160,48604,1,2
328,160,48777,1,2
416,272,48951,1,4
256,40,49298,1,8
256,344,49644,6,0,B|256:160,1,180,4|8
328,112,50165,2,0,B|304:64|255:55|208:64|184:112,1,180
256,164,50685,1,8
56,192,51032,2,0,B|128:248,1,90
208,296,51379,1,8
304,296,51552,1,0
384,247,51725,2,0,B|456:192,1,90
368,32,52246,5,0
328,112,52419,2,0,B|304:160|255:169|208:160|184:112,2,180,0|8|0
416,112,53286,2,0,B|488:176,1,90,0|8
483,171,53633,1,0
424,240,53806,2,0,B|424:344|304:344,1,180,4|8
206,343,54326,2,0,B|88:344|88:240,1,180,4|8
28,171,54847,1,8
112,128,55020,6,0,B|176:48,1,90,0|4
256,88,55367,1,0
400,128,55540,2,0,B|336:48,1,90,8|2
256,192,56061,2,0,B|256:288,1,90,0|8
328,344,56407,5,2
352,320,56494,1,0
376,296,56581,2,0,B|472:296,1,90,4|0
440,208,56928,1,8
400,128,57101,1,2
112,128,57448,1,0
72,208,57621,1,8
164,32,57968,6,0,B|348:32,1,180,4|8
344,352,58662,1,4
344,352,58835,2,0,B|164:352,1,180
160,264,59355,1,4
208,192,59529,2,0,B|184:160,4,22.5
304,192,59876,1,8
352,264,60049,1,8
256,280,60222,1,8
48,264,60569,5,8
120,152,60743,1,4
168,24,60916,1,10
256,128,61089,1,8
344,24,61263,1,10
392,152,61436,1,4
464,264,61610,2,0,B|496:312,2,45,8|0|8
256,352,62130,5,4
176,192,62477,1,8
256,240,62650,1,0
336,192,62824,2,0,B|376:96|312:24,1,180,2|8
199,24,63344,2,0,B|136:96|176:192,1,180,2|2
256,112,63864,1,10
176,192,64037,6,0,B|104:264,1,90,2|0
336,192,64384,2,0,B|408:264,1,90,0|8
256,292,64731,1,0
256,292,64905,2,0,B|256:108,1,180,0|4
168,352,65598,1,2
168,352,65772,2,0,B|232:376|280:376|344:352,2,180,0|2|2
256,292,66639,1,10
168,264,66812,6,0,B|120:264|88:224,1,90,2|0
344,264,67159,2,0,B|392:264|424:224,1,90,0|8
256,212,67506,2,0,B|256:32,1,180
256,32,68026,1,8
168,32,68199,2,0,B|120:32|88:72,1,90
344,32,68546,2,0,B|392:32|424:72,1,90,0|8
344,112,68893,2,0,B|152:112,1,180
164,112,69413,1,8
96,272,69760,5,0
168,328,69933,1,0
256,352,70107,1,8
344,328,70280,1,0
416,272,70454,2,0,B|352:176|440:112,1,180,4|8
96,272,71147,2,0,B|160:176|72:112,1,180,4|8
168,96,71668,1,0
256,120,71841,1,4
344,96,72014,1,0
256,352,72361,5,2
256,32,72708,1,0
256,120,72881,1,10
256,144,72968,1,0
256,168,73055,1,0
256,192,73142,1,0
256,216,73228,6,0,B|312:296|416:296,1,180,4|8
360,200,73748,1,0
256,216,73922,2,0,B|200:296|96:296,1,180,0|8
152,200,74442,1,2
64,40,74789,6,0,B|112:40|144:80,1,90,2|10
208,144,75136,1,2
304,144,75309,1,0
369,77,75483,2,0,B|400:40|448:40,1,90,0|8
448,128,75829,2,0,B|384:208|304:232,1,180
64,128,76350,6,0,B|128:208|207:231,1,180,4|2
256,304,76870,1,0
256,304,77217,2,0,B|440:304,1,180,2|2
480,224,77737,2,0,B|384:224,1,90,10|2
296,224,78084,1,0
336,144,78257,2,0,B|440:144,1,90,0|8
376,64,78604,2,0,B|192:64,1,180
196,64,79124,1,8
136,128,79298,6,0,B|64:192,1,90,0|4
64,320,79644,2,0,B|136:256,1,90,0|8
192,200,79991,1,0
224,288,80165,2,0,B|288:360|392:344,2,180,4|8|2
288,224,81032,1,0
368,264,81205,1,8
359,177,81379,6,0,B|359:81|247:41,1,180,4|0
256,136,81899,1,8
153,177,82072,2,0,B|153:81|265:41,1,180,2|2
360,16,82592,1,8
152,16,82766,1,4
400,352,83113,5,0
336,288,83286,1,8
256,248,83459,2,0,B|256:192,2,45,0|0|2
176,288,83806,1,0
112,352,83980,2,0,B|48:272|104:184,1,180,8|0
168,120,84500,6,0,B|232:144|280:144|344:120,1,180,4|2
408,185,85020,2,0,B|464:272|400:352,1,180,4|2
400,351,85540,1,4
424,104,85887,2,0,B|488:32,2,90,2|2|4
336,264,86581,1,0
288,344,86754,1,8
240,264,86928,5,2
224,240,87014,1,0
208,216,87101,1,0
192,192,87188,1,0
176,168,87274,2,0,B|88:168|24:80,1,180,4|0
80,8,87795,2,0,B|168:8|232:96,1,180,4|0
230,93,88315,1,4
384,192,88662,2,0,B|480:192,2,90,2|2|4
