osu file format v14

[General]
AudioFilename: optc.mp3
AudioLeadIn: 0
PreviewTime: 56185
Countdown: 0
SampleSet: Soft
StackLeniency: 0.7
Mode: 2
LetterboxInBreaks: 0
WidescreenStoryboard: 0

[Editor]
DistanceSpacing: 1.4
BeatDivisor: 4
GridSize: 4
TimelineZoom: 1

[Metadata]
Title:Dokidoki kokoro flavor
TitleUnicode:ドキドキ☆ココロ☆フレーバー
Artist:Yui Sakakibara
ArtistUnicode:榊原ゆい
Creator:[Sc4v4ng3r]
Version:Cup
Source:ネコぱら vol.2 姉妹ネコのシュクレ
Tags:Nekopara Shimai Neko no Shukure eroge opening VN visual novel NEKO WORKs Sekai Project Scavanger Kagari
BeatmapID:932403
BeatmapSetID:432405

[Difficulty]
HPDrainRate:3
CircleSize:3
OverallDifficulty:5
ApproachRate:5
SliderMultiplier:1.2
SliderTickRate:1

[Events]
//Background and Video events
0,0,"neko.jpg",0,0
Video,0,"optc.flv"
//Break Periods
//Storyboard Layer 0 (Background)
//Storyboard Layer 1 (Fail)
//Storyboard Layer 2 (Pass)
//Storyboard Layer 3 (Foreground)
//Storyboard Sound Samples

[TimingPoints]
625,480,4,2,0,50,1,0
4465,-100,4,2,1,70,0,0
6385,-100,4,2,1,80,0,0
13345,-100,4,2,1,30,0,0
13585,-100,4,2,1,80,0,0
21745,-100,4,2,1,60,0,0
44065,-100,4,2,1,30,0,0
44305,-100,4,2,1,60,0,0
48625,-100,4,2,1,70,0,0
56305,-100,4,2,1,90,0,1
63265,-100,4,2,1,30,0,1
63505,-100,4,2,1,90,0,1
78625,-100,4,2,1,30,0,1
78865,-100,4,2,1,90,0,1
87025,-100,4,2,1,80,0,0
93985,-100,4,2,1,30,0,0
94225,-100,4,2,1,80,0,0
102865,-100,4,2,1,60,0,0
104305,-100,4,2,1,45,0,0
106225,-100,4,2,1,80,0,0

[Colours]
Combo1 : 252,84,3
Combo2 : 17,234,234
Combo3 : 255,0,128
Combo4 : 253,158,17
Combo5 : 172,89,255
Combo6 : 0,255,64

[HitObjects]
152,240,625,6,0,P|76:192|172:112,1,240,2|2,0:0|0:0,0:0:0:0:
256,148,2065,1,0,0:0:0:0:
400,116,2545,2,0,L|488:24,1,120,2|0,0:0|0:0,0:0:0:0:
332,44,3505,2,0,L|240:144,1,120,2|0,0:0|0:0,0:0:0:0:
88,128,4465,6,0,P|96:192|228:260,1,210,8|8,0:0|0:0,0:0:0:0:
372,228,6385,6,0,L|472:128,1,120,6|8,0:0|0:0,0:0:0:0:
296,192,7345,2,0,L|352:76,1,120,2|8,0:0|0:0,0:0:0:0:
184,48,8305,1,2,0:0:0:0:
100,192,8785,1,8,0:0:0:0:
268,180,9265,2,0,L|320:144,1,60,2|0,0:0|0:0,0:0:0:0:
392,108,9745,1,8,0:0:0:0:
212,184,10225,6,0,L|140:84,1,120,2|8,0:0|0:0,0:0:0:0:
328,136,11185,2,0,L|392:24,1,120,2|8,0:0|0:0,0:0:0:0:
216,44,12145,1,2,0:0:0:0:
296,160,12625,1,8,0:0:0:0:
404,120,13105,2,0,L|468:120,2,60,2|4|8,0:0|0:0|0:0,0:0:0:0:
224,124,14065,6,0,L|108:52,1,120,6|8,0:0|0:0,0:0:0:0:
224,68,15025,2,0,L|328:148,1,120,2|8,0:0|0:0,0:0:0:0:
480,224,15985,1,2,0:0:0:0:
344,156,16465,1,8,0:0:0:0:
168,232,16945,2,0,L|124:184,1,60,2|0,0:0|0:0,0:0:0:0:
76,120,17425,1,8,0:0:0:0:
260,156,17905,6,0,L|344:56,1,120,2|8,0:0|0:0,0:0:0:0:
172,152,18865,2,0,L|248:48,1,120,2|8,0:0|0:0,0:0:0:0:
388,124,19825,2,0,L|472:124,2,60,12|2|8,0:0|0:0|0:0,0:0:0:0:
220,96,20785,1,8,0:0:0:0:
412,92,21265,1,12,0:0:0:0:
240,184,21745,6,0,P|208:232|256:284,1,120,2|8,0:0|0:0,0:0:0:0:
360,264,22705,2,0,L|468:188,1,120,2|8,0:0|0:0,0:0:0:0:
280,160,23665,2,0,P|236:136|220:60,2,120,2|8|2,0:0|0:0|0:0,0:0:0:0:
396,260,25105,1,8,0:0:0:0:
208,296,25585,6,0,L|108:192,1,120,2|8,0:0|0:0,0:0:0:0:
260,108,26545,2,0,L|343:194,1,120,2|8,0:0|0:0,0:0:0:0:
184,300,27505,2,0,L|128:340,2,60,12|8|8,0:0|0:0|0:0,0:0:0:0:
356,212,28465,1,10,0:0:0:0:
164,208,28945,1,12,0:0:0:0:
280,100,29425,6,0,P|320:108|368:184,1,120,2|8,0:0|0:0,0:0:0:0:
236,60,30385,2,0,L|304:168,1,120,2|8,0:0|0:0,0:0:0:0:
124,220,31345,2,0,P|79:257|72:315,2,120,2|8|2,0:0|0:0|0:0,0:0:0:0:
252,300,32785,1,8,0:0:0:0:
432,200,33265,6,0,P|416:148|360:100,1,120,2|8,0:0|0:0,0:0:0:0:
492,192,34225,2,0,L|408:100,1,120,2|8,0:0|0:0,0:0:0:0:
252,92,35185,2,0,L|180:92,1,60,14|8,0:0|0:0,0:0:0:0:
116,144,35665,2,8,L|200:224,1,90,0|8,0:0|0:0,0:0:0:0:
380,232,37105,6,0,L|472:152,1,120,2|8,0:0|0:0,0:0:0:0:
328,212,38065,2,0,L|432:124,1,120,2|8,0:0|0:0,0:0:0:0:
240,48,39025,2,0,P|192:92|148:152,2,120,2|8|2,0:0|0:0|0:0,0:0:0:0:
384,76,40465,1,8,0:0:0:0:
204,68,40945,6,0,L|108:156,1,120,2|8,0:0|0:0,0:0:0:0:
12,112,41905,2,0,L|120:196,1,120,2|8,0:0|0:0,0:0:0:0:
288,228,42865,2,0,L|396:152|396:152,2,120,2|8|2,0:0|0:0|0:0,0:0:0:0:
192,228,44065,2,0,L|108:228,1,60,4|8,0:0|0:0,0:0:0:0:
316,224,44785,6,0,P|354:172|316:124,1,120,6|8,0:0|0:0,0:0:0:0:
184,80,45745,2,0,L|280:152,1,120,2|8,0:0|0:0,0:0:0:0:
424,176,46705,2,0,L|308:256,2,120,2|8|2,0:0|0:0|0:0,0:0:0:0:
252,20,48145,1,12,0:0:0:0:
60,116,48625,6,0,L|120:216,1,90,10|8,0:0|0:0,0:0:0:0:
240,176,49345,2,0,L|176:260,1,90,10|8,0:0|0:0,0:0:0:0:
48,304,50065,1,8,0:0:0:0:
232,296,50545,2,0,L|304:204,1,90,10|8,0:0|0:0,0:0:0:0:
424,232,51265,2,0,L|360:156,1,90,8|8,0:0|0:0,0:0:0:0:
224,120,51985,1,12,0:0:0:0:
256,192,52465,12,12,54385,0:0:0:0:
256,192,55345,6,0,P|312:180|376:160,1,120,2|12,0:0|0:0,0:0:0:0:
180,148,56305,6,0,P|144:192|104:240,1,120,6|8,0:0|0:0,0:0:0:0:
252,164,57265,2,0,P|216:208|176:256,1,120,2|8,0:0|0:0,0:0:0:0:
32,344,58225,1,2,0:0:0:0:
152,228,58705,1,8,0:0:0:0:
308,284,59185,2,0,L|432:256,1,120,2|8,0:0|0:0,0:0:0:0:
256,244,60145,6,0,P|220:216|244:140,1,120,2|8,0:0|0:0,0:0:0:0:
368,36,61105,2,0,L|480:92,1,120,2|8,0:0|0:0,0:0:0:0:
304,248,62065,1,2,0:0:0:0:
132,208,62545,1,12,0:0:0:0:
268,112,63025,2,0,L|340:100,1,60,2|12,0:0|0:0,0:0:0:0:
412,88,63505,1,8,0:0:0:0:
228,108,63985,6,0,L|124:200,1,120,6|8,0:0|0:0,0:0:0:0:
316,136,64945,2,0,L|216:224,1,120,2|8,0:0|0:0,0:0:0:0:
68,312,65905,1,2,0:0:0:0:
248,316,66385,2,0,P|324:272|352:224,1,120,8|2,0:0|0:0,0:0:0:0:
472,156,67345,1,8,0:0:0:0:
292,152,67825,6,0,L|392:236,1,120,2|8,0:0|0:0,0:0:0:0:
496,336,68785,2,0,P|440:288|424:240,1,120,2|8,0:0|0:0,0:0:0:0:
256,188,69745,2,0,L|144:264,2,120,2|12|2,0:0|0:0|0:0,0:0:0:0:
352,168,70945,2,0,L|432:168,1,60,8|8,0:0|0:0,0:0:0:0:
216,64,71665,6,0,L|128:164,1,120,6|8,0:0|0:0,0:0:0:0:
16,104,72625,2,0,L|112:188,1,120,2|8,0:0|0:0,0:0:0:0:
244,256,73585,1,2,0:0:0:0:
384,244,74065,1,8,0:0:0:0:
228,304,74545,2,0,L|104:252,1,120,2|8,0:0|0:0,0:0:0:0:
296,320,75505,6,0,L|408:244,1,120,2|8,0:0|0:0,0:0:0:0:
500,112,76465,2,0,L|380:188,1,120,2|8,0:0|0:0,0:0:0:0:
264,256,77425,1,2,0:0:0:0:
84,288,77905,1,12,0:0:0:0:
232,304,78385,2,0,L|304:304,1,60,2|4,0:0|0:0,0:0:0:0:
392,304,78865,1,8,0:0:0:0:
200,256,79345,6,0,P|156:228|104:168,1,120,6|8,0:0|0:0,0:0:0:0:
256,152,80305,2,0,L|372:76,1,120,2|8,0:0|0:0,0:0:0:0:
176,120,81265,1,2,0:0:0:0:
56,188,81745,1,8,0:0:0:0:
196,248,82225,2,0,L|312:168,1,120,2|8,0:0|0:0,0:0:0:0:
472,172,83185,6,0,P|444:120|388:103,1,120,2|8,0:0|0:0,0:0:0:0:
256,176,84145,2,0,L|136:108,1,120,2|12,0:0|0:0,0:0:0:0:
40,96,85105,1,8,0:0:0:0:
208,152,85585,1,8,0:0:0:0:
296,136,85825,1,8,0:0:0:0:
392,124,86065,2,0,P|414:168|408:212,1,90,8|4,0:0|0:0,0:0:0:0:
216,320,87025,6,0,L|108:224,1,120,6|8,0:0|0:0,0:0:0:0:
292,312,87985,2,0,L|196:216,1,120,2|8,0:0|0:0,0:0:0:0:
48,192,88945,1,2,0:0:0:0:
144,104,89425,1,8,0:0:0:0:
284,160,89905,2,0,L|360:180,1,60,2|0,0:0|0:0,0:0:0:0:
432,200,90385,1,8,0:0:0:0:
252,260,90865,6,0,P|208:232|180:160,1,120,2|8,0:0|0:0,0:0:0:0:
64,68,91825,2,0,L|172:152,1,120,2|8,0:0|0:0,0:0:0:0:
320,252,92785,1,2,0:0:0:0:
436,180,93265,1,8,0:0:0:0:
280,240,93745,2,0,L|196:248,2,60,2|4|8,0:0|0:0|0:0,0:0:0:0:
464,244,94705,6,0,P|488:200|432:160,1,120,6|8,0:0|0:0,0:0:0:0:
316,200,95665,2,0,L|200:144,1,120,2|8,0:0|0:0,0:0:0:0:
48,176,96625,1,2,0:0:0:0:
172,80,97105,1,8,0:0:0:0:
304,144,97585,2,0,L|240:184,1,60,2|0,0:0|0:0,0:0:0:0:
172,208,98065,1,8,0:0:0:0:
352,236,98545,6,0,L|456:308,1,120,2|8,0:0|0:0,0:0:0:0:
304,292,99505,2,0,L|200:216,1,120,2|8,0:0|0:0,0:0:0:0:
388,116,100465,2,0,L|452:116,2,60,12|2|8,0:0|0:0|0:0,0:0:0:0:
208,208,101425,5,8,0:0:0:0:
52,256,101905,1,12,0:0:0:0:
252,288,102385,1,4,0:0:0:0:
256,192,102865,12,2,106225,0:0:0:0:
