osu file format v7

[General]
AudioFilename: Yui Makino - Synchronicity (TV Size).mp3
AudioLeadIn: 0
PreviewTime: 55233
Countdown: 1
SampleSet: Normal
StackLeniency: 0.7
Mode: 0
LetterboxInBreaks: 1

[Editor]
Bookmarks: 17492,19170,32811,45588,53662,67062,67700,71534,86826
DistanceSpacing: 0.699999988079071
BeatDivisor: 4
GridSize: 8

[Metadata]
Title:Synchronicity (TV Size)
Artist:Yui Makino
Creator:Sakura301
Version:Normal
Source:Tsubasa Tokyo Revelations
Tags:Clamp OP Opening Shulin

[Difficulty]
HPDrainRate:4
CircleSize:4
OverallDifficulty:4
SliderMultiplier:1.4
SliderTickRate:1

[Events]
//Background and Video events
0,0,"tsubasa-reservoir-chronicle-1024x768-97509.jpeg"
Video,0,"Tsubasa Tokyo Revelations Opening.avi"
//Break Periods
//Storyboard Layer 0 (Background)
//Storyboard Layer 1 (Fail)
//Storyboard Layer 2 (Pass)
//Storyboard Layer 3 (Foreground)
//Storyboard Sound Samples
//Background Colour Transformations
3,100,163,162,255

[TimingPoints]
465,428.571428571429,4,2,0,100,1,0
57036,-100,4,1,0,60,0,1
84465,-100,4,1,0,0,0,0

[Colours]
Combo1 : 24,198,15
Combo2 : 218,73,218
Combo3 : 221,221,221
Combo4 : 223,0,0

[HitObjects]
40,40,13322,5,0
152,40,13751,1,0
264,40,14180,2,0,B|416:40,1,140,4|0
408,96,14822,1,0
296,96,15251,1,0
240,96,15465,1,0
104,328,16751,6,0,B|104:216,1,105
104,144,17394,2,0,B|72:112|72:24|112:24|176:56|216:48,1,210
264,56,18251,1,2
320,64,18465,2,0,B|392:96|448:216|400:312|312:344|216:344,1,420
472,40,20608,5,0
416,40,20823,1,0
360,40,21037,1,0
248,40,21465,1,0
192,40,21680,1,2
192,152,22108,1,0
136,152,22323,1,2
408,304,24036,5,0
408,192,24464,1,0
336,104,24893,1,0
296,64,25107,1,2
184,64,25536,1,0
224,104,25750,1,2
472,344,27036,5,0
360,344,27464,1,0
248,344,27893,2,0,B|96:344,1,140,4|0
112,288,28536,1,0
280,288,29179,1,0
360,72,30250,5,0
416,72,30464,2,0,B|416:208,1,105
416,264,31107,1,0
416,320,31321,2,0,C|272:320,1,140
224,320,31964,1,2
168,320,32179,2,0,B|112:296|32:216|32:128|112:48|240:40,1,420
408,208,34322,5,0
344,208,34537,1,0
280,208,34751,1,0
280,336,35180,2,0,B|432:336,2,140
96,48,37322,6,0,C|96:200,1,140
96,288,38179,2,0,C|224:352,1,140
280,352,38822,1,0
392,352,39251,1,0
448,352,39465,1,0
256,80,40750,5,2
256,192,41178,1,0
256,304,41607,1,4
64,192,42465,5,2
176,192,42894,1,0
288,192,43322,1,4
96,304,44179,5,2
208,304,44608,1,0
320,312,45036,2,0,B|368:240|464:256|504:200|416:128|432:72|328:112|256:88|320:192|256:200,1,420
256,80,46751,1,4
256,80,47607,5,2
256,192,48035,1,0
256,304,48464,1,4
448,192,49322,5,2
336,192,49751,1,0
224,192,50179,1,4
48,72,51036,5,2
160,72,51465,1,0
272,72,51894,1,2
384,72,52322,1,0
384,128,52536,1,0
384,240,52965,1,0
304,320,53393,1,0
248,320,53608,1,2
136,320,54036,2,0,B|48:320|48:272|80:224,2,140
248,320,55322,1,4
72,40,56179,5,8
168,120,56608,2,8,C|56:224,1,140,0|8
72,344,57465,1,0
192,344,57893,1,0
272,344,58215,2,0,B|400:344,1,105
432,344,58751,1,8
424,192,59393,5,0
376,192,59608,1,8
328,192,59822,1,0
280,192,60036,1,0
232,192,60251,1,0
184,192,60465,2,8,C|184:336,1,140,8|0
288,328,61322,2,0,B|368:256,1,105
368,184,61965,1,0
368,136,62179,1,8
176,176,62822,5,0
224,176,63036,1,8
272,176,63251,1,0
272,224,63465,1,0
272,272,63679,1,0
224,272,63893,2,8,C|72:272,4,140,8|0|8|0|8
96,192,66250,5,0
144,192,66464,1,8
192,192,66678,1,0
240,192,66892,1,0
288,192,67107,1,0
336,192,67321,2,0,B|432:192|456:120|368:88|328:88,2,210,8|0|0
336,288,69036,1,8
72,344,69893,5,8
168,264,70322,2,8,C|56:160,1,140,0|8
72,40,71179,1,0
192,40,71608,1,8
272,40,71929,2,0,B|384:40,1,105,0|0
432,40,72465,1,8
432,208,73107,5,0
384,208,73321,1,8
336,208,73535,1,0
288,208,73749,1,0
240,208,73964,1,0
192,208,74178,2,8,C|192:64,1,140,8|0
288,64,75035,1,8
344,112,75357,2,0,B|344:224,1,105
304,264,75892,1,8
176,208,76536,5,0
224,208,76750,1,8
272,208,76965,1,0
272,160,77179,1,0
272,112,77393,1,0
224,112,77608,2,8,C|72:112,4,140,8|0|8|0|8
96,192,79965,5,0
144,192,80179,1,8
192,192,80393,1,0
240,192,80608,1,0
288,192,80822,1,0
336,192,81036,2,0,B|432:192|456:264|368:296|328:296,2,210,8|0|0
256,136,82750,1,8
256,136,83607,5,4
256,248,84036,1,4
256,192,84465,12,0,87893
