osu file format v7

[General]
AudioFilename: Yui Makino - Synchronicity (TV Size).mp3
AudioLeadIn: 0
PreviewTime: 55233
Countdown: 1
SampleSet: Soft
StackLeniency: 0.7
Mode: 0
LetterboxInBreaks: 1

[Editor]
Bookmarks: 19170,25151,35151,38343,40975,42571,45588,60018,60869,64529,67062,67700,68741,78146,86826
DistanceSpacing: 0.800000011920929
BeatDivisor: 4
GridSize: 8

[Metadata]
Title:Synchronicity (TV Size)
Artist:Yui Makino
Creator:Sakura301
Version:Hard
Source:Tsubasa Tokyo Revelations
Tags:Clamp OP Opening Shulin

[Difficulty]
HPDrainRate:5
CircleSize:5
OverallDifficulty:6
SliderMultiplier:1.8
SliderTickRate:2

[Events]
//Background and Video events
0,0,"tsubasa-reservoir-chronicle-1024x768-97509.jpeg"
Video,0,"Tsubasa Tokyo Revelations Opening.avi"
//Break Periods
//Storyboard Layer 0 (Background)
//Storyboard Layer 1 (Fail)
//Storyboard Layer 2 (Pass)
//Storyboard Layer 3 (Foreground)
//Storyboard Sound Samples
//Background Colour Transformations
3,100,163,162,255

[TimingPoints]
465,428.571428571429,4,2,0,100,1,0
57036,-100,4,1,0,60,0,1
84465,-100,4,1,0,0,0,0

[Colours]
Combo1 : 24,198,15
Combo2 : 218,73,218
Combo3 : 221,221,221
Combo4 : 223,0,0

[HitObjects]
32,48,7322,1,0
176,48,7750,1,0
320,48,8179,1,0
464,48,8607,1,8
464,192,9036,5,0
464,336,9465,1,0
320,336,9893,1,0
176,336,10322,1,8
32,336,10750,5,0
32,192,11179,1,0
176,192,11607,1,0
320,192,12036,1,8
464,192,12465,5,0
432,128,12680,1,0
400,64,12894,1,0
368,128,13108,1,0
352,192,13322,1,0
320,192,13430,2,0,C|176:192,1,135,0|8
40,192,14179,5,0
40,192,15036,1,0
40,192,15464,1,0
328,192,16750,5,0
328,192,17179,2,0,C|144:192,1,180
144,120,17821,5,0
216,120,18036,1,0
288,120,18250,1,0
216,120,18464,1,0
256,192,18893,12,0,20179
48,48,20607,5,0
120,48,20822,1,0
192,48,21036,1,0
336,48,21464,2,0,L|336:176,1,90
336,280,22107,1,0
408,280,22322,1,0
456,280,24036,5,0
384,280,24250,1,0
312,280,24464,1,0
168,280,24893,1,0
96,280,25107,1,0
96,208,25321,2,0,B|96:160|144:136|160:88|224:72,1,180
472,192,27036,5,0
328,192,27464,1,0
472,192,27893,1,4
328,192,28321,1,0
400,192,28536,1,0
184,192,29179,1,0
184,192,30250,5,0
184,192,30465,1,0
184,192,30680,2,0,C|368:192,1,180
368,120,31323,5,0
224,120,31750,1,0
224,120,31964,1,0
296,120,32178,1,0
256,192,32393,12,0,34107
208,48,34322,6,0,L|208:176,1,90
208,208,34751,1,0
208,280,35179,1,0
208,280,35393,2,0,B|104:280|80:256|80:192,1,180
80,193,36036,1,0
72,224,37322,5,0
72,80,37751,1,0
216,80,38180,2,0,B|264:80|328:120|352:192|320:264|256:328|200:328,1,360
200,328,39465,1,0
424,72,40750,5,0
376,120,40964,1,0
328,168,41178,1,0
280,216,41393,1,0
256,240,41500,1,0
232,264,41607,1,4
176,184,42465,5,0
176,184,42893,1,0
248,184,43107,1,0
312,184,43322,1,0
384,184,43536,1,0
456,184,43750,1,8
456,328,44179,5,10
312,336,44607,2,0,B|248:336|216:304|200:240|200:200|192:208,1,180
56,216,45464,2,0,B|56:168|72:152|80:144|104:136|136:144|144:136|160:128|168:112|168:88,1,180
312,96,46322,2,0,B|392:112|400:136|424:176|456:176|472:184,1,180
320,176,47179,1,4
424,312,47607,5,0
376,264,47821,1,0
328,216,48035,1,0
280,168,48250,1,0
256,144,48357,1,0
232,120,48464,1,4
176,200,49322,5,0
176,200,49750,1,0
248,200,49964,1,0
312,200,50179,1,0
384,200,50393,1,0
456,200,50607,1,8
456,56,51036,5,10
312,56,51464,1,0
168,56,51893,1,0
24,56,52322,1,0
24,200,52750,5,0
80,248,52964,1,0
208,248,53393,1,0
280,248,53607,1,0
280,176,53822,1,0
280,32,54250,1,0
280,32,54465,1,0
136,32,54893,2,0,B|136:232,1,180
32,72,56179,6,0,B|248:72,1,180,4|8
368,72,57036,1,0
368,216,57465,1,8
224,216,57893,1,0
224,72,58322,2,0,L|128:72,2,90,8|0|0
80,144,59393,5,0
80,216,59608,1,0
80,288,59822,1,0
80,216,60036,1,8
80,144,60251,1,0
80,72,60465,2,8,L|264:72|264:312|384:312,1,540,0|0
384,240,61965,1,0
384,168,62179,1,8
80,72,62822,5,0
80,104,62929,1,0
80,136,63036,1,8
80,208,63251,1,0
80,280,63465,1,0
152,280,63679,1,0
224,280,63893,1,8
368,280,64322,2,0,L|368:88,1,180
368,100,64965,2,0,B|184:96,1,180
188,96,65608,1,0
88,144,66250,6,8,L|16:88,2,90,0|8|0
144,192,66892,1,0
200,240,67107,1,0
256,288,67321,2,8,B|336:336|376:336|400:320|416:304|424:272|448:256|496:248,2,270,8|0|0
112,304,69036,2,8,B|112:240|112:232|112:224|120:208|128:192|152:184|192:168|224:176|240:176,1,180,8|0
32,312,69893,6,8,B|400:312,2,360
128,256,71929,1,0
128,152,72250,1,0
128,80,72465,1,8
80,240,73107,5,0
80,168,73321,1,8
80,96,73535,1,0
80,168,73749,1,0
80,240,73964,1,0
80,312,74179,2,8,B|264:312,1,180,8|0
256,168,75036,1,8
360,168,75358,1,0
256,168,75679,1,0
256,240,75893,1,8
56,320,76536,5,0
56,248,76750,1,8
56,176,76965,1,0
56,104,77179,1,0
128,104,77393,1,0
200,104,77608,1,8
344,104,78036,2,0,L|344:288,1,180
344,284,78679,2,0,B|160:280,1,180
164,280,79322,1,0
88,240,79965,6,8,L|16:296,2,90,0|8|0
144,192,80608,1,0
200,144,80822,1,0
256,96,81036,2,8,B|336:48|376:48|400:64|416:80|424:112|448:128|496:136,2,270,8|0|0
192,120,82536,1,0
168,184,82750,2,8,B|168:240|168:248|168:256|176:272|184:288|208:296|248:312|280:304|320:304|288:296|304:304,1,180,8|0
256,120,83608,5,8
256,264,84037,1,0
256,192,84466,12,0,87894
