osu file format v12

[General]
AudioFilename: Yui Makino - Modokashii Sekai no Ue de.mp3
AudioLeadIn: 474
PreviewTime: -1
Countdown: 0
SampleSet: None
StackLeniency: 0.7
Mode: 0
LetterboxInBreaks: 1
WidescreenStoryboard: 0

[Editor]
Bookmarks: 2500,2777,3055,3333,3583,3833,4111,4388,4944,5222,5499,6888,7111,7388,7666,7944,8222,8500,8777,9333,9611,9888,10388,10499,10666,11222,11499,11722,12000,12333,12555,12833,13111,13444,13555,13666,13916,14222,14722,14999,15583,19333,19916,20333,20444,20777,20888,21055,21333,21611,21888,21999,22166,22444,22999,23111,23499,23777,25111,25277,25444,25666,25944,26222,26333,26722,26999,27277,27388,27499,27833,28111,28388,28944,29055,29166,29499,29611,29777,30055,30333,30611,30722,31111,31444,31555,31666,32444,32833,32944,33277,33611,33888,33999,34111,34388,34666,34944,35055,35499,35777,36055,36333,36611,36888,37166,37444,37944,38222,38499,39055,39277,39555,40166,40388,40666,41222,41777,42055,42333,42611,42888,43388,43944,44222,44499,44777,45333,45611,45722,45833,46611,46944,47222,47499,47999,48277,48555,48833,49111,49222,49333,49666,49944,50222,50499,50777,51055,51333,51888,52388,52499,52611,52944,53222,53777,54333,54611,54722,55111,55444,55666,55888,56222,56333,56777,57055,57333,57611,57888,58166,58444,58555,58944,59222,59333,59444,59722,59833,59944,60055,60277,60555,60833,61166,61277,61444,62055,62499,62777,63055,63333,63444,63722,63833,64111,64388,64666,64944,65055,65222,65499,65777,66055,66333,66555,66833,67111,67222,67555,67666,67944,68055,68388,68499,68777,68888,68999,69166,69277,69444,69555,69722,69833,69999,70111,70388,70499,70611,71222,71499,71777,72055,72333,72444,72611,72888,73111,73222,73333,73611,73888,74166,74333,74444,74611,74722,74833,74944,75277,75555,75833,75944,76277,76388,76666,76944,77222,77833,78111,78611,78722,78833,79166,79277,79722,79944,80444,84333,88444,88555,88666,88944,89222,89499,89611,89777,90055,90333,90611,90722,91166,91444,91722,91833,92222,92499,92777,92888,92999,93277,93388,93555,93888,93999,94111,94388,94499,94611,94722,94833,94944,95222,95499,95777,95999,96333,96444,96555,96833,97166,97277,97388,97666,97944,98222,98333,98499,98777,99055,99333,99444,99555,99888,99999,100444,100555,100944,101222,101499,101611,101722,102055,102333,102611,102722,103111,103388,103666,103777,103944,104333,104444,104722,105333,105444,105555,105666,105777,106055,106388,106499,106666,106777,106888,107055,107333,107444,107722,107999,108277,109388,109666,109944,110222,110333,110444,110722,110888,110999,111277,111444,111555,111833,112111,112388,112666,113277,113388,113499,113611,113722,113833,113944,114055,114166,114277,114388,114499,114611,114722,114833,115111,115388,115666,115944,116222,116499,116777,116888,116999,117277,117555,117833,118111,118388,118666,118944,119222,119499,119999,120111,120222,120611,120888,121333,121944,122222,122333,122722,122999,123277,123555,123833,123944,124111,124388,124666,124944,125222,125499,125777,126055,126166,126277,126611,126722,126833,127055,127333,127444,127722,127944,128222,128499,128777,128888,129055,129166,129277,129388,129499,129611,129722,129833,130111,130388,130666,130999,131111,131499,131777,132055,132333,132611,132722,133111,133388,133666,133944,134222,134499,134833,134944,135333,135722,135999,136111,136388,136666,136944,137222,137499,137777,138111,138222,138333,138666,138777,138888,139166,139444,139666,139999,140111,140222,140499,140722,140833,140944,141222,141333,141611,141888,141999,142277,142555,142666,142944,143222,143499,143666,143833,143999,144222,144388,144666,144833,145111,145555,145777,146277,146388,146499,146777,146888,147333,147444,147555,147833,150222,150555,156333,156444,156555,156666,156777,156888,156999,157111,157222,157333,157444,157555,157666,157777,157888,157999,158111,158222,158333,158444,158555,158666,158777,158999,159111,159222,159333,159444,159555,159666,159777,159888,159999,160111,160222,160333,160444,160555,160666,160777,160888,160999,161111,161222,161333,161444,161555,161666,161777,161888,161999,162111,162222,162333,162555,162666,162777,162888,162999,163111,163222,163333,163444,163555,163666,163777,163888,163999,164111,164222,164333,164444,164555,164666,164888,164999,165499,165777,165888,166277,166555,166666,167166,167444,167777,167888,168111,168333,169166,169277,169388,169666,169777,170055,170166,170444,170555,171055,185222,187666,187944,188055,188166,188444,188777,189055,189333,189611,189888,190055,190444,190555,190666,190777,190888,191111,191222,191499,191666,191777,192055,192222,192333,192611,192777,192888,193166,193388,193666,193777,193944,194222,194499,194777,195055,195333,195611,195999,196111,196333,196444,196611,196722,196833,197111,197388,197499,197666,197777,197944,198055,198222,198333,198611,198722,198833,198944,199055,199166,199277,199388,199499,199611,199944,200222,200499,200777,200888,201277,201555,201833,202111,202388,202499,202666,202944,203222,203499,203777,204055,204333,204777,204888,205166,205444,205555,205833,205944,206055,206222,206333,206444,206611,206722,206999,207277,207555,207833,208111,208444,208555,208666,209222,209499,209611,209999,210277,210555,210833,211111,211222,211388,211666,211944,212222,212499,212777,213055,213333,213444,213611,213722,213833,214222,214555,214666,214944,215222,215499,215777,216055,216166,216888,216999,217388,217666,217944,218222,218333,218722,219055,219333,219611,219888,219999,220388,220666,220944,221222,221499,221777,222111,222222,222611,223111,223388,223666,223944,224222,224499,224777,225055,225555,225833,226111,226388,226666,226944,227444,227722,227999,228111,228222,228611,228888,229166,229277,229388,229666,229944,230222,230499,230777,230888,231277,231611,231999,232388,232666,233055,233444,234277,234833,235111,235666,235777,235888,236222,236333,236777,237055,237333,241111,245722,246055,246166,246333,246611,246888,247166,247444,247722
DistanceSpacing: 0.9
BeatDivisor: 6
GridSize: 8

[Metadata]
Title:Modokashii Sekai no Ue de
TitleUnicode:Modokashii Sekai no Ue de
Artist:Yui Makino
ArtistUnicode:Yui Makino
Creator:edo1503
Version:Insane
Source:Welcome to the N.H.K
Tags:anime, yui makino, welcome to the nhk, nkh ni youkoso
BeatmapID:284363
BeatmapSetID:108852

[Difficulty]
HPDrainRate:7
CircleSize:4
OverallDifficulty:7
ApproachRate:9
SliderMultiplier:1.5
SliderTickRate:2

[Events]
//Background and Video events
0,0,"BG.jpg",0,0
//Break Periods
2,84533,87844
2,150422,155733
2,172532,184622
2,241311,245122
//Storyboard Layer 0 (Background)
//Storyboard Layer 1 (Fail)
//Storyboard Layer 2 (Pass)
//Storyboard Layer 3 (Foreground)
//Storyboard Sound Samples
//Background Colour Transformations
3,100,255,128,128

[TimingPoints]
0,333.333333333333,4,2,1,100,1,0

[Colours]
Combo1 : 0,255,128
Combo2 : 0,202,0
Combo3 : 18,124,255
Combo4 : 242,24,57
Combo5 : 255,192,0
Combo6 : 64,0,64
Combo7 : 128,64,0
Combo8 : 255,128,255

[HitObjects]
88,72,2499,5,0,0:0:0:0:
432,72,2777,1,0,0:0:0:0:
136,144,3055,1,0,0:0:0:0:
384,144,3333,1,0,0:0:0:0:
187,209,3583,1,0,0:0:0:0:
328,208,3833,1,0,0:0:0:0:
224,264,4111,1,0,0:0:0:0:
288,264,4388,1,0,0:0:0:0:
104,312,4944,1,2,0:0:0:0:
256,72,5222,1,2,0:0:0:0:
401,312,5499,1,2,0:0:0:0:
256,208,6055,1,0,0:0:0:0:
80,304,6888,5,0,0:0:0:0:
424,304,7111,1,0,0:0:0:0:
128,232,7388,1,0,0:0:0:0:
376,232,7666,1,0,0:0:0:0:
184,168,7944,1,0,0:0:0:0:
320,168,8222,1,0,0:0:0:0:
224,128,8499,1,0,0:0:0:0:
288,128,8777,1,0,0:0:0:0:
400,69,9333,1,2,0:0:0:0:
254,323,9611,1,2,0:0:0:0:
112,72,9888,1,2,0:0:0:0:
256,192,10388,1,2,0:0:0:0:
256,192,10499,1,2,0:0:0:0:
256,192,10666,5,14,0:0:0:0:
224,66,11222,6,10,L|140:162,1,125,14|10,0:0|0:0,0:0:0:0:
294,66,11722,2,10,B|394:169|377:153,1,125,14|10,0:0|0:0,0:0:0:0:
79,237,12333,1,2,0:0:0:0:
256,336,12555,1,2,0:0:0:0:
432,240,12833,1,2,0:0:0:0:
256,236,13111,1,2,0:0:0:0:
219,308,13444,1,2,0:0:0:0:
219,308,13555,1,2,0:0:0:0:
219,308,13666,2,10,B|144:272|168:256|104:248,1,125,10|14,0:0|0:0,0:0:0:0:
256,236,14222,2,10,B|176:176|112:192|120:80,1,225,10|14,0:0|0:0,0:0:0:0:
119,81,14999,1,2,0:0:0:0:
256,192,15583,12,2,19333,0:0:0:0:
104,184,19888,6,2,B|120:168|136:184|120:200|120:200|96:184|288:184,1,200
320,184,20444,1,0,0:0:0:0:
392,184,20777,1,0,0:0:0:0:
392,144,20888,1,0,0:0:0:0:
392,104,21055,2,0,P|392:64|320:64,1,125
248,64,21611,1,0,0:0:0:0:
168,64,21888,1,0,0:0:0:0:
168,64,21999,1,0,0:0:0:0:
112,248,22166,2,2,P|160:328|184:320,1,125
360,296,22999,5,0,0:0:0:0:
400,256,23111,1,0,0:0:0:0:
408,96,23499,1,0,0:0:0:0:
456,48,23777,2,8,B|144:352|368:352|64:56,1,600,14|10,0:0|0:0,0:0:0:0:
64,56,25277,1,2,0:0:0:0:
64,56,25444,1,2,0:0:0:0:
64,56,25666,1,2,0:0:0:0:
64,56,25944,5,0,0:0:0:0:
368,56,26222,2,10,P|408:64|416:80,1,50
424,192,26722,1,0,0:0:0:0:
424,248,26999,1,0,0:0:0:0:
72,320,27277,5,0,0:0:0:0:
72,320,27388,1,0,0:0:0:0:
72,320,27499,1,0,0:0:0:0:
96,72,27833,1,2,0:0:0:0:
256,328,28111,1,2,0:0:0:0:
408,72,28388,1,2,0:0:0:0:
72,160,28944,5,0,0:0:0:0:
72,160,29055,1,0,0:0:0:0:
72,160,29166,1,2,0:0:0:0:
80,80,29499,1,2,0:0:0:0:
80,80,29611,2,2,L|160:80,1,75
155,80,30055,1,2,0:0:0:0:
312,80,30333,6,10,L|256:200,1,125
259,193,30722,1,8,0:0:0:0:
432,80,31111,1,0,0:0:0:0:
136,280,31444,1,0,0:0:0:0:
136,280,31555,1,0,0:0:0:0:
136,280,31666,2,10,B|296:128|224:128|400:296,1,350,10|2,0:0|0:0,0:0:0:0:
256,280,32833,5,0,0:0:0:0:
256,280,32944,1,0,0:0:0:0:
256,80,33277,1,2,0:0:0:0:
256,280,33611,1,2,0:0:0:0:
312,216,33888,1,0,0:0:0:0:
312,216,33999,1,0,0:0:0:0:
312,216,34111,1,0,0:0:0:0:
432,320,34388,1,0,0:0:0:0:
312,320,34666,1,0,0:0:0:0:
432,216,34944,2,2,L|392:248,1,50
256,72,35499,5,0,0:0:0:0:
88,192,35777,1,0,0:0:0:0:
256,312,36055,1,0,0:0:0:0:
432,192,36333,1,0,0:0:0:0:
432,192,36611,1,0,0:0:0:0:
336,72,36888,1,2,0:0:0:0:
176,72,37166,1,2,0:0:0:0:
240,192,37444,6,0,L|272:192,8,25
256,72,38222,1,2,0:0:0:0:
256,72,38499,2,10,B|160:72|160:184|32:64,1,250,14|10,0:0|0:0,0:0:0:0:
32,64,39277,1,2,0:0:0:0:
256,72,39555,2,10,B|368:72|368:184|512:64,1,275,14|10,0:0|0:0,0:0:0:0:
507,67,40388,1,2,0:0:0:0:
256,160,40666,1,2,0:0:0:0:
256,240,41222,1,2,0:0:0:0:
64,224,41777,5,0,0:0:0:0:
128,80,42055,1,0,0:0:0:0:
192,224,42333,1,0,0:0:0:0:
48,104,42611,1,2,0:0:0:0:
208,112,42888,2,14,B|120:288|120:208|96:136,1,225,14|14,0:0|0:0,0:0:0:0:
96,136,43944,5,0,0:0:0:0:
256,48,44222,1,0,0:0:0:0:
416,136,44499,2,2,P|352:96|304:112,1,125
192,72,45333,1,0,0:0:0:0:
192,72,45611,1,2,0:0:0:0:
192,72,45722,1,2,0:0:0:0:
192,72,45833,6,2,B|360:280|208:272|368:56,1,350
360,72,46944,1,0,0:0:0:0:
360,72,47222,1,0,0:0:0:0:
296,192,47499,1,0,0:0:0:0:
256,312,47999,1,0,0:0:0:0:
256,72,48277,1,0,0:0:0:0:
256,312,48555,1,0,0:0:0:0:
400,192,48833,1,0,0:0:0:0:
208,192,49111,5,2,0:0:0:0:
256,192,49222,1,2,0:0:0:0:
304,192,49333,1,2,0:0:0:0:
256,72,49666,2,10,L|256:200,1,125
256,192,50222,5,0,0:0:0:0:
256,296,50499,1,0,0:0:0:0:
120,88,50777,1,2,0:0:0:0:
256,296,51055,1,2,0:0:0:0:
392,88,51333,1,2,0:0:0:0:
192,88,51888,2,0,L|192:312,1,225
192,313,52499,1,0,0:0:0:0:
192,313,52611,1,0,0:0:0:0:
280,88,52944,1,2,0:0:0:0:
280,288,53222,1,2,0:0:0:0:
456,88,53777,6,10,L|184:88,1,250,10|14,0:0|0:0,0:0:0:0:
208,88,54611,1,0,0:0:0:0:
208,88,54722,1,0,0:0:0:0:
152,264,55111,1,0,0:0:0:0:
256,88,55444,1,0,0:0:0:0:
344,264,55666,2,2,L|256:192,1,100
264,200,56222,1,2,0:0:0:0:
264,200,56333,1,2,0:0:0:0:
264,128,56777,1,0,0:0:0:0:
264,272,57055,1,0,0:0:0:0:
392,312,57333,6,10,L|288:224,1,125,10|10,0:0|0:0,0:0:0:0:
120,72,57888,6,10,L|224:160,1,125,10|14,0:0|0:0,0:0:0:0:
256,80,58444,1,2,0:0:0:0:
256,80,58555,1,2,0:0:0:0:
256,304,58944,1,2,0:0:0:0:
88,304,59222,5,0,0:0:0:0:
88,304,59333,1,2,0:0:0:0:
88,304,59444,2,10,P|136:264|152:192,1,125
248,200,59833,1,0,0:0:0:0:
248,200,59944,1,2,0:0:0:0:
248,200,60055,2,10,P|312:176|320:136,1,100
256,80,60555,1,2,0:0:0:0:
256,304,60833,1,2,0:0:0:0:
264,192,61166,1,0,0:0:0:0:
296,192,61277,1,0,0:0:0:0:
368,192,61444,6,2,L|432:192,5,50
472,72,62499,2,8,B|408:64|432:48|448:152,1,125,8|10,0:0|0:0,0:0:0:0:
448,152,63055,1,0,0:0:0:0:
360,112,63333,1,2,0:0:0:0:
360,112,63444,1,2,0:0:0:0:
256,152,63722,5,2,0:0:0:0:
256,152,63833,1,10,0:0:0:0:
144,64,64111,1,10,0:0:0:0:
40,192,64388,1,10,0:0:0:0:
256,352,64666,1,2,0:0:0:0:
472,192,64944,1,2,0:0:0:0:
472,192,65055,1,2,0:0:0:0:
368,64,65222,1,0,0:0:0:0:
256,152,65499,1,0,0:0:0:0:
256,152,65777,1,0,0:0:0:0:
256,152,66055,6,10,L|256:24,1,125
256,224,66555,2,10,L|256:352,1,125,10|14,0:0|0:0,0:0:0:0:
384,192,67111,1,0,0:0:0:0:
384,192,67222,1,0,0:0:0:0:
128,192,67555,1,0,0:0:0:0:
128,192,67666,1,0,0:0:0:0:
168,328,67944,1,0,0:0:0:0:
168,328,68055,6,2,L|336:328,1,150
318,328,68499,1,2,0:0:0:0:
392,328,68777,1,0,0:0:0:0:
432,328,68888,1,0,0:0:0:0:
472,328,68999,1,0,0:0:0:0:
456,192,69166,5,0,0:0:0:0:
448,176,69277,1,10,0:0:0:0:
344,96,69444,1,0,0:0:0:0:
336,112,69555,1,10,0:0:0:0:
176,96,69722,1,0,0:0:0:0:
184,112,69833,1,10,0:0:0:0:
72,192,69999,1,0,0:0:0:0:
80,176,70111,1,10,0:0:0:0:
456,192,70388,1,0,0:0:0:0:
456,192,70499,1,0,0:0:0:0:
456,192,70611,1,2,0:0:0:0:
384,88,71222,5,2,0:0:0:0:
120,88,71499,1,2,0:0:0:0:
120,288,71777,1,2,0:0:0:0:
384,288,72055,1,2,0:0:0:0:
256,192,72333,1,0,0:0:0:0:
256,192,72444,1,0,0:0:0:0:
256,192,72611,1,0,0:0:0:0:
256,96,72888,1,0,0:0:0:0:
216,64,73111,2,2,L|280:64|272:64,1,50,2|2,0:0|0:0,0:0:0:0:
266,64,73333,1,2,0:0:0:0:
368,72,73611,2,0,B|400:144|432:120|464:96,1,125
464,176,74166,2,2,P|424:216|400:200,1,75
392,320,74444,2,0,L|424:312,2,25
392,320,74722,5,0,0:0:0:0:
392,320,74833,1,0,0:0:0:0:
392,320,74944,1,0,0:0:0:0:
256,192,75277,1,2,0:0:0:0:
96,64,75555,1,2,0:0:0:0:
424,72,75833,2,10,L|384:112,1,50
96,312,76277,2,10,L|144:272,1,50
184,192,76666,2,8,B|256:192|256:168|312:192,1,125,8|12,0:0|0:0,0:0:0:0:
304,192,77222,6,0,L|328:192,11,25
248,336,78111,2,10,B|368:312|408:328|400:216,1,225,10|14,0:0|0:0,0:0:0:0:
400,221,78722,1,0,0:0:0:0:
400,221,78833,1,0,0:0:0:0:
392,120,79166,2,0,P|352:96|328:96,1,50
256,72,79722,2,0,L|256:136,2,50
256,192,80444,12,0,84333,0:0:0:0:
72,48,88444,6,2,L|128:48,1,50
122,48,88666,1,0,0:0:0:0:
192,112,88944,2,2,L|64:112,1,125
64,168,89499,2,0,L|128:168,1,50
192,224,89777,2,0,L|56:224,1,125,0|2,0:0|0:0,0:0:0:0:
64,224,90333,1,0,0:0:0:0:
64,224,90611,5,2,0:0:0:0:
64,288,90722,2,2,B|208:288|176:328|128:208,1,200
128,208,91444,1,0,0:0:0:0:
440,72,91722,5,0,0:0:0:0:
440,72,91833,2,0,L|264:72,1,175,0|2,0:0|0:0,0:0:0:0:
264,72,92499,1,0,0:0:0:0:
216,152,92777,5,2,0:0:0:0:
256,152,92888,1,2,0:0:0:0:
296,152,92999,1,2,0:0:0:0:
168,208,93277,1,0,0:0:0:0:
168,208,93388,1,0,0:0:0:0:
184,224,93555,1,0,0:0:0:0:
336,208,93888,1,0,0:0:0:0:
336,208,93999,1,0,0:0:0:0:
320,224,94111,1,0,0:0:0:0:
256,88,94388,1,2,0:0:0:0:
256,128,94499,1,2,0:0:0:0:
256,168,94611,1,2,0:0:0:0:
256,208,94722,1,2,0:0:0:0:
256,248,94833,1,2,0:0:0:0:
256,288,94944,1,2,0:0:0:0:
408,64,95222,5,0,0:0:0:0:
176,328,95499,1,0,0:0:0:0:
336,328,95777,1,0,0:0:0:0:
104,64,95999,1,0,0:0:0:0:
320,192,96333,5,2,0:0:0:0:
320,192,96444,1,2,0:0:0:0:
320,192,96555,2,2,L|187:192,1,125,2|14,0:0|0:0,0:0:0:0:
256,328,97166,2,0,L|256:264,1,50
256,192,97388,1,0,0:0:0:0:
440,72,97666,6,2,L|304:72,1,125
312,128,98222,2,0,L|376:128,1,50
362,128,98499,1,0,0:0:0:0:
440,200,98777,2,2,L|296:200,1,125
312,264,99333,1,0,0:0:0:0:
360,264,99444,1,0,0:0:0:0:
408,264,99555,1,0,0:0:0:0:
440,328,99888,1,2,0:0:0:0:
440,328,99999,1,2,0:0:0:0:
256,192,100444,5,0,0:0:0:0:
256,192,100555,1,0,0:0:0:0:
256,72,100944,1,0,0:0:0:0:
256,312,101222,5,0,0:0:0:0:
256,192,101499,1,2,0:0:0:0:
256,192,101611,1,2,0:0:0:0:
256,192,101722,1,2,0:0:0:0:
448,320,102055,2,10,P|344:320|328:312,1,125,10|14,0:0|0:0,0:0:0:0:
328,312,102611,1,2,0:0:0:0:
328,312,102722,1,2,0:0:0:0:
136,296,103111,5,0,0:0:0:0:
200,240,103388,1,0,0:0:0:0:
80,112,103666,2,2,L|80:40,1,50
80,62,103944,1,0,0:0:0:0:
360,80,104333,1,0,0:0:0:0:
360,80,104444,1,0,0:0:0:0:
360,320,104722,1,2,0:0:0:0:
256,88,105333,5,0,0:0:0:0:
256,128,105444,1,0,0:0:0:0:
256,168,105555,1,0,0:0:0:0:
256,208,105666,1,0,0:0:0:0:
256,248,105777,1,0,0:0:0:0:
256,48,106055,5,2,0:0:0:0:
256,336,106388,2,2,P|256:304|272:288,1,50
472,192,106666,2,2,P|440:192|432:208,1,50
432,80,106888,2,2,L|360:80,1,50
160,304,107333,1,0,0:0:0:0:
160,304,107444,2,0,B|232:240|208:208|240:288,1,125
233,274,107999,1,0,0:0:0:0:
233,274,108277,5,2,0:0:0:0:
272,256,108388,1,2,0:0:0:0:
304,224,108499,1,2,0:0:0:0:
304,184,108611,1,2,0:0:0:0:
272,152,108722,1,2,0:0:0:0:
232,144,108833,1,2,0:0:0:0:
192,144,108944,1,2,0:0:0:0:
152,152,109055,1,2,0:0:0:0:
144,192,109166,1,2,0:0:0:0:
160,232,109277,1,2,0:0:0:0:
184,272,109388,1,14,0:0:0:0:
136,40,109666,5,0,0:0:0:0:
24,136,109944,1,0,0:0:0:0:
56,56,110222,5,2,0:0:0:0:
80,88,110333,1,2,0:0:0:0:
112,120,110444,1,2,0:0:0:0:
400,120,110722,2,0,L|312:120,1,75
325,120,110999,1,0,0:0:0:0:
128,288,111277,6,2,B|176:240|160:232|176:256,1,75
175,255,111555,1,2,0:0:0:0:
264,320,111833,2,2,B|256:256|200:256|168:256,1,125
175,255,112388,1,2,0:0:0:0:
175,255,112666,2,2,L|232:256,6,50
208,232,113499,1,0,0:0:0:0:
240,208,113611,1,0,0:0:0:0:
272,184,113722,1,0,0:0:0:0:
304,160,113833,1,0,0:0:0:0:
336,136,113944,1,0,0:0:0:0:
336,176,114055,1,0,0:0:0:0:
336,216,114166,1,0,0:0:0:0:
304,200,114277,1,0,0:0:0:0:
272,184,114388,1,0,0:0:0:0:
240,160,114499,1,0,0:0:0:0:
208,136,114611,1,0,0:0:0:0:
176,112,114722,1,0,0:0:0:0:
176,112,114833,1,2,0:0:0:0:
232,216,115111,1,2,0:0:0:0:
296,320,115388,6,2,B|360:272|384:288|312:240,1,125,12|0,0:0|0:0,0:0:0:0:
216,320,115944,2,2,B|152:272|136:296|200:240|208:240,1,125,12|0,0:0|0:0,0:0:0:0:
208,240,116499,1,0,0:0:0:0:
256,72,116777,5,2,0:0:0:0:
256,128,116888,1,2,0:0:0:0:
256,184,116999,1,2,0:0:0:0:
392,88,117277,2,8,L|280:168,1,125,8|14,0:0|0:0,0:0:0:0:
120,304,117833,2,8,L|232:224,1,125,8|14,0:0|0:0,0:0:0:0:
384,296,118388,2,8,L|272:208,1,125,8|14,0:0|0:0,0:0:0:0:
128,80,118944,2,8,L|240:168,1,125,8|14,0:0|0:0,0:0:0:0:
256,192,119499,5,0,0:0:0:0:
256,192,119999,1,0,0:0:0:0:
256,192,120111,1,0,0:0:0:0:
256,192,120222,1,0,0:0:0:0:
256,192,120611,2,10,L|256:320,1,125,10|14,0:0|0:0,0:0:0:0:
160,192,121333,6,0,B|256:64|200:48|336:200|360:96,1,275
360,95,122222,1,0,0:0:0:0:
360,95,122333,1,0,0:0:0:0:
408,40,122722,2,2,P|416:136|400:144,1,125
256,296,123277,1,0,0:0:0:0:
408,136,123555,1,0,0:0:0:0:
408,136,123833,2,2,L|464:136,1,50,0|0,0:0|0:0,0:0:0:0:
456,136,124111,1,2,0:0:0:0:
456,136,124388,5,0,0:0:0:0:
456,136,124666,1,0,0:0:0:0:
96,152,124944,2,2,P|168:112|176:128,1,125
96,232,125499,2,2,P|176:280|184:272,1,125
168,192,126055,5,0,0:0:0:0:
168,192,126166,1,0,0:0:0:0:
168,192,126277,5,2,0:0:0:0:
248,192,126611,1,0,0:0:0:0:
248,192,126722,1,0,0:0:0:0:
248,192,126833,1,2,0:0:0:0:
440,192,127055,1,2,0:0:0:0:
440,320,127333,6,2,L|376:320,1,50
390,320,127722,1,2,0:0:0:0:
416,64,127944,5,10,0:0:0:0:
256,320,128222,1,10,0:0:0:0:
96,64,128499,1,14,0:0:0:0:
256,136,128777,1,0,0:0:0:0:
256,224,128888,1,0,0:0:0:0:
304,224,129055,5,2,0:0:0:0:
352,224,129166,1,2,0:0:0:0:
400,224,129277,1,2,0:0:0:0:
448,224,129388,1,2,0:0:0:0:
448,272,129499,1,2,0:0:0:0:
448,320,129611,1,2,0:0:0:0:
400,320,129722,1,2,0:0:0:0:
352,320,129833,1,2,0:0:0:0:
80,320,130111,5,2,0:0:0:0:
448,192,130388,1,2,0:0:0:0:
80,64,130666,1,2,0:0:0:0:
256,152,130999,1,2,0:0:0:0:
256,232,131111,1,2,0:0:0:0:
448,64,131499,1,2,0:0:0:0:
80,192,131777,1,2,0:0:0:0:
448,320,132055,1,2,0:0:0:0:
448,320,132333,6,2,P|384:280|360:312,1,125
361,305,132722,1,2,0:0:0:0:
216,64,133111,1,0,0:0:0:0:
296,64,133388,1,0,0:0:0:0:
160,120,133666,1,0,0:0:0:0:
352,120,133944,1,2,0:0:0:0:
112,184,134222,1,2,0:0:0:0:
400,184,134499,1,2,0:0:0:0:
64,48,134833,5,0,0:0:0:0:
64,48,134944,6,2,B|176:48|120:32|208:136,1,175
200,128,135722,1,0,0:0:0:0:
200,128,135999,2,10,L|256:128,1,50,10|10,0:0|0:0,0:0:0:0:
248,128,136388,1,10,0:0:0:0:
128,272,136666,5,10,0:0:0:0:
256,80,136944,1,10,0:0:0:0:
384,272,137222,1,10,0:0:0:0:
168,136,137499,1,10,0:0:0:0:
352,136,137777,1,14,0:0:0:0:
256,320,138111,1,0,0:0:0:0:
256,320,138222,1,0,0:0:0:0:
256,320,138333,1,8,0:0:0:0:
80,312,138666,5,0,0:0:0:0:
80,312,138777,1,0,0:0:0:0:
80,312,138888,6,0,B|152:256|104:248|144:296|176:240,1,125
176,240,139444,1,2,0:0:0:0:
176,240,139666,1,2,0:0:0:0:
168,168,139999,1,0,0:0:0:0:
200,168,140111,1,0,0:0:0:0:
232,168,140222,2,2,L|368:168,1,125
352,88,140722,5,2,0:0:0:0:
352,88,140833,1,2,0:0:0:0:
352,88,140944,1,2,0:0:0:0:
152,112,141222,1,0,0:0:0:0:
152,112,141333,2,0,P|72:64|80:48,1,125
128,56,141888,1,2,0:0:0:0:
128,56,141999,1,2,0:0:0:0:
176,48,142277,2,0,P|232:120|216:144,1,125
223,135,142666,5,10,0:0:0:0:
320,256,142944,1,10,0:0:0:0:
400,136,143222,1,14,0:0:0:0:
352,112,143499,6,2,P|296:144|296:160,1,75
160,264,143888,2,2,P|216:232|216:216,1,75
184,88,144277,2,2,P|216:144|232:144,1,75
336,288,144666,6,2,P|304:232|288:232,1,75,2|2,0:0|0:0,0:0:0:0:
240,192,145111,6,0,L|280:192,8,25
240,192,145777,5,2,0:0:0:0:
240,192,146277,1,0,0:0:0:0:
240,192,146388,1,0,0:0:0:0:
240,192,146499,1,0,0:0:0:0:
240,192,146777,2,2,L|296:192,1,50
360,168,147333,2,2,P|368:200|352:216,1,50
360,216,147555,1,2,0:0:0:0:
256,192,147833,12,0,150222,0:0:0:0:
256,144,156333,6,2,L|208:96,1,50,6|2,0:0|0:0,0:0:0:0:
184,96,156555,5,0,0:0:0:0:
136,104,156666,1,0,0:0:0:0:
104,144,156777,1,0,0:0:0:0:
96,192,156888,1,0,0:0:0:0:
96,240,156999,1,0,0:0:0:0:
120,280,157111,1,0,0:0:0:0:
160,304,157222,1,0,0:0:0:0:
192,328,157333,1,0,0:0:0:0:
224,352,157444,1,0,0:0:0:0:
256,368,157555,1,0,0:0:0:0:
288,352,157666,1,2,0:0:0:0:
320,328,157777,1,2,0:0:0:0:
352,304,157888,1,2,0:0:0:0:
392,280,157999,1,2,0:0:0:0:
408,240,158111,1,2,0:0:0:0:
408,192,158222,1,2,0:0:0:0:
400,144,158333,1,2,0:0:0:0:
368,104,158444,1,6,0:0:0:0:
320,96,158555,1,2,0:0:0:0:
288,120,158666,6,2,L|248:152,1,50,2|2,0:0|0:0,0:0:0:0:
64,56,158999,6,2,L|128:56,1,50
168,96,159222,2,2,L|96:96,1,50
64,144,159444,2,2,L|136:144,1,50
168,192,159666,2,2,L|104:192,1,50
64,232,159888,2,2,L|128:232,1,50
168,280,160111,2,2,L|104:280,1,50
64,328,160333,2,2,L|120:328,1,50
424,80,160666,6,0,L|464:48,1,50,4|0,0:0|0:0,0:0:0:0:
384,72,160888,2,0,L|376:16,1,50
352,96,161111,2,0,L|296:48,1,50,0|4,0:0|0:0,0:0:0:0:
344,136,161333,2,2,L|288:152,1,50,0|2,0:0|0:0,0:0:0:0:
360,176,161555,2,2,L|336:224,1,50
392,176,161777,2,2,L|408:240,1,50
432,160,161999,2,2,L|480:192,1,50
432,120,162222,2,2,L|488:112,1,50
272,320,162555,6,2,L|216:280,1,50
328,320,162777,2,2,L|376:288,1,50,6|2,0:0|0:0,0:0:0:0:
272,280,162999,2,2,L|232:240,1,50
328,280,163222,2,2,L|368:240,1,50,2|6,0:0|0:0,0:0:0:0:
272,240,163444,2,2,L|232:200,1,50,2|2,0:0|0:0,0:0:0:0:
328,240,163666,2,2,L|368:192,1,50
272,200,163888,2,2,L|232:160,1,50
328,200,164111,2,2,L|368:160,1,50
296,200,164333,2,10,L|296:48,1,150
48,336,164888,1,0,0:0:0:0:
48,336,164999,6,10,B|96:280|48:240|160:256|56:168|144:128,1,225
120,336,165777,1,0,0:0:0:0:
120,336,165888,2,10,B|176:272|136:248|200:216|208:168,1,175
192,336,166555,1,0,0:0:0:0:
192,336,166666,2,10,B|272:256|320:216|312:144,1,225,10|14,0:0|0:0,0:0:0:0:
312,154,167444,1,0,0:0:0:0:
408,88,167777,1,0,0:0:0:0:
408,88,167888,1,2,0:0:0:0:
256,296,168111,1,2,0:0:0:0:
104,88,168333,1,2,0:0:0:0:
104,296,169166,5,0,0:0:0:0:
104,296,169277,1,0,0:0:0:0:
104,296,169388,1,0,0:0:0:0:
384,192,169666,1,10,0:0:0:0:
456,192,169777,1,10,0:0:0:0:
104,80,170055,1,10,0:0:0:0:
176,80,170166,1,10,0:0:0:0:
240,192,170444,1,0,0:0:0:0:
240,192,170555,1,0,0:0:0:0:
240,192,171055,6,0,L|272:192,23,25
256,192,185222,12,2,187667,0:0:0:0:
256,192,187944,5,0,0:0:0:0:
256,192,188055,5,0,0:0:0:0:
256,192,188166,53,0,0:0:0:0:
256,304,188444,1,2,0:0:0:0:
256,80,188777,5,2,0:0:0:0:
120,296,189055,1,2,0:0:0:0:
120,296,189333,1,2,0:0:0:0:
392,80,189611,1,10,0:0:0:0:
240,192,189888,2,0,L|272:192,3,25
256,256,190444,5,2,0:0:0:0:
256,216,190555,1,2,0:0:0:0:
256,176,190666,1,2,0:0:0:0:
256,136,190777,1,2,0:0:0:0:
256,96,190888,1,2,0:0:0:0:
56,64,191111,1,0,0:0:0:0:
56,64,191222,6,2,L|192:64,1,125
448,64,191666,1,0,0:0:0:0:
448,64,191777,2,2,L|312:64,1,125
104,120,192222,1,0,0:0:0:0:
104,120,192333,2,2,L|104:256,1,125
408,120,192777,1,0,0:0:0:0:
408,120,192888,2,2,L|408:256,1,125
104,296,193388,5,0,0:0:0:0:
408,216,193666,1,0,0:0:0:0:
424,184,193777,1,0,0:0:0:0:
408,152,193944,1,2,0:0:0:0:
104,88,194222,1,2,0:0:0:0:
104,296,194499,1,2,0:0:0:0:
256,296,194777,5,2,0:0:0:0:
400,80,195055,1,2,0:0:0:0:
256,296,195333,1,2,0:0:0:0:
112,80,195611,1,2,0:0:0:0:
256,160,195999,6,2,L|256:104,1,50
256,224,196333,2,2,L|256:280,1,50
64,136,196611,1,0,0:0:0:0:
64,136,196722,1,0,0:0:0:0:
64,136,196833,2,2,B|128:208|128:168|56:208,1,125
400,192,197388,1,0,0:0:0:0:
400,192,197499,5,10,0:0:0:0:
256,320,197666,1,0,0:0:0:0:
256,320,197777,1,10,0:0:0:0:
120,192,197944,1,0,0:0:0:0:
120,192,198055,1,10,0:0:0:0:
256,64,198222,1,0,0:0:0:0:
256,64,198333,1,10,0:0:0:0:
296,144,198611,1,2,0:0:0:0:
224,144,198722,1,2,0:0:0:0:
224,144,198833,5,2,0:0:0:0:
176,144,198944,1,2,0:0:0:0:
128,144,199055,1,2,0:0:0:0:
80,144,199166,1,2,0:0:0:0:
80,104,199277,1,2,0:0:0:0:
80,64,199388,1,2,0:0:0:0:
128,64,199499,1,2,0:0:0:0:
176,64,199611,1,6,0:0:0:0:
88,320,199944,5,0,0:0:0:0:
256,64,200222,1,0,0:0:0:0:
416,320,200499,1,0,0:0:0:0:
120,112,200777,1,0,0:0:0:0:
120,112,200888,1,0,0:0:0:0:
384,112,201277,1,2,0:0:0:0:
256,368,201555,1,2,0:0:0:0:
120,112,201833,1,2,0:0:0:0:
384,112,202111,1,2,0:0:0:0:
88,320,202388,1,0,0:0:0:0:
88,320,202499,1,0,0:0:0:0:
256,184,202666,1,0,0:0:0:0:
216,312,202944,5,0,0:0:0:0:
296,312,203222,1,0,0:0:0:0:
168,248,203499,1,2,0:0:0:0:
344,248,203777,1,2,0:0:0:0:
128,184,204055,1,2,0:0:0:0:
384,184,204333,1,2,0:0:0:0:
400,96,204777,6,0,P|368:104|368:128,1,50
365,117,205166,1,2,0:0:0:0:
296,168,205444,2,0,P|328:168|328:184,1,50
424,240,205833,2,0,P|384:256|376:272,1,50
381,260,206055,1,0,0:0:0:0:
296,320,206222,2,2,P|328:344|320:360,1,50
327,346,206444,1,2,0:0:0:0:
328,344,206611,2,2,P|352:312|360:288,1,50
304,224,206999,5,10,0:0:0:0:
384,88,207277,1,10,0:0:0:0:
464,224,207555,1,10,0:0:0:0:
464,224,207833,2,0,L|464:248,5,25,0|0|0|0|0|4,0:0|0:0|0:0|0:0|0:0|0:0,0:0:0:0:
80,320,208444,1,0,0:0:0:0:
80,320,208555,1,0,0:0:0:0:
80,320,208666,6,10,B|168:264|104:248|144:192|208:168|208:112,1,250
207,112,209499,1,0,0:0:0:0:
207,112,209611,1,0,0:0:0:0:
256,112,209999,1,2,0:0:0:0:
256,272,210277,1,2,0:0:0:0:
256,72,210555,1,2,0:0:0:0:
256,312,210833,1,2,0:0:0:0:
256,192,211111,1,0,0:0:0:0:
256,192,211222,1,0,0:0:0:0:
200,136,211388,5,0,0:0:0:0:
384,288,211666,1,0,0:0:0:0:
112,72,211944,1,0,0:0:0:0:
304,344,212222,1,2,0:0:0:0:
200,16,212499,1,2,0:0:0:0:
200,336,212777,1,2,0:0:0:0:
312,16,213055,1,2,0:0:0:0:
416,152,213333,1,2,0:0:0:0:
400,112,213444,1,2,0:0:0:0:
80,232,213722,1,2,0:0:0:0:
104,264,213833,1,2,0:0:0:0:
200,200,214111,5,0,0:0:0:0:
200,200,214222,2,2,B|280:176|248:112|328:216,1,150
384,296,214666,5,2,0:0:0:0:
256,72,214944,1,2,0:0:0:0:
128,296,215222,1,2,0:0:0:0:
368,120,215499,1,10,0:0:0:0:
256,344,215777,1,10,0:0:0:0:
136,120,216055,1,10,0:0:0:0:
136,120,216166,2,2,B|184:48|72:48|32:96|88:312,1,325,2|6,0:0|0:0,0:0:0:0:
84,298,216999,1,0,0:0:0:0:
88,304,217388,6,2,B|120:264|96:280|152:320|120:320|192:296,1,125
192,296,217944,1,0,0:0:0:0:
320,296,218222,2,2,P|352:280|360:248,1,50
128,88,218722,5,10,0:0:0:0:
384,296,219055,1,10,0:0:0:0:
192,40,219333,1,10,0:0:0:0:
320,344,219611,1,10,0:0:0:0:
272,32,219888,1,0,0:0:0:0:
272,32,219999,1,0,0:0:0:0:
240,344,220388,1,0,0:0:0:0:
352,48,220666,1,0,0:0:0:0:
160,320,220944,1,0,0:0:0:0:
416,104,221222,1,2,0:0:0:0:
104,256,221499,1,2,0:0:0:0:
432,184,221777,1,2,0:0:0:0:
96,184,222111,1,2,0:0:0:0:
96,152,222222,1,2,0:0:0:0:
424,264,222611,1,2,0:0:0:0:
104,88,223111,1,0,0:0:0:0:
256,280,223388,5,2,0:0:0:0:
256,104,223666,1,2,0:0:0:0:
256,104,223944,2,2,P|304:72|376:112,1,125
136,88,224499,1,2,0:0:0:0:
256,280,224777,1,2,0:0:0:0:
363,92,225055,1,6,0:0:0:0:
208,152,225555,6,10,B|264:112|248:112|328:160,1,125
120,304,226111,1,0,0:0:0:0:
392,296,226388,1,0,0:0:0:0:
392,88,226666,1,2,0:0:0:0:
120,88,226944,1,2,0:0:0:0:
304,232,227444,6,0,B|248:272|264:272|184:224,1,125
192,232,227999,1,2,0:0:0:0:
192,232,228111,1,2,0:0:0:0:
192,232,228222,1,2,0:0:0:0:
104,184,228611,2,2,P|48:120|64:80,1,125
120,56,229166,2,2,P|152:48|160:64,1,50
158,57,229388,1,2,0:0:0:0:
432,64,229666,5,10,0:0:0:0:
432,320,229944,1,10,0:0:0:0:
288,192,230222,1,10,0:0:0:0:
256,192,230499,12,2,234277,0:0:0:0:
264,192,234777,6,2,B|248:168|280:168|48:160|456:160|256:136,1,175
264,136,235666,1,0,0:0:0:0:
264,136,235777,1,0,0:0:0:0:
264,136,235888,1,0,0:0:0:0:
336,40,236222,1,0,0:0:0:0:
360,64,236333,1,0,0:0:0:0:
408,136,236777,6,2,B|464:160|360:160|464:176|360:176|464:192|360:192|464:208|408:240,1,125
256,192,237333,12,2,241111,0:0:0:0:
80,112,245722,5,0,0:0:0:0:
224,48,246055,1,0,0:0:0:0:
256,64,246166,1,0,0:0:0:0:
288,48,246333,1,0,0:0:0:0:
424,112,246611,1,2,0:0:0:0:
80,240,246888,1,2,0:0:0:0:
424,240,247166,1,2,0:0:0:0:
304,312,247444,6,14,B|280:368|280:264|264:368|264:264|248:368|248:264|232:368|200:312,1,125,2|14,0:0|0:0,0:0:0:0:
