osu file format v5

[General]
AudioFilename: Yui Horie, Rie Kugimiya & Eri Kitamura - Orange.mp3
AudioLeadIn: 0
PreviewTime: 14108
Countdown: 0
SampleSet: Normal
StackLeniency: 0.7
Mode: 0
LetterboxInBreaks: 1

[Metadata]
Title:Orange
Artist:Yui Horie, Rie Kugimiya & Eri Kitamura
Creator:xxheroxx
Version:Ryuji-Normal
Source:Toradora!
Tags:orange kugimiya rie kitamura eri horie yui horie toradora

[Difficulty]
HPDrainRate:3
CircleSize:4
OverallDifficulty:3
SliderMultiplier:1.2
SliderTickRate:1

[Events]
//Background and Video events
0,0,"toradorawallpaper-22.JPG"
1,0,"Toradora! Ending 2.avi"
//Break Periods
//Storyboard Layer 0 (Background)
//Storyboard Layer 1 (Failing)
//Storyboard Layer 2 (Passing)
//Storyboard Layer 3 (Foreground)
//Storyboard Sound Samples
//Background Colour Transformations
3,100,255,128,0

[TimingPoints]
486,428.571428571429,4,2,0,100,1,0
27807,-100,4,1,0,100,0,0

[Colours]
Combo1 : 255,128,0
Combo2 : 255,255,0

[HitObjects]
352,192,14628,2,0,B|168:192,1,180
288,280,15914,2,0,B|288:88,1,180
152,144,17200,1,0
152,240,17628,1,4
72,192,18057,6,0,B|72:264|72:328|168:328,1,180
248,328,19128,2,0,B|328:328,2,60
344,328,19986,1,0
440,328,20414,6,0,B|504:328,2,60
440,280,21057,1,4
440,184,21486,5,0
440,136,21700,2,0,B|440:56|336:56,1,120
312,192,22771,2,0,B|400:104,1,120
432,72,23414,1,0
288,72,24057,6,0,B|160:72,1,120,0|4
72,72,24914,6,0,B|72:320,1,240
136,240,26200,1,8
136,144,26628,1,8
224,184,27057,1,8
320,184,27485,1,8
416,184,27914,1,12
416,280,28343,6,0,B|416:344,1,60
336,280,28985,2,0,B|336:360,1,60
376,248,29628,1,0
376,152,30057,2,0,B|376:24,2,120,0|4|4
376,248,31343,1,4
288,200,31771,6,0,B|32:200,1,240
112,128,33057,2,0,B|248:128,2,120,0|0|4
168,200,34343,1,4
168,296,34771,1,4
248,248,35200,6,0,B|328:248|328:320,1,120
400,248,36057,2,0,B|480:248|480:320,1,120
400,248,36914,2,0,B|320:248|320:320,1,120
224,320,37771,6,2,B|64:320|64:168,1,240
56,88,39057,1,2
152,88,39485,2,2,B|416:88,1,240
488,88,40771,1,2
488,184,41200,5,0
256,192,41628,12,0,45057
256,336,46771,5,8
256,240,47200,2,8,B|256:104,1,120
176,176,48057,2,8,B|40:176,1,120
112,248,48914,5,8
64,328,49343,1,8
112,328,49557,1,0
160,328,49771,1,8
112,248,50200,6,0,B|112:64,1,180
144,160,51271,2,0,B|232:160,2,60,8|0|8
240,160,52128,2,8,B|384:160,1,120
296,288,53200,5,4
200,288,53628,5,8
200,192,54057,2,0,B|200:120,1,60,8|0
112,88,54700,2,0,B|112:160,1,60,0|8
112,192,55128,1,0
112,288,55557,6,0,B|112:352,2,60,0|8|0
160,288,56200,2,0,B|160:360,2,60,8|0|8
136,248,56843,1,0
256,192,57057,12,0,60485
256,192,61128,5,8
160,192,61557,2,8,B|16:192,1,120
96,272,62414,2,0,B|488:272,1,360
456,224,63914,6,8,B|312:88,1,180,8|8
240,136,64985,2,8,B|136:40,1,120
112,136,65843,2,8,B|216:232,1,120
264,288,66700,5,0
296,320,66914,1,4
392,320,67343,6,8,B|488:304|488:248|384:232,1,180
296,200,68414,2,8,B|232:176|232:136|312:112,1,120
360,64,69271,2,0,B|384:40|416:32|448:24|472:40|488:64|496:88|496:120|480:152|496:200|392:192|352:168|360:104,1,360
408,104,70771,5,12
312,104,71200,2,12,B|248:104,1,60
152,104,71843,1,12
256,192,72271,12,4,74200
256,328,76771,6,0,B|240:328|224:328|208:328|200:328|184:328|168:328|160:328|136:328|120:328|104:320|80:312|72:296|64:280|64:264|64:248|80:240|104:232|128:232|144:232|160:248|152:272|144:296|136:304|112:320|96:320|72:328|56:312|32:280|32:256|32:232|40:216|40:208|48:208|56:200|72:200|88:200|112:192|120:192|136:184|144:168|144:160|144:160|144:152|136:136|112:128|80:128|64:136|56:160|88:184|136:192|144:200|176:200|224:184|208:144|200:128|184:96|192:88|200:80|224:80|256:80|272:104|288:128,1,840,0|0
328,200,80200,5,0
384,120,80628,1,0
400,200,81057,6,0,B|424:152|440:104|424:56|352:56|320:40|280:72|264:96|256:112|256:112|240:96|216:72|160:-8|16:72|48:144|80:160|88:200|120:232|128:280|160:312|256:344|256:344|328:320|352:296|376:272|384:240,1,960,4|0
256,192,84539,12,0,86200
