osu file format v8

[General]
AudioFilename: D.C. ~Da Capo~ (Kotori Shirakawa) - Soyokaze no Harmony (IN).mp3
AudioLeadIn: 0
PreviewTime: 62210
Countdown: 0
SampleSet: Soft
StackLeniency: 0.7
Mode: 0
LetterboxInBreaks: 1

[Editor]
Bookmarks: 17045,17415,41860,42600,50728,50914,53321,53691,74062,74432,118506,119216,119247,119988,120728,131860,132600,168176,196654,197025
DistanceSpacing: 1.29999995231628
BeatDivisor: 4
GridSize: 8

[Metadata]
Title:Soyokaze no Harmony
Artist:Yui Horie
Creator:nante
Version:Hard
Source:D.C. ~Da Capo~
Tags:Shirakawa Kotori

[Difficulty]
HPDrainRate:6
CircleSize:5
OverallDifficulty:7
ApproachRate:7
SliderMultiplier:2.9
SliderTickRate:2

[Events]
//Background and Video events
0,0,"background.png"
//Break Periods
2,86134,93922
2,169097,179848
//Storyboard Layer 0 (Background)
//Storyboard Layer 1 (Fail)
//Storyboard Layer 2 (Pass)
//Storyboard Layer 3 (Foreground)
//Storyboard Sound Samples
//Background Colour Transformations
3,100,194,192,224

[TimingPoints]
11860,740.740740740741,4,2,1,27,1,0
62230,-100,4,2,1,27,0,1
82971,-100,4,2,1,27,0,0
83156,-100,4,2,1,0,0,0
86119,-100,4,2,1,27,0,0
145193,-100,4,2,1,27,0,1
165563,-100,4,2,1,27,0,0
192600,-100,4,2,1,27,0,1
213341,-100,4,2,1,27,0,0

[Colours]
Combo1 : 156,67,116
Combo2 : 197,48,52
Combo3 : 220,120,172
Combo4 : 208,34,95

[HitObjects]
64,288,11860,2,0,B|224:288,2,145,0|0|2
208,288,12971,1,0
352,288,13341,5,0
352,144,13711,2,0,B|368:208|256:208,2,72.5,0|0|2
496,144,14452,1,0
496,288,14822,1,0
352,288,15193,6,0,B|512:288,1,145,0|2
352,288,15934,1,0
352,208,16119,1,0
128,208,16674,5,0
264,264,17045,2,0,B|264:104,1,145
128,120,17785,1,0
496,352,18897,5,0
448,296,19082,1,0
400,240,19267,1,0
256,240,19637,1,0
112,240,20008,1,2
112,240,20378,2,0,B|88:184|152:128|104:64,1,145
480,16,21860,5,0
384,128,22230,1,0
240,144,22600,2,0,B|304:96|352:160,2,72.5,0|0|2
384,128,23341,1,0
384,272,23711,5,0
384,128,24082,1,0
240,160,24452,2,0,B|288:96|352:208,1,145,2|0
64,272,25563,5,0
208,272,25934,1,2
416,80,26674,1,0
416,224,27045,5,0
288,160,27415,1,2
176,64,27785,1,0
176,144,27971,1,0
336,288,28526,1,0
208,224,28897,1,2
304,144,29267,1,0
208,64,29637,1,0
384,288,30378,5,2
240,288,30748,1,0
384,288,31119,2,0,B|400:208|416:112,1,145
336,144,31674,5,0
336,216,31860,1,2
336,72,32230,1,0
336,216,32600,1,0
72,328,33341,1,2
304,160,34082,5,0
160,160,34452,1,0
160,240,34637,1,0
240,240,34822,1,2
80,240,35193,1,0
240,240,35563,6,0,B|352:256|384:192|368:128|368:16,1,290,0|2
80,64,37045,2,0,B|192:51|222:116|204:180|208:288,1,290,0|2
312,112,38526,6,0,B|376:48|408:112|440:48,2,145,0|0|2
312,256,39637,1,0
32,304,41119,5,0
32,224,41304,1,0
112,224,41489,1,0
48,96,41859,2,0,B|48:216|232:144|224:320,1,290,0|0
288,304,42785,1,0
72,312,43341,1,0
200,240,43711,1,2
328,168,44082,1,0
456,96,44452,1,0
496,336,45193,5,2
496,192,45563,1,0
416,192,45748,1,0
336,192,45934,1,0
64,80,46674,6,0,B|32:208|224:128|224:288,2,290,2|0|2
352,80,48897,1,0
144,272,49637,1,2
432,208,50378,5,0
288,208,50748,2,0,B|320:160|392:248,1,72.5
352,136,51119,1,2
352,280,51489,1,0
64,112,52600,1,2
208,112,52971,5,0
208,112,53156,1,0
208,184,53341,2,0,B|192:136|160:128|96:136|104:208,1,145
104,328,54082,1,2
248,328,54452,1,0
336,208,54822,1,0
416,328,55193,1,0
464,96,56304,5,4
432,224,57415,1,0
384,168,57600,1,0
336,224,57785,1,4
48,288,58526,5,2
192,32,59267,1,4
96,144,59637,1,0
160,176,59822,1,0
224,216,60008,1,2
352,272,60378,1,0
352,128,60748,1,4
440,320,62230,5,4
248,320,62600,1,0
248,224,62785,1,0
8,72,63341,1,0
192,104,63711,5,0
384,104,64082,2,0,B|432:8,1,72.5,0|2
144,104,64822,1,0
8,240,65193,5,0
168,144,65563,2,0,B|264:144,1,72.5
80,240,66119,2,0,B|-16:240,1,72.5,0|2
184,304,66674,1,4
280,296,66859,1,0
352,232,67045,1,0
352,40,67415,1,2
456,192,67785,1,0
264,192,68156,1,0
72,192,68526,5,0
264,192,68897,2,0,L|312:96|392:96,2,145,2|0|0
72,192,70008,1,0
488,320,71119,5,0
96,152,72230,1,0
160,224,72415,1,0
256,240,72600,1,0
440,168,72971,5,0
376,96,73156,1,0
288,72,73341,1,6
288,264,73711,1,4
112,200,74082,6,0,B|56:192|40:104|112:104|128:104,1,145,0|0
208,104,74637,1,0
408,304,75193,1,0
216,304,75563,1,0
312,144,75934,1,0
312,240,76119,1,0
64,312,76674,1,0
104,128,77045,6,0,L|152:208|200:160,1,145
104,128,77600,1,0
296,120,77971,1,0
296,216,78156,1,0
104,216,78526,1,0
296,216,78897,1,0
360,176,79082,1,0
296,216,79267,1,2
104,216,79637,6,0,L|104:120,2,72.5,0|0|4
488,48,81119,1,0
304,96,81489,2,0,L|344:40|424:40,1,145
304,184,82230,1,2
112,184,82600,1,0
216,344,82971,1,0
256,192,83341,12,0,85934
80,144,94822,6,0,B|107:301,2,145,0|0|2
160,272,95934,1,0
304,272,96304,1,0
400,160,96674,2,0,B|416:224|304:224,2,72.5,0|0|2
400,16,97415,1,0
272,72,97785,1,0
128,80,98156,6,0,B|288:72,1,145,0|2
128,80,98897,1,0
128,152,99082,1,0
344,152,99637,1,0
192,152,100008,2,0,B|192:240|312:232,1,145
432,232,100748,1,0
96,240,101859,1,0
144,192,102045,1,0
192,144,102230,1,0
208,288,102600,5,0
352,288,102971,1,2
208,240,103341,2,0,B|160:208|160:272|64:240,1,145
464,48,104822,5,0
384,176,105193,1,0
464,48,105563,1,0
432,112,105748,1,0
464,48,105934,1,2
320,48,106304,1,0
288,192,106674,5,0
288,336,107045,1,0
160,272,107415,1,2
288,192,107785,1,0
48,32,108526,5,0
192,32,108897,1,2
400,240,109637,1,0
256,240,110008,5,0
112,240,110378,1,2
112,96,110748,1,0
112,168,110934,1,0
320,104,111489,1,0
384,240,111859,2,0,L|312:160|264:176,1,145,2|0
128,176,112600,1,0
416,112,113341,5,2
272,112,113711,1,0
400,192,114082,2,0,B|416:112|392:16,1,145
400,48,114637,1,0
328,48,114822,1,2
328,192,115193,1,0
208,272,115563,5,0
16,40,116304,1,2
312,72,117045,1,0
192,152,117415,1,0
264,152,117600,1,0
264,80,117785,2,0,L|440:120,1,145,2|0
376,296,118526,6,0,B|456:296|456:296|480:272|496:248|488:208|480:168|440:160|400:160|376:176,1,290,0|2
96,152,120008,2,0,B|16:152|16:152|-8:128|-24:104|-16:64|-8:24|32:16|72:16|96:32,1,290,0|2
248,272,121489,6,0,B|312:208|344:272|376:208,2,145,0|0|2
104,272,122600,1,0
104,128,122971,1,0
248,128,123341,1,0
376,64,123711,1,2
496,64,124082,5,0
496,136,124267,1,0
496,64,124452,1,0
352,64,124822,2,0,L|240:96|336:136|256:168,1,290
272,160,125748,1,0
456,280,126304,1,0
400,144,126674,1,2
344,280,127045,1,0
296,144,127415,1,0
48,112,128156,5,2
48,256,128526,1,0
48,184,128711,1,0
48,256,128897,1,0
368,256,129637,1,2
144,80,130378,5,0
432,80,131119,1,2
144,152,131859,2,0,B|112:280|352:280|304:128,1,290
464,352,133341,5,0
464,208,133711,2,0,B|464:160|400:160,1,72.5
344,160,134082,1,2
200,160,134452,1,0
344,160,134822,1,0
56,160,135563,1,2
192,104,135934,6,0,C|216:32,2,72.5
192,248,136674,1,0
320,176,137045,2,0,L|410:163|442:219,2,145,2|0|0
176,176,138156,1,0
480,336,139267,5,4
48,240,140378,1,0
128,240,140563,1,0
192,192,140748,1,4
464,288,141489,1,2
256,32,142230,5,4
480,192,142600,1,0
256,360,142971,1,2
24,192,143341,1,0
256,192,143711,1,4
80,288,145193,5,4
248,200,145563,1,0
176,136,145748,1,0
456,104,146304,1,0
464,296,146674,1,0
456,104,147045,2,0,B|464:32|536:48,1,72.5
232,144,147785,5,0
48,184,148156,1,0
176,328,148526,1,0
80,328,148711,1,0
80,136,149082,1,0
80,232,149267,1,0
272,240,149637,5,4
360,208,149822,1,0
424,136,150008,1,0
272,240,150378,2,0,B|288:328|368:264|392:328,2,145,2|0|0
256,48,151489,5,0
136,192,151860,1,2
256,336,152230,1,0
376,192,152600,1,0
256,48,152971,1,0
400,320,154082,5,0
72,56,155193,1,0
88,128,155378,1,0
160,152,155563,1,0
72,312,155934,5,0
88,240,156119,1,0
160,224,156304,1,2
304,224,156674,1,0
488,224,157045,5,4
488,32,157415,1,0
392,32,157600,1,0
360,312,158156,1,0
360,312,158526,1,0
360,120,158897,1,0
360,120,159082,1,0
88,32,159637,1,0
80,224,160008,5,0
272,224,160378,1,0
368,224,160563,1,0
176,224,160934,1,0
176,224,161119,1,0
176,32,161489,1,0
176,224,161860,1,0
272,224,162045,1,0
272,320,162230,1,2
456,264,162600,5,0
368,224,162785,1,0
336,136,162971,1,0
432,184,164082,5,0
280,288,164452,1,0
432,184,164822,1,0
328,32,165193,1,2
432,184,165563,1,0
368,256,165748,1,0
280,288,165934,1,0
256,192,166304,12,4,168897
112,296,180748,5,0
112,152,181119,1,0
256,152,181489,1,2
256,152,181860,1,0
256,224,182045,1,0
312,272,182230,1,0
256,312,182415,1,0
184,312,182600,1,0
184,312,182971,1,2
448,192,183711,5,0
304,192,184082,1,0
304,48,184452,1,2
304,192,184822,1,0
160,192,185193,1,0
304,192,185563,1,0
304,264,185748,1,0
304,336,185934,1,2
304,336,186304,5,0
160,336,186674,1,0
160,48,187415,1,2
160,192,187785,1,0
280,112,188156,1,0
80,320,188897,1,2
80,176,189267,1,0
80,176,189452,1,0
152,176,189637,1,4
376,344,191119,5,4
232,344,191489,1,0
304,344,191674,1,4
448,176,192230,1,0
352,80,192600,5,4
352,240,192971,1,0
304,176,193156,2,0,B|312:64|408:200|512:168,1,217.5
352,80,194082,5,4
248,176,194452,1,0
192,224,194637,1,0
400,288,195193,1,0
464,160,195563,5,0
384,40,195934,1,0
384,112,196119,1,0
240,112,196489,1,0
240,184,196674,2,0,B|232:232|192:232|112:224|144:160,1,145
136,112,197230,1,0
64,112,197415,5,0
64,256,197785,1,2
208,256,198156,1,0
352,256,198526,1,0
352,256,198711,1,0
352,184,198897,5,0
280,184,199082,1,0
208,184,199267,2,0,L|208:24,1,145,2|0
120,152,200008,2,0,L|120:312,1,145
256,256,200748,1,2
256,112,201119,5,0
304,168,201304,1,0
352,112,201489,1,0
464,320,202600,1,0
400,272,202785,1,0
336,224,202971,2,2,B|272:280|232:168|48:240,1,290
352,128,204452,5,4
464,240,204822,1,0
464,160,205008,1,0
224,176,205563,1,0
80,112,205934,1,4
80,272,206304,1,0
160,272,206489,1,0
320,272,206860,2,0,L|328:216|360:224,2,72.5
240,272,207415,5,0
400,272,207785,1,0
400,192,207971,1,0
256,112,208341,1,0
176,144,208526,1,0
176,304,208897,5,4
256,336,209082,1,0
336,336,209267,1,0
384,176,209637,6,0,L|304:216|352:288,1,145,2|0
416,272,210193,1,0
448,208,210378,1,0
112,128,211489,6,0,B|-8:16,1,145
16,192,212230,2,0,B|208:192,1,145,0|2
240,272,212971,1,0
320,240,213156,1,0
368,176,213341,1,0
