osu file format v8

[General]
AudioFilename: D.C. ~Da Capo~ (Kotori Shirakawa) - Soyokaze no Harmony (IN).mp3
AudioLeadIn: 0
PreviewTime: 62210
Countdown: 0
SampleSet: Soft
StackLeniency: 0.7
Mode: 0
LetterboxInBreaks: 1

[Editor]
Bookmarks: 64432,77025,77580,118506,119247,140358,140728,159988,161469,161840,162580,163691
DistanceSpacing: 1.60000002384186
BeatDivisor: 4
GridSize: 8

[Metadata]
Title:Soyokaze no Harmony
Artist:Yui Horie
Creator:nante
Version:Easy
Source:D.C. ~Da Capo~
Tags:Shirakawa Kotori

[Difficulty]
HPDrainRate:2
CircleSize:3
OverallDifficulty:2
ApproachRate:2
SliderMultiplier:0.8
SliderTickRate:1

[Events]
//Background and Video events
0,0,"background.png"
//Break Periods
2,83171,93262
2,167615,179188
2,183911,191040
//Storyboard Layer 0 (Background)
//Storyboard Layer 1 (Fail)
//Storyboard Layer 2 (Pass)
//Storyboard Layer 3 (Foreground)
//Storyboard Sound Samples
//Background Colour Transformations
3,100,194,192,224

[TimingPoints]
11860,740.740740740741,4,2,1,31,1,0
45748,-100,4,2,1,20,0,0
46860,-100,4,2,1,32,0,0
62230,-100,4,2,1,31,0,1
82971,-100,4,2,1,31,0,0
140934,-100,4,2,1,0,0,0
143897,-100,4,2,1,31,0,0
145193,-100,4,2,1,31,0,1
165563,-100,4,2,1,31,0,0
192600,-100,4,2,1,31,0,1
213341,-100,4,2,1,31,0,0

[Colours]
Combo1 : 156,67,116
Combo2 : 197,48,52
Combo3 : 220,120,172
Combo4 : 208,34,95

[HitObjects]
400,304,11859,5,0
400,176,12600,1,2
400,48,13341,1,0
272,48,14082,1,2
144,48,14822,1,0
144,176,15563,6,0,L|144:256,1,80,2|0
208,256,16674,1,0
264,224,17045,1,2
208,192,17415,1,0
264,160,17785,1,0
64,144,19267,5,0
64,272,20008,1,2
192,272,20748,1,0
336,144,21859,5,0
272,144,22230,2,0,B|176:144,1,80,0|2
192,80,23341,1,0
128,80,23711,5,0
64,192,24452,1,2
128,304,25193,1,0
256,304,25934,1,2
384,304,26674,1,0
384,48,28156,5,0
128,48,29637,1,0
224,216,30748,1,0
288,216,31119,1,0
288,344,31860,1,2
400,280,32600,5,0
360,160,33341,1,2
472,96,34082,1,0
472,224,34822,1,2
344,224,35563,5,0
344,288,35934,1,0
280,288,36304,1,2
408,288,37045,1,0
472,288,37415,1,0
472,224,37785,1,2
480,96,38526,5,0
416,96,38897,1,0
376,144,39267,1,0
336,96,39637,1,0
144,96,40748,1,2
176,216,41489,5,0
368,216,42600,2,0,L|416:216,1,40
408,152,43341,1,0
408,88,43711,1,2
472,88,44082,1,0
472,24,44452,1,0
352,56,45193,5,2
224,56,45934,1,4
96,56,46674,1,6
96,184,47415,5,0
96,312,48156,1,2
208,256,48897,1,0
208,128,49637,1,2
112,216,50378,5,0
112,152,50748,1,0
112,88,51119,1,2
176,88,51489,1,0
368,88,52600,1,2
368,216,53341,5,0
304,216,53711,1,0
256,264,54082,1,2
208,216,54452,1,0
144,216,54822,1,0
96,264,55193,1,0
288,232,56304,6,2,B|320:152,1,80,4|2
192,160,57785,2,2,B|96:160,1,80,4|2
112,288,59267,5,4
240,288,60008,1,2
368,288,60748,1,4
368,160,61489,1,2
280,64,62230,6,0,B|128:64|128:224,1,240,4|2
264,272,65193,2,0,L|248:288|216:288,2,40,0|0|2
328,272,66304,2,0,B|392:208|408:304|440:255,1,120,0|6
432,72,68526,5,0
368,72,68897,1,2
368,136,69267,1,0
304,136,69637,1,0
304,200,70008,1,0
112,200,71119,5,0
304,200,72230,1,0
352,200,72600,2,0,B|448:200,1,80,0|2
432,328,74082,5,4
192,232,75563,1,0
432,232,77045,2,0,B|464:208|424:168,2,60
32,48,80008,5,0
224,48,81119,1,0
224,112,81489,1,0
272,160,81859,1,0
272,224,82230,1,2
224,256,82600,1,0
224,320,82971,1,0
304,128,94822,6,0,B|352:128,3,40,2|0|2|0
216,272,97045,1,2
32,312,98156,2,0,B|80:312,1,40,0|2
32,192,99267,1,0
160,192,100008,1,2
288,192,100748,5,0
440,80,101859,1,0
400,128,102230,1,0
128,216,103711,6,0,B|208:184|288:216,1,160
496,128,106674,5,0
464,192,107045,1,0
464,256,107415,1,2
464,320,107785,1,0
128,208,109637,6,0,B|192:256,1,80,0|2
320,272,111119,1,0
448,272,111859,1,2
448,144,112600,1,0
272,64,113711,1,0
208,64,114082,1,0
208,320,115563,5,0
336,320,116304,1,2
336,192,117045,1,0
208,192,117785,1,2
336,192,118526,6,0,B|336:168|272:168|272:200,1,80,0|2
400,192,120008,2,0,B|424:192|424:128|392:128,1,80,0|2
288,64,121489,5,0
224,64,121859,1,0
160,64,122230,1,2
96,64,122600,1,0
96,256,123711,1,2
224,256,124452,5,0
416,256,125563,2,0,L|416:208,1,40
416,152,126304,1,0
352,152,126674,1,2
288,152,127045,1,0
224,152,127415,1,0
64,288,128897,6,0,B|128:352,2,80,4|6|0
192,288,131119,1,0
320,288,131859,1,0
320,160,132600,1,0
208,96,133341,5,0
208,160,133711,1,0
208,224,134082,1,2
144,224,134452,1,0
448,304,136304,5,0
320,304,137045,1,2
192,304,137785,1,0
64,304,138526,1,2
64,176,139267,1,4
240,96,140378,2,0,B|264:120|280:136,1,40,6|4
256,192,141119,12,0,143711
184,80,145193,6,4,B|272:16|344:96,1,160,4|0
184,288,148156,2,4,B|264:352|344:280,1,160,4|0
496,16,151489,5,0
448,64,151859,1,2
400,112,152230,1,0
352,160,152600,1,0
352,224,152971,1,0
208,80,154082,6,0,B|176:48|144:112|128:80,1,80,0|2
128,152,155193,1,0
128,216,155563,2,0,B|96:184|64:248|48:216,1,80,0|2
24,352,157045,5,4
272,288,158526,1,0
472,136,160008,2,0,B|472:88|424:88|352:88|352:144,1,160,4|0
176,216,162600,6,0,B|176:168|88:168|88:224,1,120,0|2
88,344,164452,1,0
216,344,165193,1,2
344,344,165934,2,0,B|376:376|424:328|520:360,1,160,0|0
256,192,180748,12,0,183711
176,64,192600,6,0,B|352:64,1,160,6|0
336,192,194822,1,2
336,320,195563,5,0
208,320,196304,1,2
80,288,197045,1,0
112,160,197785,1,2
232,192,198526,1,0
360,160,199267,5,2
360,224,199637,1,0
424,224,200008,1,0
424,288,200378,1,0
232,288,201489,1,0
464,184,202971,1,0
216,192,204082,1,0
264,144,204452,6,0,B|344:96|424:144,1,160,4|0
128,224,207415,6,0,B|48:224|48:152,1,120
48,88,208897,1,0
304,88,210378,5,0
128,272,211860,1,0
128,144,212600,1,2
128,80,212971,2,0,B|184:80,1,40
