osu file format v7

[General]
AudioFilename: ! - silky heart (Trance Remix).mp3
AudioLeadIn: 0
PreviewTime: -1
Countdown: 1
SampleSet: Normal
StackLeniency: 0.7
Mode: 0
LetterboxInBreaks: 1

[Editor]
DistanceSpacing: 0.800000011920929
BeatDivisor: 2
GridSize: 32

[Metadata]
Title:Silky Heart (Trance Remix)
Artist:Yui Horie
Creator:eXperion
Version:Normal
Source:
Tags:

[Difficulty]
HPDrainRate:5
CircleSize:4
OverallDifficulty:4
SliderMultiplier:1.5
SliderTickRate:2

[Events]
//Background and Video events
0,0,"TORADORAAAAAAA.jpg"
//Break Periods
2,22386,28366
2,49053,51700
2,62803,68158
2,83220,88366
2,116136,125033
2,149053,151491
2,156552,157741
2,179886,181700
2,188845,194825
//Storyboard Layer 0 (Background)
//Storyboard Layer 1 (Fail)
//Storyboard Layer 2 (Pass)
//Storyboard Layer 3 (Foreground)
//Storyboard Sound Samples
//Background Colour Transformations
3,100,163,162,255

[TimingPoints]
3020,416.666666666667,4,1,0,100,1,0
56373,-100,4,1,0,100,0,1
83046,-100,4,1,0,100,0,0
129706,-100,4,1,0,100,0,1
156373,-100,4,1,0,100,0,0
183040,-100,4,1,0,100,0,1
209706,-100,4,1,0,100,0,0

[Colours]
Combo1 : 255,255,145
Combo2 : 141,252,141
Combo3 : 152,152,252
Combo4 : 253,147,147
Combo5 : 255,181,145

[HitObjects]
384,64,3020,1,0
384,160,3436,1,0
384,224,3645,1,0
384,288,3853,1,0
288,288,4270,1,0
288,192,4686,1,0
288,96,5103,1,0
224,96,5311,1,0
160,96,5520,2,0,B|96:96|96:160,4,75
160,192,6770,5,0
160,256,6978,1,0
160,320,7186,1,0
384,320,8020,1,0
384,224,8436,1,0
384,128,8853,2,0,B|384:64|320:64,1,75
288,64,9270,1,0
224,64,9478,1,0
160,64,9686,1,0
160,160,10103,6,0,B|160:256|288:256,1,150
256,352,10936,2,0,B|352:352|352:224,1,150
352,160,11770,2,0,B|352:64|224:64,2,150
352,224,12811,1,0
352,288,13020,1,0
256,288,13436,1,0
160,288,13853,1,0
64,288,14270,2,0,B|63:198|64:64|320:64,1,375
416,64,16353,5,0
416,128,16561,1,0
416,192,16770,2,0,B|416:288,1,75
320,256,17395,1,0
256,256,17603,2,0,B|160:256,1,75
64,256,18228,2,0,B|64:160,1,75
96,128,18645,2,0,B|160:64,1,75
192,64,19061,1,0
256,64,19270,2,0,B|384:160,4,150
160,64,21353,1,0
64,64,21770,1,0
64,160,22186,1,0
128,320,29686,6,0,B|288:320,1,150
384,320,30520,1,0
384,224,30936,2,0,B|224:224,1,150
128,224,31770,1,0
128,160,31978,1,0
128,96,32186,2,0,B|288:96,1,150
384,96,33020,1,0
384,288,33853,1,0
288,288,34270,1,0
192,288,34686,2,2,B|96:288|96:160|256:160|256:256|128:256,2,225
288,288,36353,6,0,B|288:128,1,150
288,32,37186,2,0,B|128:32,1,150
128,128,38020,1,0
128,224,38436,1,0
128,320,38853,2,0,B|224:320,4,75
160,224,40103,1,0
352,224,40936,1,0
256,32,41770,1,0
256,256,42603,1,0
320,160,43020,5,0
352,192,43228,1,0
320,224,43436,1,0
224,224,43853,5,0
192,192,44061,1,0
224,160,44269,1,0
239,68,44686,5,0
271,36,44894,1,0
303,68,45102,1,0
305,173,45520,5,0
273,205,45728,1,0
241,173,45936,1,0
128,192,46353,2,0,B|128:96|224:96,3,150
320,96,48020,1,0
384,96,48228,1,0
448,96,48436,1,0
448,192,48853,1,0
256,192,53020,12,0,55520
256,96,56353,5,0
256,160,56561,1,0
256,224,56770,1,0
256,288,56978,1,0
352,288,57395,1,0
416,288,57603,1,0
416,192,58020,1,0
416,128,58228,1,0
416,64,58436,1,0
352,64,58645,1,0
128,64,59478,6,0,B|128:160,1,75
128,192,59895,1,0
128,256,60103,2,0,B|128:320|192:320,3,75
224,320,60936,1,0
288,320,61145,1,0
288,256,61353,1,0
288,128,61770,1,0
288,32,62186,1,0
224,32,62395,1,0
160,32,62603,1,0
448,288,69478,5,0
448,224,69686,1,0
448,160,69895,1,0
384,160,70103,1,0
320,160,70311,1,0
224,160,70728,1,0
224,96,70936,1,0
224,32,71145,2,2,B|160:32|160:96,4,75
416,256,72811,5,0
416,192,73020,1,0
416,128,73228,1,0
416,64,73436,1,0
320,64,73853,1,0
320,160,74270,1,0
320,256,74686,1,0
96,256,75520,1,0
96,32,76353,6,0,B|256:32,1,150
256,128,77186,2,0,B|96:128,1,150
96,224,78020,2,0,B|256:224,1,150
352,224,78853,1,0
416,224,79061,1,0
480,224,79270,1,0
480,128,79686,1,0
384,128,80103,1,0
288,128,80520,1,0
192,128,80936,1,0
96,128,81353,1,0
256,192,81561,12,0,83020
256,64,89686,6,0,B|256:224,1,150
256,256,90311,1,0
320,256,90520,2,0,B|480:256,1,150
480,160,91353,1,0
480,64,91770,2,2,B|288:64|288:256,1,300
288,352,93020,1,0
192,352,93436,6,0,B|192:256|288:256,1,150
320,256,94061,1,0
384,256,94270,2,0,B|384:160|256:160,1,150
224,160,94895,1,0
160,160,95103,1,0
96,160,95311,2,0,B|0:160|0:32|128:32|128:128|64:128,1,225
288,160,97186,1,0
32,160,98020,1,0
32,224,98228,1,0
32,288,98436,1,0
160,288,98853,1,0
288,288,99270,1,0
416,288,99686,2,0,B|416:128|192:128,1,300
96,128,100936,1,0
96,256,101353,1,0
192,224,103020,5,0
256,224,103228,1,0
320,224,103436,1,0
320,128,103853,1,0
256,128,104061,1,0
192,128,104270,1,0
192,32,104686,1,0
320,32,105103,1,0
320,160,105520,1,0
320,288,105936,1,0
128,288,106561,5,0
128,224,106770,1,0
128,160,106978,1,0
128,32,107395,1,0
192,32,107603,1,0
256,32,107811,1,0
320,32,108020,1,0
384,32,108228,1,0
448,32,108436,2,0,B|448:128|352:128,2,150
480,256,109895,6,0,B|384:256,1,75
352,256,110311,1,0
224,256,110728,6,0,B|224:160,1,75
224,128,111145,1,0
352,128,111561,5,0
416,128,111770,1,0
480,128,111978,2,0,B|480:224,2,75
480,64,112603,1,0
416,64,112811,2,0,B|288:64|288:64|288:192,1,225
288,288,113853,1,0
256,352,114061,1,0
192,352,114270,1,0
192,224,114686,1,0
192,96,115103,1,0
256,96,115311,1,0
320,96,115520,1,0
384,96,115728,1,0
448,96,115936,1,0
256,192,126353,12,0,129270
320,128,129686,5,0
320,192,129895,1,0
320,256,130103,2,0,B|320:320|256:320,1,75
160,320,130728,1,0
160,256,130936,1,0
160,192,131145,2,0,B|160:128|224:128,1,75
256,128,131561,1,0
320,128,131770,2,0,B|416:128,4,75
256,128,132811,5,0
192,128,133020,1,0
128,128,133228,1,0
64,128,133436,1,0
64,192,133645,2,0,B|64:352|256:352,1,225
256,352,134478,1,0
320,352,134686,1,0
384,352,134895,1,0
384,288,135103,1,0
320,288,135311,1,0
64,288,136145,5,0
64,224,136353,1,0
64,96,136770,1,0
192,96,137186,1,0
256,96,137395,1,0
320,96,137603,1,0
448,96,138020,1,0
448,288,138645,1,0
384,288,138853,1,0
320,288,139061,1,0
256,288,139270,1,0
256,192,139478,12,0,141353
416,64,142811,6,0,B|416:160,1,75
416,192,143228,2,0,B|416:288,1,75
416,320,143645,1,0
288,320,144061,1,0
288,256,144270,1,0
224,256,144478,1,0
224,320,144686,1,0
160,320,144895,2,0,B|64:320|64:224,1,150
96,64,146145,5,0
160,64,146354,2,0,B|256:64,1,75
288,64,146770,1,0
352,64,146978,2,0,B|448:64|448:160,1,150
448,224,147603,1,0
448,288,147811,1,0
448,352,148020,2,2,B|352:352,4,75
256,192,152811,5,0
320,192,153020,1,0
256,192,153228,1,0
192,192,153436,1,0
192,128,153645,1,0
192,64,153853,1,0
320,64,154270,1,0
448,64,154686,2,0,B|448:384|160:384|160:32|416:32|416:192|320:224,1,600
256,64,159061,5,0
256,128,159270,1,0
256,192,159478,1,0
256,256,159686,1,0
256,256,162395,1,0
256,192,162603,1,0
256,128,162811,1,0
256,64,163020,1,0
384,64,163436,5,0
384,192,163853,1,0
384,320,164270,1,0
256,320,164686,1,0
128,320,165103,1,0
128,192,165520,1,0
128,64,165936,1,0
256,64,166353,1,0
256,192,166770,2,0,B|256:352,2,150
256,64,168020,1,0
128,64,168436,1,0
256,160,168853,1,0
448,320,169686,5,0
320,320,170103,1,0
192,320,170520,1,0
192,192,170936,1,0
192,64,171353,2,0,B|288:64,3,75
384,64,172395,1,0
416,32,172603,1,0
448,64,172811,1,0
416,96,173020,1,0
288,96,173436,6,0,B|288:256,1,150
160,224,174270,2,0,B|320:224,1,150,0|0
416,224,175103,2,0,B|256:224,1,150,0|0
266,224,175728,1,0
266,224,175936,1,0
266,224,176145,1,0
266,224,176353,1,0
256,96,176770,6,0,B|128:96,1,75
128,96,177186,1,0
128,224,177603,1,0
192,224,177811,2,0,B|320:224,1,75
320,224,178228,1,0
384,192,178436,1,0
416,128,178645,1,0
416,64,178853,1,0
416,64,179061,1,0
416,64,179270,1,0
416,64,179478,1,0
416,64,179686,1,0
256,320,183020,6,0,B|256:224,1,75
256,192,183436,1,0
256,128,183645,1,0
384,128,184061,1,0
384,192,184270,1,0
384,128,184478,1,0
384,192,184686,1,0
384,256,184895,2,0,B|384:352|288:352,1,150
64,320,186145,5,0
64,256,186353,1,0
96,288,186561,2,0,B|192:288,2,75
64,160,187395,1,0
128,160,187603,1,0
192,160,187811,2,0,B|192:256,3,75
192,288,188645,1,0
384,64,196145,5,0
384,128,196353,1,0
384,192,196561,1,0
384,256,196770,2,0,B|320:256|320:192,1,75
320,96,197395,1,0
288,64,197603,1,0
256,96,197811,1,0
288,128,198020,1,0
288,192,198228,1,0
288,256,198436,2,0,B|288:352,1,75
96,320,199686,5,0
96,192,200103,1,0
96,64,200520,1,0
224,64,200936,1,0
224,192,201353,2,0,B|224:288|320:288,1,150
448,288,202186,1,0
448,224,202395,1,0
448,160,202603,1,0
320,160,203020,5,0
96,160,203853,1,0
320,160,204686,1,0
320,224,204895,2,0,B|320:288|256:320,3,75
64,288,206353,5,0
64,224,206561,1,0
64,160,206770,1,0
177,120,207186,1,0
288,160,207603,1,0
288,224,207811,1,0
288,288,208020,1,0
416,288,208436,1,0
256,96,209270,1,0
