osu file format v7

[General]
AudioFilename: ! - silky heart (Trance Remix).mp3
AudioLeadIn: 0
PreviewTime: -1
Countdown: 1
SampleSet: Normal
StackLeniency: 0.7
Mode: 0
LetterboxInBreaks: 1

[Editor]
DistanceSpacing: 0.800000011920929
BeatDivisor: 4
GridSize: 8

[Metadata]
Title:Silky Heart (Trance Remix)
Artist:Yui Horie
Creator:eXperion
Version:Hard
Source:
Tags:

[Difficulty]
HPDrainRate:6
CircleSize:5
OverallDifficulty:6
SliderMultiplier:1.7
SliderTickRate:2

[Events]
//Background and Video events
0,0,"TORADORAAAAAAA.jpg"
//Break Periods
2,62803,67386
//Storyboard Layer 0 (Background)
//Storyboard Layer 1 (Fail)
//Storyboard Layer 2 (Pass)
//Storyboard Layer 3 (Foreground)
//Storyboard Sound Samples
//Background Colour Transformations
3,100,163,162,255

[TimingPoints]
3020,416.666666666667,4,1,0,100,1,0
56373,-100,4,1,0,100,0,1
62811,-100,4,1,0,100,0,0
67395,-100,4,1,0,100,0,1
83046,-100,4,1,0,100,0,0
129706,-100,4,1,0,100,0,1
156373,-100,4,1,0,100,0,0
183040,-100,4,1,0,100,0,1
209706,-100,4,1,0,100,0,0

[Colours]
Combo1 : 255,255,145
Combo2 : 141,252,141
Combo3 : 152,152,252
Combo4 : 253,147,147
Combo5 : 255,181,145

[HitObjects]
256,64,3020,1,0
320,80,3228,1,0
368,128,3436,1,0
384,192,3645,1,0
384,256,3853,1,0
256,320,4270,1,0
128,256,4686,1,0
128,192,4894,1,0
144,128,5102,1,0
200,88,5311,1,0
264,80,5519,1,0
264,152,5728,1,0
264,184,5832,1,0
264,216,5936,1,0
264,288,6145,1,0
264,352,6353,1,0
200,344,6561,5,0
144,304,6770,1,0
104,248,6978,1,0
104,184,7186,1,0
104,112,7395,1,0
104,80,7499,1,0
104,48,7603,1,0
168,48,7811,1,0
240,48,8020,1,0
208,104,8228,1,0
208,168,8436,2,0,B|208:232|288:232,2,85
432,240,9686,1,0
368,112,10103,5,0
368,176,10311,1,0
368,208,10415,1,0
368,240,10520,1,0
368,304,10728,1,0
304,304,10936,1,0
240,304,11145,1,0
176,304,11353,1,0
112,304,11561,1,0
72,248,11770,1,0
80,184,11978,1,0
120,128,12186,1,0
184,136,12395,5,0
216,152,12499,1,0
248,168,12603,1,0
296,216,12811,1,0
336,272,13020,1,0
464,272,13436,1,0
416,144,13853,1,0
416,32,14270,1,0
352,32,14478,1,0
288,32,14686,1,0
224,32,14895,2,0,B|112:32|112:160,1,170
160,288,16353,5,0
224,288,16561,1,0
288,288,16770,1,0
352,288,16978,1,0
352,144,17395,1,0
288,144,17603,1,0
224,144,17811,1,0
80,144,18228,1,0
80,208,18436,1,0
80,272,18645,1,0
120,328,18853,1,0
184,336,19061,1,0
216,336,19165,1,0
248,336,19270,1,0
248,272,19478,1,0
240,128,19895,5,0
240,64,20103,1,0
304,64,20311,1,0
432,64,20728,1,0
432,128,20936,1,0
432,192,21145,1,0
432,256,21353,2,0,B|432:352|304:352,1,170
256,352,21978,1,0
224,352,22082,1,0
192,352,22187,1,0
64,32,23228,5,0
128,32,23436,1,0
64,32,23645,1,0
64,128,24062,5,0
128,128,24270,1,0
64,128,24479,1,0
64,256,24895,1,0
112,304,25103,1,0
176,304,25311,1,0
224,256,25520,1,0
176,208,25728,1,0
144,208,25832,1,0
112,208,25936,1,0
64,256,26145,1,0
112,304,26353,2,0,B|256:304|256:192,4,170
256,192,29270,1,0
256,192,29374,1,0
256,192,29478,1,0
256,192,29582,1,0
256,192,29686,1,0
64,96,30103,5,0
416,96,30520,1,0
256,256,30936,1,0
400,336,31353,1,0
336,336,31561,1,0
336,336,31770,1,0
272,336,31978,1,0
272,336,32186,1,0
208,336,32395,1,0
208,336,32499,1,0
208,336,32603,2,0,B|208:240,1,85
336,192,33228,6,0,B|432:192,2,85
192,192,34061,2,0,B|96:192,2,85,0|0|0
256,192,34686,1,0
256,128,34895,1,0
256,64,35103,2,0,B|256:240,2,170
256,64,36145,1,0
256,64,36249,1,0
256,64,36353,1,0
320,64,36561,5,0
384,80,36770,1,0
432,128,36978,1,0
432,256,37395,1,0
368,240,37604,1,0
320,192,37812,1,0
304,80,38228,1,0
256,48,38436,1,0
208,80,38645,1,0
256,112,38853,1,0
304,80,39061,1,0
256,48,39270,1,0
208,80,39478,1,0
256,112,39686,1,0
256,240,40103,1,0
48,240,40520,1,0
256,352,40936,1,0
256,192,41353,1,0
256,192,41457,1,0
256,192,41561,1,0
256,192,41665,1,0
256,192,41770,1,0
256,192,42186,1,0
256,192,42603,1,0
256,128,43020,5,0
320,192,43228,1,0
256,256,43436,1,0
256,128,43853,5,0
192,192,44061,1,0
256,256,44270,1,0
256,128,44686,5,0
320,192,44894,1,0
256,256,45102,1,0
256,128,45520,5,0
192,192,45728,1,0
256,256,45937,1,0
256,336,46353,5,0
432,336,46770,1,0
432,160,47186,1,0
256,160,47603,1,0
80,160,48020,2,0,B|80:272|192:272,2,170
80,96,49061,1,0
80,64,49165,1,0
80,32,49270,1,0
256,48,49686,5,0
256,48,49895,1,0
320,80,50103,1,0
320,80,50311,1,0
352,144,50520,1,0
352,144,50728,1,0
320,208,50936,1,0
320,208,51145,1,0
256,224,51353,1,0
256,224,51561,1,0
256,224,51770,1,0
256,224,51978,1,0
256,224,52603,5,0
192,208,52811,1,0
160,144,53019,1,0
192,80,53228,1,0
192,80,53645,1,0
256,48,53853,1,0
320,80,54061,1,0
352,144,54270,1,0
256,192,54478,12,0,55936
160,80,56353,5,0
128,136,56561,1,0
128,208,56770,2,0,B|128:288|192:288,1,85
339,280,57395,2,0,B|387:280|387:184,1,85,0|0
384,152,57811,1,0
360,88,58020,1,0
296,64,58228,1,0
264,64,58332,1,0
232,64,58436,1,0
168,72,58645,2,0,B|104:72|88:136,3,85
72,176,59478,1,0
72,208,59582,1,0
88,240,59686,1,0
144,280,59895,1,0
208,312,60103,2,0,B|240:344|304:312,1,85
392,232,60728,1,0
416,168,60936,1,0
448,104,61145,2,0,B|528:40|432:40,1,85
400,40,61561,1,0
368,40,61665,1,0
336,40,61770,1,0
256,40,61978,1,0
256,104,62186,1,0
256,176,62395,1,0
256,176,62603,1,0
256,192,68436,12,8,69269
