osu file format v14

[General]
AudioFilename: School Rumble Opening 1.mp3
AudioLeadIn: 0
PreviewTime: -1
Countdown: 1
SampleSet: Normal
StackLeniency: 0.7
Mode: 3
LetterboxInBreaks: 1
SpecialStyle: 0
WidescreenStoryboard: 0

[Editor]
DistanceSpacing: 1
BeatDivisor: 4
GridSize: 8
TimelineZoom: 2.2

[Metadata]
Title:Scramble
TitleUnicode:Scramble
Artist:Yui Horie
ArtistUnicode:Yui Horie
Creator:Tristan97
Version:Volume I
Source:
Tags:
BeatmapID:932211
BeatmapSetID:432306

[Difficulty]
HPDrainRate:8
CircleSize:4
OverallDifficulty:8
ApproachRate:5
SliderMultiplier:1.4
SliderTickRate:1

[Events]
//Background and Video events
0,0,"Harima_and_Tenma.jpg",0,0
//Break Periods
//Storyboard Layer 0 (Background)
//Storyboard Layer 1 (Fail)
//Storyboard Layer 2 (Pass)
//Storyboard Layer 3 (Foreground)
//Storyboard Sound Samples

[TimingPoints]
190,458.015267175573,4,1,0,10,1,0

[HitObjects]
64,192,190,5,0,0:0:0:0:
448,192,190,1,0,0:0:0:0:
192,192,190,1,0,0:0:0:0:
64,192,419,1,0,0:0:0:0:
448,192,419,1,0,0:0:0:0:
320,192,419,1,0,0:0:0:0:
192,192,648,1,0,0:0:0:0:
320,192,762,1,0,0:0:0:0:
320,192,991,1,0,0:0:0:0:
448,192,1029,1,0,0:0:0:0:
64,192,1182,1,0,0:0:0:0:
448,192,1220,1,0,0:0:0:0:
320,192,1306,1,0,0:0:0:0:
192,192,1449,1,0,0:0:0:0:
320,192,1564,1,0,0:0:0:0:
448,192,1678,1,0,0:0:0:0:
64,192,2022,1,0,0:0:0:0:
192,192,2022,1,0,0:0:0:0:
448,192,2022,1,0,0:0:0:0:
320,192,2251,1,0,0:0:0:0:
448,192,2251,1,0,0:0:0:0:
64,192,2251,1,0,0:0:0:0:
192,192,2480,1,0,0:0:0:0:
320,192,2594,1,0,0:0:0:0:
192,192,2785,1,0,0:0:0:0:
448,192,2823,1,0,0:0:0:0:
320,192,2995,1,0,0:0:0:0:
64,192,3090,1,0,0:0:0:0:
192,192,3128,1,0,0:0:0:0:
320,192,3243,1,0,0:0:0:0:
448,192,3319,1,0,0:0:0:0:
192,192,3510,1,0,0:0:0:0:
192,192,3815,1,0,0:0:0:0:
448,192,3854,1,0,0:0:0:0:
64,192,3854,1,0,0:0:0:0:
320,192,3854,128,0,5571:0:0:0:0:
192,192,5457,1,0,0:0:0:0:
64,192,5571,1,0,0:0:0:0:
192,192,5686,1,0,0:0:0:0:
448,192,5686,1,0,0:0:0:0:
64,192,5915,1,0,0:0:0:0:
320,192,5915,1,0,0:0:0:0:
320,192,6144,1,0,0:0:0:0:
64,192,6144,1,0,0:0:0:0:
448,192,6258,1,0,0:0:0:0:
192,192,6258,1,0,0:0:0:0:
448,192,6487,1,0,0:0:0:0:
64,192,6487,1,0,0:0:0:0:
320,192,6487,1,0,0:0:0:0:
192,192,6487,1,0,0:0:0:0:
64,192,6802,1,0,0:0:0:0:
192,192,6831,1,0,0:0:0:0:
448,192,6974,1,0,0:0:0:0:
320,192,7022,1,0,0:0:0:0:
192,192,7203,1,0,0:0:0:0:
320,192,7251,1,0,0:0:0:0:
192,192,7480,1,0,0:0:0:0:
64,192,7518,1,0,0:0:0:0:
448,192,7518,1,0,0:0:0:0:
320,192,7546,1,0,0:0:0:0:
64,192,7718,1,0,0:0:0:0:
320,192,7718,1,0,0:0:0:0:
192,192,7747,1,0,0:0:0:0:
448,192,7785,1,0,0:0:0:0:
192,192,9522,1,0,0:0:0:0:
448,192,9541,1,0,0:0:0:0:
64,192,9550,1,0,0:0:0:0:
320,192,9579,1,0,0:0:0:0:
448,192,9770,1,0,0:0:0:0:
64,192,9779,1,0,0:0:0:0:
320,192,9808,1,0,0:0:0:0:
192,192,9846,1,0,0:0:0:0:
64,192,10008,1,0,0:0:0:0:
320,192,10008,1,0,0:0:0:0:
192,192,10037,1,0,0:0:0:0:
448,192,10075,1,0,0:0:0:0:
192,192,10228,1,0,0:0:0:0:
64,192,10237,1,0,0:0:0:0:
448,192,10266,1,0,0:0:0:0:
320,192,10294,1,0,0:0:0:0:
192,192,10695,1,0,0:0:0:0:
64,192,10724,1,0,0:0:0:0:
448,192,10724,1,0,0:0:0:0:
320,192,10762,1,0,0:0:0:0:
64,192,11153,1,0,0:0:0:0:
448,192,11153,1,0,0:0:0:0:
192,192,11182,1,0,0:0:0:0:
320,192,11220,1,0,0:0:0:0:
320,192,11611,1,0,0:0:0:0:
64,192,11640,1,0,0:0:0:0:
448,192,11640,1,0,0:0:0:0:
192,192,11678,1,0,0:0:0:0:
448,192,11831,1,0,0:0:0:0:
192,192,11869,1,0,0:0:0:0:
320,192,11869,1,0,0:0:0:0:
64,192,11898,1,0,0:0:0:0:
448,192,12289,1,0,0:0:0:0:
192,192,12298,1,0,0:0:0:0:
320,192,12327,1,0,0:0:0:0:
64,192,12356,1,0,0:0:0:0:
448,192,12527,1,0,0:0:0:0:
64,192,12556,1,0,0:0:0:0:
320,192,12556,1,0,0:0:0:0:
192,192,12594,1,0,0:0:0:0:
320,192,12756,1,0,0:0:0:0:
64,192,12785,1,0,0:0:0:0:
192,192,12785,1,0,0:0:0:0:
448,192,12814,1,0,0:0:0:0:
192,192,13672,1,0,0:0:0:0:
64,192,13701,1,0,0:0:0:0:
448,192,13701,1,0,0:0:0:0:
320,192,13730,1,0,0:0:0:0:
64,192,13901,1,0,0:0:0:0:
448,192,13901,1,0,0:0:0:0:
320,192,13930,1,0,0:0:0:0:
192,192,13959,1,0,0:0:0:0:
192,192,14350,1,0,0:0:0:0:
320,192,14350,1,0,0:0:0:0:
64,192,14388,1,0,0:0:0:0:
448,192,14426,1,0,0:0:0:0:
192,192,14808,1,0,0:0:0:0:
64,192,14846,1,0,0:0:0:0:
448,192,14875,1,0,0:0:0:0:
320,192,14884,1,0,0:0:0:0:
64,192,16878,1,0,0:0:0:0:
320,192,16907,1,0,0:0:0:0:
192,192,16936,1,0,0:0:0:0:
448,192,16945,1,0,0:0:0:0:
64,192,17107,1,0,0:0:0:0:
320,192,17136,1,0,0:0:0:0:
448,192,17165,1,0,0:0:0:0:
192,192,17174,1,0,0:0:0:0:
320,192,17336,1,0,0:0:0:0:
192,192,17365,1,0,0:0:0:0:
64,192,17394,1,0,0:0:0:0:
448,192,17403,1,0,0:0:0:0:
448,192,17556,1,0,0:0:0:0:
64,192,17565,1,0,0:0:0:0:
320,192,17594,1,0,0:0:0:0:
192,192,17623,1,0,0:0:0:0:
448,192,17785,1,0,0:0:0:0:
192,192,17823,1,0,0:0:0:0:
64,192,17852,1,0,0:0:0:0:
320,192,17861,1,0,0:0:0:0:
192,192,18023,1,0,0:0:0:0:
320,192,18052,1,0,0:0:0:0:
448,192,18081,1,0,0:0:0:0:
64,192,18090,1,0,0:0:0:0:
448,192,18243,1,0,0:0:0:0:
192,192,18252,1,0,0:0:0:0:
320,192,18281,1,0,0:0:0:0:
64,192,18310,1,0,0:0:0:0:
320,192,18472,1,0,0:0:0:0:
64,192,18481,1,0,0:0:0:0:
192,192,18510,1,0,0:0:0:0:
448,192,18548,1,0,0:0:0:0:
448,192,18815,1,0,0:0:0:0:
192,192,18825,1,0,0:0:0:0:
64,192,18854,1,0,0:0:0:0:
320,192,18882,1,0,0:0:0:0:
320,192,21678,1,0,0:0:0:0:
64,192,21688,1,0,0:0:0:0:
448,192,21688,1,0,0:0:0:0:
192,192,21716,1,0,0:0:0:0:
448,192,21907,1,0,0:0:0:0:
320,192,21917,1,0,0:0:0:0:
192,192,21917,1,0,0:0:0:0:
64,192,21945,1,0,0:0:0:0:
448,192,22136,1,0,0:0:0:0:
64,192,22146,1,0,0:0:0:0:
192,192,22203,1,0,0:0:0:0:
320,192,22212,1,0,0:0:0:0:
192,192,22365,1,0,0:0:0:0:
64,192,22375,1,0,0:0:0:0:
320,192,22403,1,0,0:0:0:0:
448,192,22432,1,0,0:0:0:0:
320,192,24197,1,0,0:0:0:0:
192,192,24207,1,0,0:0:0:0:
448,192,24235,1,0,0:0:0:0:
64,192,24264,1,0,0:0:0:0:
448,192,24426,1,0,0:0:0:0:
64,192,24436,1,0,0:0:0:0:
320,192,24464,1,0,0:0:0:0:
192,192,24493,1,0,0:0:0:0:
320,192,24665,1,0,0:0:0:0:
64,192,24693,1,0,0:0:0:0:
448,192,24693,1,0,0:0:0:0:
192,192,24731,1,0,0:0:0:0:
320,192,24894,1,0,0:0:0:0:
192,192,24922,1,0,0:0:0:0:
448,192,24951,1,0,0:0:0:0:
64,192,24960,1,0,0:0:0:0:
320,192,25123,1,0,0:0:0:0:
448,192,25151,1,0,0:0:0:0:
64,192,25151,1,0,0:0:0:0:
192,192,25190,1,0,0:0:0:0:
448,192,25342,1,0,0:0:0:0:
192,192,25380,1,0,0:0:0:0:
64,192,25409,1,0,0:0:0:0:
320,192,25419,1,0,0:0:0:0:
192,192,25581,1,0,0:0:0:0:
448,192,25609,1,0,0:0:0:0:
320,192,25638,1,0,0:0:0:0:
64,192,25648,1,0,0:0:0:0:
192,192,25800,1,0,0:0:0:0:
320,192,25838,1,0,0:0:0:0:
64,192,25867,1,0,0:0:0:0:
448,192,25877,1,0,0:0:0:0:
192,192,26039,1,0,0:0:0:0:
64,192,26067,1,0,0:0:0:0:
320,192,26067,1,0,0:0:0:0:
448,192,26096,1,0,0:0:0:0:
448,192,26487,1,0,0:0:0:0:
192,192,26497,1,0,0:0:0:0:
64,192,26525,1,0,0:0:0:0:
320,192,26554,1,0,0:0:0:0:
192,192,26945,1,0,0:0:0:0:
64,192,26955,1,0,0:0:0:0:
448,192,26983,1,0,0:0:0:0:
320,192,27012,1,0,0:0:0:0:
192,192,27184,1,0,0:0:0:0:
448,192,27184,1,0,0:0:0:0:
320,192,27212,1,0,0:0:0:0:
64,192,27251,1,0,0:0:0:0:
320,192,27403,1,0,0:0:0:0:
64,192,27413,1,0,0:0:0:0:
192,192,27441,1,0,0:0:0:0:
448,192,27480,1,0,0:0:0:0:
448,192,28777,1,0,0:0:0:0:
64,192,28787,1,0,0:0:0:0:
320,192,28815,1,0,0:0:0:0:
192,192,28844,1,0,0:0:0:0:
320,192,29006,1,0,0:0:0:0:
192,192,29016,1,0,0:0:0:0:
64,192,29044,1,0,0:0:0:0:
448,192,29073,1,0,0:0:0:0:
320,192,29235,1,0,0:0:0:0:
64,192,29273,1,0,0:0:0:0:
448,192,29302,1,0,0:0:0:0:
192,192,29312,1,0,0:0:0:0:
192,192,29464,1,0,0:0:0:0:
64,192,29474,1,0,0:0:0:0:
320,192,29502,1,0,0:0:0:0:
448,192,29541,1,0,0:0:0:0:
320,192,29808,1,0,0:0:0:0:
64,192,29817,1,0,0:0:0:0:
192,192,29846,1,0,0:0:0:0:
448,192,29875,1,0,0:0:0:0:
64,192,30151,1,0,0:0:0:0:
448,192,30161,1,0,0:0:0:0:
192,192,30190,1,0,0:0:0:0:
320,192,30218,1,0,0:0:0:0:
192,192,30571,1,0,0:0:0:0:
64,192,30590,1,0,0:0:0:0:
448,192,30619,1,0,0:0:0:0:
320,192,30648,1,0,0:0:0:0:
448,192,30838,1,0,0:0:0:0:
192,192,30848,1,0,0:0:0:0:
64,192,30877,1,0,0:0:0:0:
320,192,30905,1,0,0:0:0:0:
448,192,31067,1,0,0:0:0:0:
64,192,31106,1,0,0:0:0:0:
320,192,31134,1,0,0:0:0:0:
192,192,31144,1,0,0:0:0:0:
448,192,31296,1,0,0:0:0:0:
64,192,31306,1,0,0:0:0:0:
192,192,31335,1,0,0:0:0:0:
320,192,31373,1,0,0:0:0:0:
320,192,31640,1,0,0:0:0:0:
64,192,31678,1,0,0:0:0:0:
448,192,31678,1,0,0:0:0:0:
192,192,31707,1,0,0:0:0:0:
448,192,31983,1,0,0:0:0:0:
192,192,31993,1,0,0:0:0:0:
64,192,32022,1,0,0:0:0:0:
320,192,32050,1,0,0:0:0:0:
64,192,32880,1,0,0:0:0:0:
320,192,32899,1,0,0:0:0:0:
448,192,32909,1,0,0:0:0:0:
192,192,32938,1,0,0:0:0:0:
192,192,33128,1,0,0:0:0:0:
64,192,33138,1,0,0:0:0:0:
448,192,33138,1,0,0:0:0:0:
320,192,33167,1,0,0:0:0:0:
192,192,33357,1,0,0:0:0:0:
448,192,33367,1,0,0:0:0:0:
64,192,33396,1,0,0:0:0:0:
320,192,33424,1,0,0:0:0:0:
64,192,33596,1,0,0:0:0:0:
192,192,33625,1,0,0:0:0:0:
320,192,33653,1,0,0:0:0:0:
448,192,33663,1,0,0:0:0:0:
192,192,33815,1,0,0:0:0:0:
448,192,33825,1,0,0:0:0:0:
320,192,33882,1,0,0:0:0:0:
64,192,33892,1,0,0:0:0:0:
448,192,34044,1,0,0:0:0:0:
192,192,34054,1,0,0:0:0:0:
320,192,34083,1,0,0:0:0:0:
64,192,34111,1,0,0:0:0:0:
320,192,34273,1,0,0:0:0:0:
448,192,34283,1,0,0:0:0:0:
64,192,34312,1,0,0:0:0:0:
192,192,34340,1,0,0:0:0:0:
320,192,34502,1,0,0:0:0:0:
448,192,34541,1,0,0:0:0:0:
192,192,34569,1,0,0:0:0:0:
64,192,34579,1,0,0:0:0:0:
320,192,34741,1,0,0:0:0:0:
64,192,34741,1,0,0:0:0:0:
448,192,34770,1,0,0:0:0:0:
192,192,34808,1,0,0:0:0:0:
448,192,37022,1,0,0:0:0:0:
64,192,37031,1,0,0:0:0:0:
192,192,37060,1,0,0:0:0:0:
320,192,37088,1,0,0:0:0:0:
448,192,37251,1,0,0:0:0:0:
192,192,37260,1,0,0:0:0:0:
64,192,37289,1,0,0:0:0:0:
320,192,37317,1,0,0:0:0:0:
320,192,37480,1,0,0:0:0:0:
64,192,37489,1,0,0:0:0:0:
192,192,37518,1,0,0:0:0:0:
448,192,37546,1,0,0:0:0:0:
320,192,37718,1,0,0:0:0:0:
64,192,37747,1,0,0:0:0:0:
448,192,37747,1,0,0:0:0:0:
192,192,37785,1,0,0:0:0:0:
64,192,38033,1,0,0:0:0:0:
448,192,38033,1,0,0:0:0:0:
192,192,38062,1,0,0:0:0:0:
320,192,38090,1,0,0:0:0:0:
64,192,38405,1,0,0:0:0:0:
320,192,38405,1,0,0:0:0:0:
192,192,38434,1,0,0:0:0:0:
448,192,38472,1,0,0:0:0:0:
192,192,38625,1,0,0:0:0:0:
448,192,38634,1,0,0:0:0:0:
64,192,38663,1,0,0:0:0:0:
320,192,38701,1,0,0:0:0:0:
448,192,38854,1,0,0:0:0:0:
192,192,38863,1,0,0:0:0:0:
320,192,38892,1,0,0:0:0:0:
64,192,38892,1,0,0:0:0:0:
192,192,39083,1,0,0:0:0:0:
320,192,39092,1,0,0:0:0:0:
64,192,39121,1,0,0:0:0:0:
448,192,39159,1,0,0:0:0:0:
320,192,39321,1,0,0:0:0:0:
64,192,39350,1,0,0:0:0:0:
448,192,39378,1,0,0:0:0:0:
192,192,39388,1,0,0:0:0:0:
192,192,40237,1,0,0:0:0:0:
320,192,40237,1,0,0:0:0:0:
64,192,40294,1,0,0:0:0:0:
448,192,40294,1,0,0:0:0:0:
64,192,40466,1,0,0:0:0:0:
448,192,40466,1,0,0:0:0:0:
192,192,40523,1,0,0:0:0:0:
320,192,40523,1,0,0:0:0:0:
64,192,41096,1,0,0:0:0:0:
320,192,41096,1,0,0:0:0:0:
192,192,41153,1,0,0:0:0:0:
448,192,41153,1,0,0:0:0:0:
448,192,41382,1,0,0:0:0:0:
192,192,41382,1,0,0:0:0:0:
320,192,41440,1,0,0:0:0:0:
64,192,41440,1,0,0:0:0:0:
448,192,42098,128,0,42212:0:0:0:0:
448,192,42327,128,0,42556:0:0:0:0:
320,192,42785,128,0,43014:0:0:0:0:
192,192,43243,128,0,43472:0:0:0:0:
320,192,43701,128,0,43930:0:0:0:0:
192,192,43930,128,0,44044:0:0:0:0:
448,192,44159,1,0,0:0:0:0:
64,192,44159,1,0,0:0:0:0:
320,192,44273,1,0,0:0:0:0:
192,192,44388,1,0,0:0:0:0:
448,192,44388,1,0,0:0:0:0:
64,192,44502,1,0,0:0:0:0:
192,192,44617,1,0,0:0:0:0:
320,192,44617,1,0,0:0:0:0:
448,192,44731,1,0,0:0:0:0:
64,192,44846,1,0,0:0:0:0:
320,192,44846,1,0,0:0:0:0:
192,192,44960,1,0,0:0:0:0:
64,192,45075,1,0,0:0:0:0:
448,192,45075,1,0,0:0:0:0:
192,192,45190,1,0,0:0:0:0:
320,192,45304,1,0,0:0:0:0:
192,192,45419,1,0,0:0:0:0:
448,192,45419,1,0,0:0:0:0:
64,192,45533,1,0,0:0:0:0:
192,192,45648,1,0,0:0:0:0:
64,192,45762,1,0,0:0:0:0:
448,192,45762,1,0,0:0:0:0:
320,192,45877,1,0,0:0:0:0:
448,192,45991,1,0,0:0:0:0:
64,192,45991,1,0,0:0:0:0:
320,192,46106,1,0,0:0:0:0:
192,192,46220,1,0,0:0:0:0:
448,192,46220,1,0,0:0:0:0:
320,192,46335,1,0,0:0:0:0:
64,192,46449,1,0,0:0:0:0:
448,192,46449,1,0,0:0:0:0:
192,192,46564,1,0,0:0:0:0:
320,192,46678,1,0,0:0:0:0:
64,192,46678,1,0,0:0:0:0:
192,192,46793,1,0,0:0:0:0:
448,192,46907,1,0,0:0:0:0:
320,192,46907,1,0,0:0:0:0:
64,192,47022,1,0,0:0:0:0:
192,192,47136,1,0,0:0:0:0:
64,192,47251,1,0,0:0:0:0:
320,192,47251,1,0,0:0:0:0:
448,192,47365,1,0,0:0:0:0:
320,192,47480,1,0,0:0:0:0:
192,192,47594,1,0,0:0:0:0:
64,192,47709,1,0,0:0:0:0:
192,192,47823,1,0,0:0:0:0:
448,192,47823,1,0,0:0:0:0:
320,192,47938,1,0,0:0:0:0:
64,192,48052,1,0,0:0:0:0:
448,192,48052,1,0,0:0:0:0:
320,192,48167,1,0,0:0:0:0:
192,192,48281,1,0,0:0:0:0:
448,192,48281,1,0,0:0:0:0:
64,192,48396,1,0,0:0:0:0:
192,192,48510,1,0,0:0:0:0:
320,192,48510,1,0,0:0:0:0:
448,192,48625,1,0,0:0:0:0:
64,192,48739,1,0,0:0:0:0:
320,192,48739,1,0,0:0:0:0:
192,192,48854,1,0,0:0:0:0:
320,192,48968,1,0,0:0:0:0:
448,192,49083,1,0,0:0:0:0:
64,192,49083,1,0,0:0:0:0:
320,192,49197,1,0,0:0:0:0:
192,192,49312,1,0,0:0:0:0:
64,192,49426,1,0,0:0:0:0:
448,192,49426,1,0,0:0:0:0:
320,192,49541,1,0,0:0:0:0:
192,192,49655,1,0,0:0:0:0:
448,192,49655,1,0,0:0:0:0:
320,192,49770,1,0,0:0:0:0:
64,192,49884,1,0,0:0:0:0:
192,192,49884,1,0,0:0:0:0:
320,192,49999,1,0,0:0:0:0:
448,192,50113,1,0,0:0:0:0:
64,192,50113,1,0,0:0:0:0:
192,192,50228,1,0,0:0:0:0:
320,192,50342,1,0,0:0:0:0:
448,192,50342,1,0,0:0:0:0:
192,192,50457,1,0,0:0:0:0:
64,192,50571,1,0,0:0:0:0:
320,192,50571,1,0,0:0:0:0:
448,192,50686,1,0,0:0:0:0:
320,192,50800,1,0,0:0:0:0:
448,192,50915,1,0,0:0:0:0:
64,192,50915,1,0,0:0:0:0:
192,192,51029,1,0,0:0:0:0:
320,192,51144,1,0,0:0:0:0:
64,192,51144,1,0,0:0:0:0:
192,192,51258,1,0,0:0:0:0:
64,192,51373,1,0,0:0:0:0:
448,192,51373,1,0,0:0:0:0:
192,192,51487,1,0,0:0:0:0:
320,192,51602,1,0,0:0:0:0:
448,192,51716,1,0,0:0:0:0:
320,192,51831,1,0,0:0:0:0:
448,192,51945,1,0,0:0:0:0:
320,192,52060,1,0,0:0:0:0:
448,192,52174,1,0,0:0:0:0:
320,192,52289,1,0,0:0:0:0:
192,192,52403,1,0,0:0:0:0:
320,192,52518,1,0,0:0:0:0:
448,192,52632,1,0,0:0:0:0:
192,192,52747,1,0,0:0:0:0:
448,192,52861,1,0,0:0:0:0:
320,192,52861,1,0,0:0:0:0:
192,192,52976,1,0,0:0:0:0:
64,192,53090,1,0,0:0:0:0:
320,192,53090,1,0,0:0:0:0:
192,192,53205,1,0,0:0:0:0:
320,192,53319,1,0,0:0:0:0:
448,192,53434,1,0,0:0:0:0:
192,192,53548,1,0,0:0:0:0:
320,192,53548,1,0,0:0:0:0:
64,192,53663,1,0,0:0:0:0:
320,192,53777,1,0,0:0:0:0:
448,192,53777,1,0,0:0:0:0:
192,192,53892,1,0,0:0:0:0:
64,192,54006,1,0,0:0:0:0:
320,192,54006,1,0,0:0:0:0:
192,192,54121,1,0,0:0:0:0:
448,192,54235,1,0,0:0:0:0:
64,192,54235,1,0,0:0:0:0:
192,192,54350,1,0,0:0:0:0:
320,192,54464,1,0,0:0:0:0:
448,192,54464,1,0,0:0:0:0:
192,192,54579,1,0,0:0:0:0:
320,192,54693,1,0,0:0:0:0:
64,192,54693,1,0,0:0:0:0:
192,192,54808,1,0,0:0:0:0:
448,192,54922,1,0,0:0:0:0:
320,192,54922,1,0,0:0:0:0:
192,192,55037,1,0,0:0:0:0:
448,192,55151,1,0,0:0:0:0:
64,192,55151,1,0,0:0:0:0:
320,192,55266,1,0,0:0:0:0:
192,192,55380,1,0,0:0:0:0:
64,192,55380,1,0,0:0:0:0:
320,192,55495,1,0,0:0:0:0:
448,192,55609,1,0,0:0:0:0:
64,192,55609,1,0,0:0:0:0:
192,192,55724,1,0,0:0:0:0:
320,192,55838,1,0,0:0:0:0:
448,192,55838,1,0,0:0:0:0:
192,192,55953,1,0,0:0:0:0:
64,192,56067,1,0,0:0:0:0:
448,192,56067,1,0,0:0:0:0:
320,192,56182,1,0,0:0:0:0:
64,192,56296,1,0,0:0:0:0:
192,192,56296,1,0,0:0:0:0:
320,192,56411,1,0,0:0:0:0:
448,192,56525,1,0,0:0:0:0:
64,192,56525,1,0,0:0:0:0:
192,192,56640,1,0,0:0:0:0:
64,192,56754,1,0,0:0:0:0:
448,192,56754,1,0,0:0:0:0:
320,192,56869,1,0,0:0:0:0:
64,192,56983,1,0,0:0:0:0:
448,192,56983,1,0,0:0:0:0:
192,192,57098,1,0,0:0:0:0:
448,192,57212,1,0,0:0:0:0:
64,192,57212,1,0,0:0:0:0:
320,192,57327,1,0,0:0:0:0:
64,192,57441,1,0,0:0:0:0:
192,192,57441,1,0,0:0:0:0:
320,192,57556,1,0,0:0:0:0:
448,192,57670,1,0,0:0:0:0:
64,192,57670,1,0,0:0:0:0:
320,192,57785,1,0,0:0:0:0:
448,192,57899,1,0,0:0:0:0:
192,192,57899,1,0,0:0:0:0:
320,192,58014,1,0,0:0:0:0:
448,192,58128,1,0,0:0:0:0:
64,192,58128,1,0,0:0:0:0:
320,192,58243,1,0,0:0:0:0:
64,192,58357,1,0,0:0:0:0:
192,192,58357,1,0,0:0:0:0:
448,192,58472,1,0,0:0:0:0:
320,192,58586,1,0,0:0:0:0:
192,192,58586,1,0,0:0:0:0:
64,192,58701,1,0,0:0:0:0:
192,192,58815,1,0,0:0:0:0:
320,192,58815,1,0,0:0:0:0:
448,192,58815,1,0,0:0:0:0:
64,192,58930,1,0,0:0:0:0:
192,192,59044,1,0,0:0:0:0:
448,192,59044,1,0,0:0:0:0:
64,192,59159,1,0,0:0:0:0:
192,192,59273,1,0,0:0:0:0:
448,192,59273,1,0,0:0:0:0:
320,192,59273,1,0,0:0:0:0:
64,192,59388,1,0,0:0:0:0:
448,192,59502,1,0,0:0:0:0:
192,192,59502,1,0,0:0:0:0:
320,192,59617,1,0,0:0:0:0:
448,192,59731,1,0,0:0:0:0:
64,192,59731,1,0,0:0:0:0:
192,192,59731,1,0,0:0:0:0:
320,192,59846,1,0,0:0:0:0:
192,192,59960,1,0,0:0:0:0:
64,192,60075,1,0,0:0:0:0:
448,192,60075,1,0,0:0:0:0:
320,192,60075,1,0,0:0:0:0:
192,192,60190,1,0,0:0:0:0:
320,192,60304,1,0,0:0:0:0:
64,192,60419,1,0,0:0:0:0:
448,192,60419,1,0,0:0:0:0:
192,192,60419,1,0,0:0:0:0:
320,192,60533,1,0,0:0:0:0:
448,192,60648,1,0,0:0:0:0:
64,192,60648,1,0,0:0:0:0:
192,192,60762,1,0,0:0:0:0:
64,192,60877,1,0,0:0:0:0:
320,192,60877,1,0,0:0:0:0:
448,192,60991,1,0,0:0:0:0:
64,192,61106,1,0,0:0:0:0:
192,192,61106,1,0,0:0:0:0:
320,192,61106,1,0,0:0:0:0:
448,192,61220,1,0,0:0:0:0:
192,192,61335,1,0,0:0:0:0:
320,192,61335,1,0,0:0:0:0:
64,192,61449,1,0,0:0:0:0:
192,192,61564,1,0,0:0:0:0:
320,192,61564,1,0,0:0:0:0:
448,192,61564,1,0,0:0:0:0:
64,192,61678,1,0,0:0:0:0:
192,192,61793,1,0,0:0:0:0:
320,192,61907,1,0,0:0:0:0:
64,192,61907,1,0,0:0:0:0:
448,192,61907,1,0,0:0:0:0:
192,192,62022,1,0,0:0:0:0:
320,192,62136,1,0,0:0:0:0:
448,192,62251,1,0,0:0:0:0:
320,192,62365,1,0,0:0:0:0:
64,192,62480,1,0,0:0:0:0:
192,192,62480,1,0,0:0:0:0:
448,192,62480,1,0,0:0:0:0:
320,192,62594,1,0,0:0:0:0:
448,192,62709,1,0,0:0:0:0:
64,192,62709,1,0,0:0:0:0:
192,192,62823,1,0,0:0:0:0:
64,192,62938,1,0,0:0:0:0:
320,192,62938,1,0,0:0:0:0:
448,192,62938,1,0,0:0:0:0:
192,192,63052,1,0,0:0:0:0:
448,192,63167,1,0,0:0:0:0:
64,192,63167,1,0,0:0:0:0:
320,192,63281,1,0,0:0:0:0:
192,192,63396,1,0,0:0:0:0:
448,192,63396,1,0,0:0:0:0:
64,192,63396,1,0,0:0:0:0:
320,192,63510,1,0,0:0:0:0:
448,192,63625,1,0,0:0:0:0:
64,192,63739,1,0,0:0:0:0:
192,192,63739,1,0,0:0:0:0:
320,192,63739,1,0,0:0:0:0:
448,192,63854,1,0,0:0:0:0:
192,192,63968,1,0,0:0:0:0:
320,192,64083,1,0,0:0:0:0:
64,192,64083,1,0,0:0:0:0:
448,192,64083,1,0,0:0:0:0:
192,192,64197,1,0,0:0:0:0:
448,192,64312,1,0,0:0:0:0:
64,192,64312,1,0,0:0:0:0:
320,192,64426,1,0,0:0:0:0:
64,192,64541,1,0,0:0:0:0:
192,192,64541,1,0,0:0:0:0:
320,192,64655,1,0,0:0:0:0:
448,192,64770,1,0,0:0:0:0:
64,192,64770,1,0,0:0:0:0:
192,192,64770,1,0,0:0:0:0:
320,192,64884,1,0,0:0:0:0:
192,192,64999,1,0,0:0:0:0:
448,192,64999,1,0,0:0:0:0:
64,192,65113,1,0,0:0:0:0:
192,192,65228,1,0,0:0:0:0:
320,192,65228,1,0,0:0:0:0:
448,192,65228,1,0,0:0:0:0:
64,192,65342,1,0,0:0:0:0:
192,192,65457,1,0,0:0:0:0:
64,192,65571,1,0,0:0:0:0:
320,192,65571,1,0,0:0:0:0:
448,192,65571,1,0,0:0:0:0:
192,192,65686,1,0,0:0:0:0:
320,192,65800,1,0,0:0:0:0:
192,192,65915,1,0,0:0:0:0:
320,192,66029,1,0,0:0:0:0:
64,192,66144,1,0,0:0:0:0:
448,192,66144,1,0,0:0:0:0:
192,192,66144,1,0,0:0:0:0:
320,192,66258,1,0,0:0:0:0:
448,192,66373,1,0,0:0:0:0:
64,192,66373,1,0,0:0:0:0:
320,192,66487,1,0,0:0:0:0:
64,192,66602,1,0,0:0:0:0:
448,192,66602,1,0,0:0:0:0:
192,192,66716,1,0,0:0:0:0:
64,192,66831,1,0,0:0:0:0:
320,192,66831,1,0,0:0:0:0:
192,192,66945,1,0,0:0:0:0:
448,192,67060,1,0,0:0:0:0:
64,192,67060,1,0,0:0:0:0:
320,192,67174,1,0,0:0:0:0:
64,192,67289,1,0,0:0:0:0:
192,192,67289,1,0,0:0:0:0:
320,192,67403,1,0,0:0:0:0:
448,192,67518,1,0,0:0:0:0:
320,192,67632,1,0,0:0:0:0:
192,192,67747,1,0,0:0:0:0:
64,192,67747,1,0,0:0:0:0:
320,192,67861,1,0,0:0:0:0:
64,192,67976,1,0,0:0:0:0:
448,192,67976,1,0,0:0:0:0:
192,192,68090,1,0,0:0:0:0:
448,192,68205,1,0,0:0:0:0:
64,192,68205,1,0,0:0:0:0:
320,192,68319,1,0,0:0:0:0:
64,192,68434,1,0,0:0:0:0:
448,192,68434,1,0,0:0:0:0:
192,192,68548,1,0,0:0:0:0:
320,192,68663,1,0,0:0:0:0:
64,192,68663,1,0,0:0:0:0:
192,192,68777,1,0,0:0:0:0:
448,192,68892,1,0,0:0:0:0:
64,192,68892,1,0,0:0:0:0:
320,192,69006,1,0,0:0:0:0:
192,192,69121,1,0,0:0:0:0:
448,192,69121,1,0,0:0:0:0:
64,192,69235,1,0,0:0:0:0:
192,192,69350,1,0,0:0:0:0:
320,192,69350,1,0,0:0:0:0:
448,192,69464,1,0,0:0:0:0:
64,192,69579,1,0,0:0:0:0:
320,192,69579,1,0,0:0:0:0:
192,192,69693,1,0,0:0:0:0:
448,192,69808,1,0,0:0:0:0:
64,192,69808,1,0,0:0:0:0:
192,192,69922,1,0,0:0:0:0:
448,192,70037,1,0,0:0:0:0:
64,192,70037,1,0,0:0:0:0:
320,192,70037,1,0,0:0:0:0:
192,192,70151,1,0,0:0:0:0:
448,192,70266,1,0,0:0:0:0:
320,192,70380,1,0,0:0:0:0:
192,192,70495,1,0,0:0:0:0:
448,192,70495,1,0,0:0:0:0:
320,192,70609,1,0,0:0:0:0:
192,192,70724,1,0,0:0:0:0:
448,192,70724,1,0,0:0:0:0:
64,192,70838,1,0,0:0:0:0:
192,192,70953,1,0,0:0:0:0:
320,192,70953,1,0,0:0:0:0:
448,192,70953,1,0,0:0:0:0:
64,192,71067,1,0,0:0:0:0:
192,192,71182,1,0,0:0:0:0:
448,192,71182,1,0,0:0:0:0:
320,192,71296,1,0,0:0:0:0:
448,192,71411,1,0,0:0:0:0:
64,192,71411,1,0,0:0:0:0:
192,192,71525,1,0,0:0:0:0:
320,192,71640,1,0,0:0:0:0:
448,192,71640,1,0,0:0:0:0:
64,192,71640,1,0,0:0:0:0:
192,192,71754,1,0,0:0:0:0:
320,192,71869,1,0,0:0:0:0:
448,192,71983,1,0,0:0:0:0:
64,192,72098,1,0,0:0:0:0:
192,192,72098,1,0,0:0:0:0:
320,192,72098,1,0,0:0:0:0:
448,192,72212,1,0,0:0:0:0:
192,192,72327,1,0,0:0:0:0:
320,192,72441,1,0,0:0:0:0:
64,192,72556,1,0,0:0:0:0:
448,192,72556,1,0,0:0:0:0:
192,192,72556,1,0,0:0:0:0:
320,192,72670,1,0,0:0:0:0:
192,192,72785,1,0,0:0:0:0:
64,192,72899,1,0,0:0:0:0:
192,192,73014,1,0,0:0:0:0:
320,192,73014,1,0,0:0:0:0:
448,192,73014,1,0,0:0:0:0:
64,192,73128,1,0,0:0:0:0:
192,192,73243,1,0,0:0:0:0:
320,192,73357,1,0,0:0:0:0:
448,192,73472,1,0,0:0:0:0:
192,192,73472,1,0,0:0:0:0:
64,192,73472,1,0,0:0:0:0:
320,192,73586,1,0,0:0:0:0:
192,192,73701,1,0,0:0:0:0:
320,192,73815,1,0,0:0:0:0:
448,192,73930,1,0,0:0:0:0:
64,192,73930,1,0,0:0:0:0:
320,192,74044,1,0,0:0:0:0:
192,192,74159,1,0,0:0:0:0:
448,192,74159,1,0,0:0:0:0:
320,192,74273,1,0,0:0:0:0:
64,192,74388,1,0,0:0:0:0:
192,192,74388,1,0,0:0:0:0:
320,192,74502,1,0,0:0:0:0:
448,192,74617,1,0,0:0:0:0:
192,192,74731,1,0,0:0:0:0:
320,192,74846,1,0,0:0:0:0:
64,192,74846,1,0,0:0:0:0:
192,192,74960,1,0,0:0:0:0:
448,192,75075,1,0,0:0:0:0:
320,192,75190,1,0,0:0:0:0:
192,192,75304,1,0,0:0:0:0:
448,192,75304,1,0,0:0:0:0:
320,192,75419,1,0,0:0:0:0:
64,192,75533,1,0,0:0:0:0:
448,192,75533,1,0,0:0:0:0:
192,192,75648,1,0,0:0:0:0:
64,192,75762,1,0,0:0:0:0:
448,192,75762,1,0,0:0:0:0:
192,192,75877,1,0,0:0:0:0:
320,192,75991,1,0,0:0:0:0:
448,192,75991,1,0,0:0:0:0:
192,192,76106,1,0,0:0:0:0:
64,192,76220,1,0,0:0:0:0:
448,192,76220,1,0,0:0:0:0:
320,192,76335,1,0,0:0:0:0:
192,192,76449,1,0,0:0:0:0:
64,192,76564,1,0,0:0:0:0:
448,192,76564,1,0,0:0:0:0:
192,192,76678,1,0,0:0:0:0:
320,192,76793,1,0,0:0:0:0:
192,192,76907,1,0,0:0:0:0:
320,192,77022,1,0,0:0:0:0:
64,192,77136,1,0,0:0:0:0:
192,192,77136,1,0,0:0:0:0:
320,192,77251,1,0,0:0:0:0:
448,192,77365,1,0,0:0:0:0:
192,192,77365,1,0,0:0:0:0:
320,192,77480,1,0,0:0:0:0:
64,192,77594,1,0,0:0:0:0:
192,192,77594,1,0,0:0:0:0:
320,192,77709,1,0,0:0:0:0:
448,192,77709,1,0,0:0:0:0:
192,192,77823,1,0,0:0:0:0:
64,192,77938,1,0,0:0:0:0:
448,192,77938,1,0,0:0:0:0:
320,192,78052,1,0,0:0:0:0:
192,192,78167,1,0,0:0:0:0:
64,192,78281,1,0,0:0:0:0:
448,192,78281,1,0,0:0:0:0:
192,192,78396,1,0,0:0:0:0:
320,192,78510,1,0,0:0:0:0:
448,192,78510,1,0,0:0:0:0:
64,192,78625,1,0,0:0:0:0:
192,192,78739,1,0,0:0:0:0:
320,192,78739,1,0,0:0:0:0:
448,192,78854,1,0,0:0:0:0:
64,192,78968,1,0,0:0:0:0:
192,192,78968,1,0,0:0:0:0:
320,192,79083,1,0,0:0:0:0:
192,192,79197,1,0,0:0:0:0:
448,192,79312,1,0,0:0:0:0:
320,192,79312,1,0,0:0:0:0:
192,192,79426,1,0,0:0:0:0:
448,192,79541,1,0,0:0:0:0:
64,192,79655,1,0,0:0:0:0:
320,192,79655,1,0,0:0:0:0:
192,192,79770,1,0,0:0:0:0:
448,192,79770,1,0,0:0:0:0:
320,192,79884,1,0,0:0:0:0:
192,192,79999,1,0,0:0:0:0:
64,192,80113,1,0,0:0:0:0:
448,192,80113,1,0,0:0:0:0:
320,192,80228,1,0,0:0:0:0:
192,192,80342,1,0,0:0:0:0:
448,192,80342,1,0,0:0:0:0:
64,192,80457,1,0,0:0:0:0:
192,192,80571,1,0,0:0:0:0:
320,192,80571,1,0,0:0:0:0:
448,192,80686,1,0,0:0:0:0:
64,192,80800,1,0,0:0:0:0:
320,192,80800,1,0,0:0:0:0:
192,192,80915,1,0,0:0:0:0:
64,192,81029,1,0,0:0:0:0:
448,192,81029,1,0,0:0:0:0:
320,192,81144,1,0,0:0:0:0:
64,192,81258,1,0,0:0:0:0:
192,192,81258,1,0,0:0:0:0:
320,192,81373,1,0,0:0:0:0:
448,192,81487,1,0,0:0:0:0:
64,192,81487,1,0,0:0:0:0:
192,192,81602,1,0,0:0:0:0:
320,192,81716,1,0,0:0:0:0:
448,192,81716,1,0,0:0:0:0:
64,192,81831,1,0,0:0:0:0:
192,192,81831,1,0,0:0:0:0:
320,192,81945,1,0,0:0:0:0:
192,192,82060,1,0,0:0:0:0:
448,192,82060,1,0,0:0:0:0:
64,192,82174,1,0,0:0:0:0:
192,192,82289,1,0,0:0:0:0:
320,192,82403,1,0,0:0:0:0:
448,192,82403,1,0,0:0:0:0:
192,192,82518,1,0,0:0:0:0:
64,192,82632,1,0,0:0:0:0:
320,192,82632,1,0,0:0:0:0:
192,192,82747,1,0,0:0:0:0:
64,192,82861,1,0,0:0:0:0:
448,192,82861,1,0,0:0:0:0:
320,192,82976,1,0,0:0:0:0:
448,192,83090,1,0,0:0:0:0:
192,192,83090,1,0,0:0:0:0:
64,192,83090,1,0,0:0:0:0:
320,192,83205,1,0,0:0:0:0:
192,192,83319,1,0,0:0:0:0:
320,192,83434,1,0,0:0:0:0:
64,192,83548,1,0,0:0:0:0:
448,192,83548,1,0,0:0:0:0:
320,192,83663,1,0,0:0:0:0:
192,192,83777,1,0,0:0:0:0:
320,192,83892,1,0,0:0:0:0:
64,192,83892,1,0,0:0:0:0:
448,192,84006,1,0,0:0:0:0:
320,192,84121,1,0,0:0:0:0:
64,192,84235,1,0,0:0:0:0:
192,192,84235,1,0,0:0:0:0:
448,192,84464,1,0,0:0:0:0:
64,192,84464,1,0,0:0:0:0:
192,192,84464,1,0,0:0:0:0:
320,192,84464,1,0,0:0:0:0:
64,192,84922,1,0,0:0:0:0:
192,192,85037,1,0,0:0:0:0:
320,192,85151,1,0,0:0:0:0:
448,192,85380,1,0,0:0:0:0:
320,192,85724,1,0,0:0:0:0:
192,192,86067,1,0,0:0:0:0:
64,192,86296,128,0,89960:0:0:0:0:
