osu file format v12

[General]
AudioFilename: again.mp3
AudioLeadIn: 3000
PreviewTime: 61933
Countdown: 0
SampleSet: Soft
StackLeniency: 0.6
Mode: 0
LetterboxInBreaks: 1

[Editor]
DistanceSpacing: 1
BeatDivisor: 4
GridSize: 8

[Metadata]
Title:Again (TV Size)
TitleUnicode:Again (TV Size)
Artist:Yui
ArtistUnicode:Yui
Creator:FreeSongs
Version:Normal
Source:Full Metal Alchemist: Brotherhood
Tags:
BeatmapID:268514
BeatmapSetID:101331

[Difficulty]
HPDrainRate:3
CircleSize:3
OverallDifficulty:3
ApproachRate:3
SliderMultiplier:0.999999999999999
SliderTickRate:1

[Events]
//Background and Video events
0,0,"bg2.jpg",0,0
//Break Periods
2,12706,15994
//Storyboard Layer 0 (Background)
//Storyboard Layer 1 (Fail)
//Storyboard Layer 2 (Pass)
//Storyboard Layer 3 (Foreground)
//Storyboard Sound Samples
//Background Colour Transformations
3,100,163,162,255

[TimingPoints]
-1208,428.571428571429,4,1,0,100,1,0
219,-100,4,2,0,40,0,0
12004,-100,4,2,0,50,0,0
19290,-100,4,2,0,50,0,0
47361,-80,4,2,0,70,0,0
53576,-66.6666666666667,4,2,0,70,0,0
54861,-80,4,2,0,70,0,0
60433,-66.6666666666667,4,2,0,70,0,0
61719,-66.6666666666667,4,2,0,90,0,1
86147,-100,4,2,0,90,0,0
89361,-100,4,2,0,5,0,0

[HitObjects]
56,48,506,1,0,0:0:0:0:
456,48,2220,1,0,0:0:0:0:
80,192,3934,1,0,0:0:0:0:
456,320,5649,1,0,0:0:0:0:
128,88,7363,6,0,P|208:64|320:96,1,200
392,280,9077,2,0,P|312:304|200:272,1,200
256,80,10792,2,0,L|256:16,2,50
256,80,12506,5,4,0:0:0:0:
256,192,17434,12,0,21077,0:0:0:0:
184,88,22363,5,8,0:0:0:0:
184,88,22792,2,0,P|280:96|328:120,1,150
320,272,24077,1,8,0:0:0:0:
320,272,24506,2,0,P|208:256|160:232,1,150
40,96,26006,2,0,P|120:56|136:56,1,99.9999999999999
176,56,26649,2,0,L|248:56,2,50
200,152,27506,1,8,0:0:0:0:
296,160,27934,2,0,P|392:160|456:128,1,150
320,48,29220,5,8,0:0:0:0:
320,48,29649,2,0,P|240:48|160:88,1,150
160,224,30934,1,8,0:0:0:0:
160,224,31363,2,0,L|288:312,1,150
320,160,32649,1,8,0:0:0:0:
320,160,33077,2,0,L|192:64,1,150
112,192,34363,1,8,0:0:0:0:
128,288,34792,6,0,P|216:288|248:176,1,200
256,96,36077,1,8,0:0:0:0:
255,195,36506,2,0,P|287:283|383:287,1,200
400,192,37792,1,8,0:0:0:0:
384,96,38220,2,0,L|312:96,3,50
184,104,39506,1,8,0:0:0:0:
184,104,39720,2,0,L|120:104,1,50
88,192,40363,2,0,L|144:192,1,50
184,288,41006,1,0,0:0:0:0:
184,288,41220,1,8,0:0:0:0:
256,360,41649,6,0,P|360:320|400:224,1,200
312,192,42934,1,8,0:0:0:0:
400,136,43363,2,0,P|384:88|256:24,1,200
184,88,44649,1,8,0:0:0:0:
120,168,45077,2,0,L|120:224,3,50
224,216,46149,1,0,0:0:0:0:
224,216,46363,2,0,L|224:152,2,50,8|0|0,0:0|0:0|0:0,0:0:0:0:
328,216,47220,1,0,0:0:0:0:
328,216,47434,2,0,B|328:120|328:120|296:88|296:88|296:32,1,187.5
168,56,48506,5,8,0:0:0:0:
168,56,48720,1,8,0:0:0:0:
216,312,50220,5,8,0:0:0:0:
216,312,50434,1,8,0:0:0:0:
416,144,51934,5,8,0:0:0:0:
416,144,52149,1,8,0:0:0:0:
224,112,53649,6,0,L|72:112,1,150.000005722046,4|0,0:0|0:0,0:0:0:0:
72,184,54292,2,0,L|240:184,1,150.000005722046,4|0,0:0|0:0,0:0:0:0:
288,184,54934,1,0,0:0:0:0:
392,104,55363,5,8,0:0:0:0:
392,104,55577,1,8,0:0:0:0:
256,232,56220,2,0,L|248:160,2,62.4999999999999,0|0|8,0:0|0:0|0:0,0:0:0:0:
264,360,57077,5,8,0:0:0:0:
264,360,57292,1,8,0:0:0:0:
248,168,57934,2,0,L|312:192,2,62.4999999999999,0|0|8,0:0|0:0|0:0,0:0:0:0:
128,128,58792,5,8,0:0:0:0:
128,128,59006,1,8,0:0:0:0:
304,192,59649,2,0,L|248:240,2,62.4999999999999,0|0|8,0:0|0:0|0:0,0:0:0:0:
408,80,60506,6,0,B|352:120|288:104|288:104|256:136,1,150.000005722046,4|0,0:0|0:0,0:0:0:0:
304,192,61149,2,0,B|376:192|424:168|424:168|472:200,1,150.000005722046,4|0,0:0|0:0,0:0:0:0:
488,248,61792,1,8,0:0:0:0:
360,328,62220,6,0,B|312:312|272:344|272:344|192:344,1,150.000005722046,4|8,0:0|0:0,0:0:0:0:
144,344,62863,2,0,L|144:184,1,150.000005722046
144,120,63506,1,8,0:0:0:0:
256,24,63934,6,0,L|160:24,2,75.000002861023,4|0|8,0:0|0:0|0:0,0:0:0:0:
328,48,64577,2,0,P|376:96|312:152,1,150.000005722046
272,192,65220,1,8,0:0:0:0:
392,256,65649,6,0,L|456:320,2,75.000002861023,4|0|8,0:0|0:0|0:0,0:0:0:0:
352,192,66292,1,0,0:0:0:0:
392,128,66506,2,0,L|456:88,2,75.000002861023,0|0|8,0:0|0:0|0:0,0:0:0:0:
256,192,67363,6,0,L|168:192,2,75.000002861023,4|0|8,0:0|0:0|0:0,0:0:0:0:
328,192,68006,2,0,L|496:192,1,150.000005722046,4|0,0:0|0:0,0:0:0:0:
304,48,69077,6,0,L|136:48,1,150.000005722046,4|8,0:0|0:0,0:0:0:0:
80,48,69720,2,0,P|64:112|96:208,1,150.000005722046
128,256,70363,1,8,0:0:0:0:
256,336,70792,6,0,L|360:336,2,75.000002861023,4|0|8,0:0|0:0|0:0,0:0:0:0:
184,336,71434,2,0,P|96:328|32:272,1,150.000005722046
32,216,72077,1,8,0:0:0:0:
184,192,72506,2,0,L|368:192,2,150.000005722046,4|8|0,0:0|0:0|0:0,0:0:0:0:
32,192,73792,1,8,0:0:0:0:
120,72,74220,6,0,L|24:72,2,75.000002861023,4|0|8,0:0|0:0|0:0,0:0:0:0:
192,72,74863,2,0,P|272:120|272:184,1,150.000005722046,4|0,0:0|0:0,0:0:0:0:
280,248,75506,1,8,0:0:0:0:
152,328,75934,2,0,B|200:312|240:344|240:344|320:344,1,150.000005722046,4|8,0:0|0:0,0:0:0:0:
368,344,76577,2,0,L|368:184,1,150.000005722046
368,120,77220,1,8,0:0:0:0:
256,24,77649,6,0,L|352:24,2,75.000002861023,4|0|8,0:0|0:0|0:0,0:0:0:0:
184,48,78292,2,0,P|136:96|200:152,1,150.000005722046
240,192,78935,1,8,0:0:0:0:
120,256,79364,6,0,L|56:320,2,75.000002861023,4|0|8,0:0|0:0|0:0,0:0:0:0:
160,192,80007,1,0,0:0:0:0:
120,128,80221,2,0,L|56:88,2,75.000002861023,0|0|8,0:0|0:0|0:0,0:0:0:0:
256,192,81078,6,0,L|344:192,2,75.000002861023,4|0|8,0:0|0:0|0:0,0:0:0:0:
184,192,81721,2,0,L|16:192,1,150.000005722046,4|0,0:0|0:0,0:0:0:0:
224,56,82791,6,0,L|392:56,1,150.000005722046,4|8,0:0|0:0,0:0:0:0:
448,56,83434,2,0,P|464:120|432:216,1,150.000005722046
384,248,84077,1,8,0:0:0:0:
256,328,84506,6,0,L|256:88,1,225.000008583069,4|0,0:0|0:0,0:0:0:0:
192,72,85363,1,0,0:0:0:0:
256,32,85577,1,0,0:0:0:0:
320,72,85791,1,0,0:0:0:0:
256,152,86220,1,4,0:0:0:0:
256,192,86327,12,0,89649,0:0:0:0:
