osu file format v12

[General]
AudioFilename: again.mp3
AudioLeadIn: 3000
PreviewTime: 61719
Countdown: 0
SampleSet: Soft
StackLeniency: 0.6
Mode: 0
LetterboxInBreaks: 1

[Editor]
DistanceSpacing: 1
BeatDivisor: 4
GridSize: 8

[Metadata]
Title:Again (TV Size)
TitleUnicode:Again (TV Size)
Artist:Yui
ArtistUnicode:Yui
Creator:FreeSongs
Version:Insane
Source:Full Metal Alchemist: Brotherhood
Tags:
BeatmapID:268513
BeatmapSetID:101331

[Difficulty]
HPDrainRate:7
CircleSize:4
OverallDifficulty:7
ApproachRate:7
SliderMultiplier:2
SliderTickRate:1

[Events]
//Background and Video events
0,0,"bg2.jpg",0,0
//Break Periods
2,12705,18463
//Storyboard Layer 0 (Background)
//Storyboard Layer 1 (Fail)
//Storyboard Layer 2 (Pass)
//Storyboard Layer 3 (Foreground)
//Storyboard Sound Samples
//Background Colour Transformations
3,100,163,162,255

[TimingPoints]
-1208,428.571428571429,4,1,0,100,1,0
219,-133.333333333333,4,2,0,40,0,0
12004,-66.6666666666667,4,2,0,70,0,0
19290,-133.333333333333,4,2,0,50,0,0
21004,-200,4,2,0,50,0,0
21861,-133.333333333333,4,2,0,50,0,0
40290,-100,4,2,0,50,0,0
48004,-80,4,2,0,70,0,0
53576,-66.6666666666667,4,2,0,70,0,0
61719,-66.6666666666667,4,2,0,90,0,1
67290,-50,4,2,0,90,0,1
68576,-66.6666666666667,4,2,0,90,0,1
81004,-50,4,2,0,90,0,1
82719,-66.6666666666667,4,2,0,90,0,1
86147,-66.6666666666667,4,2,0,90,0,0
89361,-66.6666666666667,4,2,0,5,0,0

[HitObjects]
104,88,292,1,0,0:0:0:0:
104,88,506,2,0,P|192:48|272:48,1,150.000005722046,0|8,0:0|0:0,0:0:0:0:
352,48,1149,2,0,L|432:48,2,75.000002861023
432,264,2006,1,0,0:0:0:0:
432,264,2113,1,0,0:0:0:0:
432,264,2220,2,0,P|352:312|264:312,1,150.000005722046,0|8,0:0|0:0,0:0:0:0:
192,232,2863,2,0,L|352:232,1,150.000005722046
256,72,3720,5,0,0:0:0:0:
256,72,3827,1,0,0:0:0:0:
256,72,3934,2,0,L|256:-8,2,75.000002861023,0|0|8,0:0|0:0|0:0,0:0:0:0:
256,160,4577,1,0,0:0:0:0:
256,240,4792,1,0,0:0:0:0:
256,240,5006,2,0,L|256:336,1,75.000002861023
336,192,5649,1,0,0:0:0:0:
432,192,5863,2,8,L|520:192,1,75.000002861023,0|8,0:0|0:0,0:0:0:0:
400,56,6292,2,0,L|224:56,1,150.000005722046
72,80,7149,5,0,0:0:0:0:
72,80,7256,1,0,0:0:0:0:
72,80,7363,2,0,L|152:80,1,75.000002861023
160,112,7684,1,0,0:0:0:0:
144,144,7792,2,0,L|240:144,1,75.000002861023,8|0,0:0|0:0,0:0:0:0:
240,184,8113,2,0,P|304:152|328:96,1,112.500004291535
464,256,8863,5,0,0:0:0:0:
464,256,9077,2,0,P|440:304|400:320,1,75.000002861023
344,248,9506,1,8,0:0:0:0:
288,328,9720,1,0,0:0:0:0:
288,328,9827,1,0,0:0:0:0:
192,288,10042,1,0,0:0:0:0:
192,288,10149,2,0,P|160:248|136:144,1,150.000005722046
320,56,10792,2,0,L|400:56,2,75.000002861023
128,192,11863,1,0,0:0:0:0:
152,192,11970,1,0,0:0:0:0:
176,192,12077,6,0,B|224:192|224:192|240:176|240:176|248:216|248:216|264:176|264:176|280:208|280:208|296:176|296:176|320:192|320:192|368:192,1,300.000011444092,8|4,0:0|0:0,0:0:0:0:
184,32,19363,6,0,L|144:-16,2,37.5000014305115
256,128,19792,1,8,0:0:0:0:
328,32,20006,2,0,L|368:-8,2,37.5000014305115,0|0|0,0:0|0:0|0:0,0:0:0:0:
256,128,20435,1,0,0:0:0:0:
256,192,20649,1,0,0:0:0:0:
256,208,20756,1,0,0:0:0:0:
256,224,20863,1,0,0:0:0:0:
256,240,20970,1,0,0:0:0:0:
256,256,21077,2,0,B|184:304|344:312|256:368,1,150
384,248,22149,5,0,0:0:0:0:
320,192,22363,1,8,0:0:0:0:
376,128,22577,1,0,0:0:0:0:
304,72,22792,2,0,P|344:56|400:48,1,75.000002861023
456,56,23220,1,0,0:0:0:0:
376,48,23434,2,0,P|322:47|208:80,1,150.000005722046
229,70,24077,1,8,0:0:0:0:
80,64,24292,5,0,0:0:0:0:
80,64,24399,1,0,0:0:0:0:
80,64,24506,2,0,L|-16:64,2,75.000002861023
160,120,25149,2,0,P|160:184|96:256,1,150.000005722046
24,280,25792,1,8,0:0:0:0:
112,248,26006,2,0,L|272:248,1,150.000005722046
336,120,26649,1,0,0:0:0:0:
368,248,26863,1,0,0:0:0:0:
240,144,27077,1,0,0:0:0:0:
336,344,27506,1,8,0:0:0:0:
336,344,27934,6,0,B|280:336|256:272|256:272|232:336|176:352,1,225.000008583069,4|0,0:0|0:0,0:0:0:0:
192,208,29006,1,0,0:0:0:0:
256,152,29220,1,8,0:0:0:0:
320,208,29434,1,0,0:0:0:0:
256,152,29649,2,0,L|256:64,1,75.000002861023
192,208,30292,2,0,P|256:242|326:194,1,150.000005722046
256,152,30934,1,8,0:0:0:0:
224,48,31149,5,0,0:0:0:0:
256,32,31256,1,0,0:0:0:0:
288,48,31363,1,0,0:0:0:0:
176,112,31577,1,0,0:0:0:0:
312,168,31792,1,0,0:0:0:0:
216,248,32006,2,0,L|376:248,1,150.000005722046
464,248,32649,1,8,0:0:0:0:
464,248,32863,2,0,P|432:168|376:104,1,150.000005722046
216,32,33506,1,0,0:0:0:0:
392,40,33720,1,0,0:0:0:0:
256,160,33934,2,0,L|256:312,1,150.000005722046,0|8,0:0|0:0,0:0:0:0:
56,288,34792,5,0,0:0:0:0:
56,288,35006,2,0,L|-16:336,2,75.000002861023
72,264,35542,1,0,0:0:0:0:
80,168,35756,1,0,0:0:0:0:
96,136,35863,1,0,0:0:0:0:
120,112,35970,1,0,0:0:0:0:
152,104,36077,2,0,L|152:184,1,75.000002861023,8|0,0:0|0:0,0:0:0:0:
200,272,36506,5,0,0:0:0:0:
272,160,36720,1,0,0:0:0:0:
344,272,36934,1,0,0:0:0:0:
408,192,37149,2,0,P|424:160|432:88,1,75.000002861023
392,40,37577,1,0,0:0:0:0:
392,40,37684,1,0,0:0:0:0:
392,40,37792,2,0,L|312:40,1,75.000002861023,8|0,0:0|0:0,0:0:0:0:
120,48,38220,6,0,L|48:0,2,75.000002861023
200,104,38863,2,0,P|232:136|256:192,1,75.000002861023
264,192,39184,1,0,0:0:0:0:
256,224,39292,1,0,0:0:0:0:
232,240,39399,1,0,0:0:0:0:
200,248,39506,2,0,L|304:248,1,75.000002861023,8|0,0:0|0:0,0:0:0:0:
240,336,39934,1,0,0:0:0:0:
440,120,40363,5,0,0:0:0:0:
440,120,40577,2,0,P|400:80|264:24,1,200
256,112,41220,2,0,L|256:232,1,100,8|0,0:0|0:0,0:0:0:0:
256,304,41649,5,0,0:0:0:0:
256,304,41863,2,0,L|184:336,1,50
192,352,42077,2,0,P|152:320|120:256,1,100
112,240,42399,1,0,0:0:0:0:
112,200,42506,2,0,L|168:152,1,50
104,64,42720,2,0,L|160:104,1,50
216,128,42934,2,0,P|248:80|256:24,1,100,8|0,0:0|0:0,0:0:0:0:
376,56,43363,6,0,L|480:56,2,100
264,56,44006,2,0,P|200:80|128:144,1,150
136,232,44434,1,0,0:0:0:0:
152,248,44542,1,0,0:0:0:0:
176,256,44649,2,0,L|176:360,1,100,8|0,0:0|0:0,0:0:0:0:
328,352,45077,6,0,L|328:248,1,100
328,144,45506,1,0,0:0:0:0:
328,144,45720,2,0,P|296:80|264:64,1,100
160,64,46149,2,0,L|24:64,2,100,0|8|0,0:0|0:0|0:0,0:0:0:0:
272,64,46792,1,0,0:0:0:0:
272,64,47220,5,0,0:0:0:0:
384,208,47434,1,0,0:0:0:0:
208,176,47649,1,0,0:0:0:0:
352,80,47863,1,0,0:0:0:0:
296,248,48077,2,0,L|144:248,1,125,12|0,0:0|0:0,0:0:0:0:
80,144,48506,5,8,0:0:0:0:
80,144,48613,1,0,0:0:0:0:
80,144,48720,2,0,L|144:88,1,62.5,0|8,0:0|0:0,0:0:0:0:
128,16,48934,2,0,L|200:64,1,62.5
232,112,49149,1,0,0:0:0:0:
272,88,49256,1,0,0:0:0:0:
312,104,49363,2,0,L|376:96,3,62.5
384,88,49792,2,0,P|384:152|352:216,1,125,8|8,0:0|0:0,0:0:0:0:
416,312,50220,5,8,0:0:0:0:
416,312,50327,1,0,0:0:0:0:
416,312,50434,2,0,L|336:312,1,62.5,8|0,0:0|0:0,0:0:0:0:
296,240,50649,2,0,L|232:240,1,62.5
232,336,50863,2,0,L|160:336,1,62.5
96,312,51077,1,0,0:0:0:0:
64,280,51184,1,0,0:0:0:0:
56,240,51292,1,0,0:0:0:0:
72,200,51399,1,0,0:0:0:0:
120,192,51506,2,0,P|152:152|144:72,1,125,8|8,0:0|0:0,0:0:0:0:
328,48,51934,5,8,0:0:0:0:
328,48,52042,1,0,0:0:0:0:
328,48,52149,2,0,L|392:8,1,62.5,8|0,0:0|0:0,0:0:0:0:
320,128,52363,2,0,L|336:200,1,62.5
400,104,52577,2,0,L|472:120,1,62.5
496,192,52792,1,0,0:0:0:0:
464,232,52899,1,0,0:0:0:0:
424,248,53006,1,0,0:0:0:0:
384,232,53113,1,0,0:0:0:0:
360,192,53220,2,0,P|312:232|344:296,1,125,8|8,0:0|0:0,0:0:0:0:
368,296,53542,1,0,0:0:0:0:
400,312,53649,6,0,L|96:312,1,300.000011444092,4|8,0:0|0:0,0:0:0:0:
112,72,54292,2,0,L|424:72,1,300.000011444092,4|8,0:0|0:0,0:0:0:0:
152,192,54934,1,8,0:0:0:0:
352,192,55149,1,0,0:0:0:0:
256,40,55363,5,8,0:0:0:0:
256,40,55470,1,0,0:0:0:0:
256,40,55577,2,0,L|216:112,1,75.000002861023,8|0,0:0|0:0,0:0:0:0:
296,112,55792,2,0,L|336:176,1,75.000002861023
240,184,56006,2,0,L|200:256,1,75.000002861023
296,240,56220,1,0,0:0:0:0:
336,264,56327,1,0,0:0:0:0:
384,264,56434,1,0,0:0:0:0:
424,232,56542,1,0,0:0:0:0:
432,184,56649,1,8,0:0:0:0:
280,312,56863,1,8,0:0:0:0:
144,288,57077,5,8,0:0:0:0:
144,288,57184,1,0,0:0:0:0:
144,288,57292,2,0,L|96:208,1,75.000002861023,8|0,0:0|0:0,0:0:0:0:
248,184,57506,2,0,L|200:264,1,75.000002861023
104,152,57720,2,0,L|192:152,1,75.000002861023
104,224,57934,1,0,0:0:0:0:
144,192,58042,1,0,0:0:0:0:
160,144,58149,1,0,0:0:0:0:
160,96,58256,1,0,0:0:0:0:
136,48,58363,1,8,0:0:0:0:
192,264,58577,1,8,0:0:0:0:
320,344,58792,5,8,0:0:0:0:
320,344,58899,1,0,0:0:0:0:
320,344,59006,2,0,L|224:312,1,75.000002861023,8|0,0:0|0:0,0:0:0:0:
200,320,59220,1,0,0:0:0:0:
152,288,59327,1,0,0:0:0:0:
248,48,59649,1,0,0:0:0:0:
288,72,59756,1,0,0:0:0:0:
296,120,59863,1,0,0:0:0:0:
264,160,59970,1,0,0:0:0:0:
240,208,60077,1,8,0:0:0:0:
136,48,60292,1,8,0:0:0:0:
400,48,60506,6,0,P|432:160|400:344,1,300.000011444092,4|8,0:0|0:0,0:0:0:0:
112,336,61149,2,0,P|80:224|120:48,1,300.000011444092,4|8,0:0|0:0,0:0:0:0:
232,48,61792,1,8,0:0:0:0:
232,48,61899,1,0,0:0:0:0:
232,48,62006,1,0,0:0:0:0:
232,48,62113,1,0,0:0:0:0:
232,48,62220,6,0,P|312:56|416:88,1,150.000005722046,4|0,0:0|0:0,0:0:0:0:
512,216,62649,1,8,0:0:0:0:
464,128,62863,2,0,P|352:200|312:248,1,150.000005722046
320,248,63184,1,0,0:0:0:0:
312,288,63292,1,0,0:0:0:0:
104,304,63506,1,8,0:0:0:0:
248,160,63720,5,0,0:0:0:0:
248,160,63827,1,0,0:0:0:0:
248,160,63934,2,0,P|264:88|376:8,1,150.000005722046,4|0,0:0|0:0,0:0:0:0:
248,240,64363,1,8,0:0:0:0:
248,240,64577,2,0,L|72:240,1,150.000005722046
192,312,65006,2,0,L|16:312,1,150.000005722046,0|8,0:0|0:0,0:0:0:0:
144,56,65434,5,0,0:0:0:0:
144,56,65542,1,0,0:0:0:0:
144,56,65649,2,0,P|192:128|200:208,1,150.000005722046,4|0,0:0|0:0,0:0:0:0:
104,192,66077,2,0,P|120:272|200:344,1,150.000005722046,8|0,0:0|0:0,0:0:0:0:
408,184,66506,1,0,0:0:0:0:
248,368,66720,1,0,0:0:0:0:
272,144,66934,1,8,0:0:0:0:
400,304,67149,5,0,0:0:0:0:
400,304,67256,1,0,0:0:0:0:
400,304,67363,2,0,B|336:280|336:280|288:296|288:296|256:272|256:272|224:304|224:304|160:272|120:312|120:312|-40:304,1,400,4|8,0:0|0:0,0:0:0:0:
112,80,68006,2,0,B|176:104|176:104|224:88|224:88|256:112|256:112|288:80|288:80|352:112|392:72|392:72|552:80,1,400,4|8,0:0|0:0,0:0:0:0:
456,248,68649,1,8,0:0:0:0:
456,248,68756,1,0,0:0:0:0:
456,248,68863,1,0,0:0:0:0:
456,248,68970,1,0,0:0:0:0:
456,248,69077,6,0,P|400:192|280:152,1,140,4|0,0:0|0:0,0:0:0:0:
88,144,69506,2,0,P|144:208|216:232,1,140,8|0,0:0|0:0,0:0:0:0:
176,264,69827,1,0,0:0:0:0:
144,296,69934,2,0,L|336:296,1,140
392,296,70363,1,8,0:0:0:0:
456,200,70577,5,0,0:0:0:0:
440,160,70684,1,0,0:0:0:0:
416,128,70792,2,0,P|352:104|280:104,1,140,4|0,0:0|0:0,0:0:0:0:
200,240,71220,1,8,0:0:0:0:
112,88,71434,1,0,0:0:0:0:
112,88,71542,2,0,P|88:160|96:224,1,140
56,256,71863,2,0,L|224:256,1,140,0|8,0:0|0:0,0:0:0:0:
336,336,72292,5,0,0:0:0:0:
352,296,72399,1,0,0:0:0:0:
384,264,72506,2,0,P|440:216|528:192,2,140,4|0|8,0:0|0:0|0:0,0:0:0:0:
360,120,73149,1,0,0:0:0:0:
360,120,73256,1,0,0:0:0:0:
360,120,73363,1,0,0:0:0:0:
152,272,73577,1,0,0:0:0:0:
152,272,73684,1,0,0:0:0:0:
152,272,73792,1,8,0:0:0:0:
152,272,73899,1,0,0:0:0:0:
152,272,74006,6,0,L|224:224,1,75.000002861023
360,120,74220,2,0,L|288:160,1,75.000002861023
152,120,74434,2,0,L|224:160,1,75.000002861023
360,272,74649,2,0,L|280:224,1,75.000002861023,8|0,0:0|0:0,0:0:0:0:
256,40,74863,1,4,0:0:0:0:
256,344,75292,1,0,0:0:0:0:
256,344,75506,1,8,0:0:0:0:
240,296,75613,1,0,0:0:0:0:
216,256,75720,1,0,0:0:0:0:
224,208,75827,1,0,0:0:0:0:
256,168,75934,6,0,P|328:144|400:80,1,150.000005722046,4|0,0:0|0:0,0:0:0:0:
72,48,76363,1,8,0:0:0:0:
96,264,76577,2,0,P|160:304|248:312,1,150.000005722046
272,312,76899,1,0,0:0:0:0:
312,296,77006,1,0,0:0:0:0:
336,72,77220,1,8,0:0:0:0:
456,192,77434,5,0,0:0:0:0:
456,192,77542,1,0,0:0:0:0:
456,192,77649,2,0,P|504:272|520:352,2,150.000005722046,4|0|8,0:0|0:0|0:0,0:0:0:0:
416,168,78184,1,0,0:0:0:0:
376,160,78292,2,0,B|280:152|312:88|312:88|248:96|200:32,1,225.000008583069
144,88,78720,2,0,L|144:269,1,150.000005722046,0|8,0:0|0:0,0:0:0:0:
176,264,79042,5,0,0:0:0:0:
224,280,79149,1,0,0:0:0:0:
272,264,79256,1,0,0:0:0:0:
296,224,79363,2,0,P|344:144|400:120,1,150.000005722046,4|0,0:0|0:0,0:0:0:0:
200,16,79792,2,0,P|264:40|376:-8,1,150.000005722046
168,136,80220,2,0,P|80:112|40:64,2,150.000005722046,0|0|8,0:0|0:0|0:0,0:0:0:0:
288,296,80863,5,0,0:0:0:0:
288,296,80970,1,0,0:0:0:0:
288,296,81077,2,0,B|328:264|328:264|376:280|376:280|400:200|464:184|464:184|456:128|456:128|512:104|488:0,1,400,4|8,0:0|0:0,0:0:0:0:
224,88,81720,2,0,B|184:120|184:120|136:104|136:104|112:184|48:200|48:200|56:256|56:256|0:280|24:384,1,400,4|0,0:0|0:0,0:0:0:0:
176,352,82363,1,8,0:0:0:0:
176,352,82470,1,0,0:0:0:0:
176,352,82577,1,0,0:0:0:0:
176,352,82684,1,0,0:0:0:0:
176,352,82792,6,0,P|288:328|320:280,1,150.000005722046,4|0,0:0|0:0,0:0:0:0:
320,272,83113,1,0,0:0:0:0:
328,240,83220,2,0,L|328:56,1,150.000005722046,8|0,0:0|0:0,0:0:0:0:
184,136,83649,2,0,L|184:320,1,150.000005722046
392,256,84077,2,0,L|392:88,1,150.000005722046,8|0,0:0|0:0,0:0:0:0:
392,105,84506,1,4,0:0:0:0:
112,192,84720,6,0,L|192:192,1,75.0000028610231
200,320,84934,2,0,L|248:216,1,75.0000028610231,0|0,0:0|0:0,0:0:0:0:
192,64,85149,2,0,L|240:152,1,75.0000028610231
304,360,85363,1,0,0:0:0:0:
304,8,85577,1,0,0:0:0:0:
512,192,85792,1,0,0:0:0:0:
256,192,86220,1,4,0:0:0:0:
256,192,86327,12,0,89649,0:0:0:0:
