osu file format v12

[General]
AudioFilename: .mp3
AudioLeadIn: 1015
PreviewTime: 138869
Countdown: 0
SampleSet: None
StackLeniency: 0.7
Mode: 0
LetterboxInBreaks: 0
WidescreenStoryboard: 1

[Editor]
Bookmarks: 17265,25655,33727,41672,50062,58022,58197,66333,81841,130401,163706,180056,247174
DistanceSpacing: 1
BeatDivisor: 4
GridSize: 4

[Metadata]
Title:Kurikaeshi Hitotsubu
TitleUnicode:Kurikaeshi Hitotsubu
Artist:Yueporu feat. Hatsune Miku
ArtistUnicode:Yueporu feat. Hatsune Miku
Creator:Zweib
Version:Neko.II
Source:NicoNico
Tags:Vocaloid OrangeNeko
BeatmapID:319511
BeatmapSetID:56411

[Difficulty]
HPDrainRate:7
CircleSize:4
OverallDifficulty:8
ApproachRate:9
SliderMultiplier:1.8
SliderTickRate:2

[Events]
//Background and Video events
0,0,"bg2.jpg",0,0
//Break Periods
2,107020,121729
2,155834,163169
2,180241,197237
//Storyboard Layer 0 (Background)
//Storyboard Layer 1 (Fail)
//Storyboard Layer 2 (Pass)
//Storyboard Layer 3 (Foreground)
//Storyboard Sound Samples
//Background Colour Transformations
3,100,163,162,255

[TimingPoints]
1058,254.237288135593,4,2,1,5,1,0
4108,-100,4,2,1,10,0,0
5125,-100,4,2,1,20,0,0
6142,-100,4,2,1,30,0,0
7159,-100,4,2,1,40,0,0
8176,-100,4,2,1,60,0,0
9193,-100,4,2,1,60,0,0
16884,-100,4,2,1,30,0,0
17074,-100,4,2,1,60,0,0
17329,-90.9090909090909,4,2,1,65,0,0
24956,-90.9090909090909,4,2,0,65,0,0
25210,-90.9090909090909,4,2,1,65,0,0
25464,-125,4,2,1,50,0,0
25655,-166.666666666667,4,2,1,50,0,0
40973,-125,4,2,1,30,0,0
41481,-125,4,2,1,50,0,0
41735,-100,4,2,1,60,0,0
57435,-100,4,2,1,60,0,0
67858,-166.666666666667,4,2,1,60,0,0
68367,-100,4,2,1,60,0,0
74279,-83.3333333333333,4,2,2,70,0,1
74723,-100,4,2,2,70,0,1
75231,-83.3333333333333,4,2,2,70,0,1
77265,-66.6666666666667,4,2,2,70,0,1
77774,-83.3333333333333,4,2,2,70,0,1
82350,-125,4,2,2,70,0,1
83367,-83.3333333333333,4,2,2,70,0,1
85401,-66.6666666666667,4,2,2,70,0,1
85909,-83.3333333333333,4,2,2,70,0,1
89214,-125,4,2,2,70,0,1
89532,-83.3333333333333,4,2,2,70,0,1
90550,-100,4,2,1,60,0,0
98685,-90.9090909090909,4,2,1,65,0,0
104723,-166.666666666667,4,2,1,65,0,0
106820,-100,4,2,3,50,0,0
123091,-100,4,2,1,60,0,0
124807,-125,4,2,1,60,0,0
125316,-100,4,2,1,60,0,0
126841,-166.666666666667,4,2,1,60,0,0
127350,-100,4,2,1,60,0,0
132943,-166.666666666667,4,2,1,60,0,0
133452,-100,4,2,1,60,0,0
139363,-83.3333333333333,4,2,2,70,0,1
142350,-66.6666666666667,4,2,2,70,0,1
142858,-83.3333333333333,4,2,2,70,0,1
150485,-66.6666666666667,4,2,2,70,0,1
150994,-83.3333333333333,4,2,2,70,0,1
155635,-100,4,2,1,60,0,0
176926,-125,4,2,1,60,0,0
177435,-100,4,2,1,60,0,0
178007,-166.666666666667,4,2,1,50,0,0
179977,-166.666666666667,4,2,1,5,0,0
180104,-166.666666666667,4,2,1,50,0,0
197774,-100,4,2,1,50,0,0
198346,-83.3333333333333,4,2,2,70,0,1
201333,-66.6666666666667,4,2,2,70,0,1
201841,-83.3333333333333,4,2,2,70,0,1
209469,-66.6666666666667,4,2,2,70,0,1
209977,-83.3333333333333,4,2,2,70,0,1
214618,-100,4,2,1,60,0,0
222752,-90.9090909090909,4,2,1,65,0,0
228536,-166.666666666667,4,2,1,65,0,0
230888,-100,4,2,1,60,0,0
239024,-90.9090909090909,4,2,1,65,0,0

[Colours]
Combo1 : 192,192,192
Combo2 : 255,128,128
Combo3 : 0,255,255
Combo4 : 255,255,128

[HitObjects]
256,192,2329,12,4,8176,1:0:0:0:
416,84,8939,5,0,1:0:0:0:
416,84,9193,1,4,0:0:0:0:
364,256,9447,1,0,0:0:0:0:
284,216,9638,1,0,0:0:0:0:
284,216,9702,1,8,0:0:0:0:
152,340,9956,6,0,L|244:340,1,90
200,260,10210,1,2,0:0:0:0:
112,260,10337,1,0,0:0:0:0:
152,180,10464,6,0,L|56:180,1,90,2|0,0:0|0:0,0:0:0:0:
152,180,10719,1,8,0:0:0:0:
296,72,10973,6,0,L|388:72,1,90,2|0,0:0|0:0,0:0:0:0:
424,152,11227,1,2,0:0:0:0:
336,152,11354,1,0,0:0:0:0:
464,224,11608,1,0,0:0:0:0:
304,224,11735,6,0,P|296:280|384:356,1,180,8|0,0:0|0:0,0:0:0:0:
388,264,12117,1,0,0:0:0:0:
316,320,12244,2,0,L|224:320,1,90,2|0,0:0|0:0,0:0:0:0:
152,372,12498,1,0,0:0:0:0:
84,316,12625,1,0,0:0:0:0:
152,260,12752,1,8,0:0:0:0:
152,260,13007,6,2,P|200:272|240:260,1,90,2|2,0:0|0:0,0:0:0:0:
196,180,13261,2,2,P|148:168|108:180,1,90,2|2,0:0|0:0,0:0:0:0:
152,260,13515,2,2,P|200:272|240:260,1,90,0|2,0:0|0:0,0:0:0:0:
292,188,13769,6,0,L|332:104,1,90,8|0,0:0|0:0,0:0:0:0:
268,44,14024,2,0,L|228:128,1,90,0|0,0:0|0:0,0:0:0:0:
404,68,14278,6,0,P|452:60|496:68,1,90,2|0,0:0|0:0,0:0:0:0:
452,148,14532,1,0,0:0:0:0:
412,228,14659,1,0,0:0:0:0:
500,228,14786,1,8,0:0:0:0:
452,148,15041,5,2,0:0:0:0:
412,228,15295,2,0,P|368:308|288:304,1,180,2|0,0:0|0:0,0:0:0:0:
328,224,15676,1,0,0:0:0:0:
240,228,15803,2,0,B|204:260|204:260|196:308,2,90,8|0|0,0:0|0:0|0:0,0:0:0:0:
288,304,16185,1,0,0:0:0:0:
116,336,16312,1,8,3:0:0:0:
116,336,16566,5,0,0:0:0:0:
92,248,16693,1,8,3:0:0:0:
20,192,16820,1,8,0:0:0:0:
28,184,16884,1,0,0:0:0:0:
35,178,16947,1,0,0:0:0:0:
42,172,17011,1,0,0:0:0:0:
47,169,17074,1,2,0:0:0:0:
420,104,17329,6,0,P|312:68|240:104,1,198.000006042481,4|0,0:0|0:0,0:0:0:0:
236,200,17710,1,0,0:0:0:0:
184,116,17837,2,0,P|152:76|104:56,1,99.0000030212403,8|0,0:0|0:0,0:0:0:0:
96,156,18091,2,0,P|128:196|176:216,1,99.0000030212403,0|0,0:0|0:0,0:0:0:0:
164,316,18346,6,0,L|72:356,1,99.0000030212403,2|0,0:0|0:0,0:0:0:0:
164,316,18600,2,0,L|256:356,1,99.0000030212403,0|0,0:0|0:0,0:0:0:0:
348,316,18854,2,0,L|256:356,1,99.0000030212403,8|0,0:0|0:0,0:0:0:0:
348,316,19108,2,0,L|440:356,1,99.0000030212403,2|0,0:0|0:0,0:0:0:0:
424,256,19363,5,2,0:0:0:0:
424,256,19426,1,0,0:0:0:0:
424,256,19490,1,0,0:0:0:0:
344,196,19617,2,0,P|384:160|432:156,1,99.0000030212403
384,64,19871,2,0,L|276:64,1,99.0000030212403,8|0,0:0|0:0,0:0:0:0:
128,116,20125,2,0,L|228:116,1,99.0000030212403,0|0,0:0|0:0,0:0:0:0:
380,192,20380,5,2,0:0:0:0:
316,220,20507,1,0,0:0:0:0:
256,188,20634,1,0,0:0:0:0:
192,220,20761,1,0,0:0:0:0:
132,192,20888,1,8,0:0:0:0:
444,220,21142,5,2,0:0:0:0:
76,224,21396,5,2,0:0:0:0:
132,192,21524,1,0,0:0:0:0:
192,220,21651,1,0,0:0:0:0:
256,188,21778,1,0,0:0:0:0:
316,220,21905,1,8,0:0:0:0:
380,192,22032,1,0,0:0:0:0:
444,216,22159,1,0,0:0:0:0:
304,356,22413,37,2,0:0:0:0:
168,296,22541,1,0,0:0:0:0:
344,296,22668,1,0,0:0:0:0:
344,296,22731,1,0,0:0:0:0:
212,356,22922,1,8,0:0:0:0:
380,192,23176,5,2,0:0:0:0:
132,192,23430,1,2,0:0:0:0:
64,136,23939,5,8,0:0:0:0:
448,248,24447,1,0,0:0:0:0:
132,192,24702,21,2,0:0:0:0:
380,192,24956,1,8,0:0:0:0:
256,316,25210,1,2,0:0:0:0:
256,68,25464,1,4,0:0:0:0:
188,260,25719,5,8,0:0:0:0:
332,260,25973,1,0,0:0:0:0:
256,140,26227,2,0,P|152:180|60:140,1,215.999993408203
112,72,26990,1,0,0:0:0:0:
200,72,27244,1,0,0:0:0:0:
200,72,27371,1,0,0:0:0:0:
200,72,27498,1,2,0:0:0:0:
344,140,27752,5,8,0:0:0:0:
256,140,28007,1,0,0:0:0:0:
432,140,28261,1,0,0:0:0:0:
432,140,28388,2,0,B|432:208|380:244|324:228,1,161.999995056153,0|2,0:0|0:0,0:0:0:0:
344,140,29024,1,8,0:0:0:0:
268,300,29278,1,0,0:0:0:0:
268,300,29405,1,0,0:0:0:0:
268,300,29532,1,4,0:0:0:0:
196,348,29786,5,8,0:0:0:0:
128,296,30041,1,0,0:0:0:0:
44,276,30295,2,0,P|128:292|196:192,1,215.999993408203
112,216,31057,1,0,0:0:0:0:
44,160,31312,1,0,0:0:0:0:
44,160,31439,1,0,0:0:0:0:
44,160,31566,1,2,0:0:0:0:
132,156,31820,5,8,0:0:0:0:
104,76,32074,1,0,0:0:0:0:
188,88,32329,1,0,0:0:0:0:
188,88,32456,2,0,L|352:88,1,161.999995056153,0|2,0:0|0:0,0:0:0:0:
404,156,33091,1,8,0:0:0:0:
352,224,33346,1,0,0:0:0:0:
352,224,33473,1,0,0:0:0:0:
352,224,33600,1,4,0:0:0:0:
408,292,33854,5,8,0:0:0:0:
456,220,34108,1,0,0:0:0:0:
404,156,34363,2,0,P|336:96|216:76,1,215.999993408203
160,140,35125,1,0,0:0:0:0:
100,80,35380,1,0,0:0:0:0:
88,80,35507,1,0,0:0:0:0:
76,80,35634,1,2,0:0:0:0:
160,140,35888,5,8,0:0:0:0:
216,204,36142,1,0,0:0:0:0:
160,272,36396,1,0,0:0:0:0:
148,272,36524,2,0,P|228:304|288:264,1,161.999995056153,0|2,0:0|0:0,0:0:0:0:
352,324,37159,1,8,0:0:0:0:
308,248,37413,1,0,0:0:0:0:
308,232,37541,1,0,0:0:0:0:
308,220,37668,1,4,0:0:0:0:
340,140,37922,5,8,0:0:0:0:
384,68,38176,1,0,0:0:0:0:
432,140,38430,2,0,P|336:140|296:36,1,215.999993408203
216,76,39193,2,0,P|188:124|136:144,1,107.999996704102
56,160,39702,5,2,0:0:0:0:
112,228,39956,1,8,0:0:0:0:
52,288,40210,1,0,0:0:0:0:
40,288,40337,1,0,0:0:0:0:
112,336,40591,1,0,0:0:0:0:
144,336,40719,5,8,0:0:0:0:
188,200,40973,1,8,0:0:0:0:
236,336,41227,1,8,0:0:0:0:
116,252,41481,1,2,0:0:0:0:
256,252,41735,1,4,0:0:0:0:
308,160,41990,5,0,0:0:0:0:
404,116,42244,1,8,0:0:0:0:
454,211,42498,2,0,P|362:220|306:155,1,180,0|2,0:0|0:0,0:0:0:0:
272,168,43007,5,0,0:0:0:0:
416,84,43261,1,8,0:0:0:0:
464,240,43515,2,0,P|377:251|317:189,1,180,2|2,0:0|0:0,0:0:0:0:
256,256,44024,5,0,0:0:0:0:
212,332,44278,1,8,0:0:0:0:
124,348,44532,1,0,0:0:0:0:
124,348,44659,2,0,L|124:256,1,90,0|2,0:0|0:0,0:0:0:0:
72,184,45041,5,0,0:0:0:0:
152,140,45295,1,8,0:0:0:0:
68,104,45549,1,0,0:0:0:0:
68,104,45676,1,0,0:0:0:0:
68,104,45803,1,2,0:0:0:0:
160,108,46058,5,0,0:0:0:0:
228,48,46312,1,8,0:0:0:0:
296,108,46566,1,0,0:0:0:0:
296,108,46693,1,0,0:0:0:0:
296,108,46820,1,2,0:0:0:0:
160,108,47074,5,0,0:0:0:0:
228,168,47329,1,8,0:0:0:0:
296,108,47583,1,2,0:0:0:0:
296,108,47710,1,0,0:0:0:0:
296,108,47837,1,2,0:0:0:0:
364,168,48091,5,0,0:0:0:0:
432,108,48346,1,8,0:0:0:0:
364,168,48600,1,0,0:0:0:0:
364,168,48727,2,0,L|364:264,1,90,0|8,0:0|0:0,0:0:0:0:
256,352,49108,2,0,L|256:256,1,90,0|8,0:0|0:0,0:0:0:0:
228,263,49363,5,8,0:0:0:0:
399,167,49617,2,0,L|217:168,1,180,2|4,0:0|0:0,0:0:0:0:
168,96,50125,5,0,0:0:0:0:
112,168,50380,1,8,0:0:0:0:
64,244,50634,1,0,0:0:0:0:
64,260,50761,1,0,0:0:0:0:
64,276,50888,1,2,0:0:0:0:
168,96,51142,5,0,0:0:0:0:
140,180,51396,1,8,0:0:0:0:
112,264,51651,1,2,0:0:0:0:
112,280,51778,1,0,0:0:0:0:
112,296,51905,1,2,0:0:0:0:
296,308,52159,5,0,0:0:0:0:
220,356,52413,1,8,0:0:0:0:
216,224,52668,1,0,0:0:0:0:
200,224,52795,2,0,L|292:224,1,90,0|2,0:0|0:0,0:0:0:0:
376,192,53176,1,0,0:0:0:0:
432,260,53430,5,0,0:0:0:0:
376,192,53685,1,2,0:0:0:0:
364,180,53812,1,0,0:0:0:0:
352,168,53939,1,2,0:0:0:0:
404,96,54193,5,0,0:0:0:0:
316,92,54447,1,8,0:0:0:0:
224,88,54702,1,0,0:0:0:0:
208,88,54829,1,0,0:0:0:0:
196,88,54956,1,2,0:0:0:0:
124,140,55210,5,0,0:0:0:0:
156,224,55464,1,8,0:0:0:0:
232,176,55719,1,2,0:0:0:0:
156,224,55973,5,2,0:0:0:0:
80,272,56227,1,8,0:0:0:0:
160,312,56481,1,8,0:0:0:0:
180,312,56608,1,0,0:0:0:0:
256,360,56863,2,0,B|352:360,1,90,2|2,0:0|0:0,0:0:0:0:
388,280,57244,5,10,3:0:0:0:
380,292,57371,1,8,3:0:0:0:
372,304,57498,1,8,3:0:0:0:
312,236,57752,1,2,0:0:0:0:
324,220,57880,1,0,0:0:0:0:
336,208,58007,1,4,0:0:0:0:
392,140,58261,6,0,P|324:108|224:128,1,180,0|8,0:0|0:0,0:0:0:0:
224,128,58642,1,0,0:0:0:0:
224,128,58769,1,0,0:0:0:0:
224,220,59024,6,0,P|212:296|120:324,1,180,2|0,0:0|0:0,0:0:0:0:
132,236,59532,1,8,0:0:0:0:
92,156,59786,1,2,0:0:0:0:
92,156,59913,1,0,0:0:0:0:
92,156,60041,1,6,0:0:0:0:
224,128,60295,6,0,L|316:112,1,90
308,84,60549,1,8,0:0:0:0:
308,84,60676,1,0,0:0:0:0:
308,84,60803,1,0,0:0:0:0:
396,104,61057,6,0,P|420:188|364:252,1,180,2|0,0:0|0:0,0:0:0:0:
256,268,61566,1,8,0:0:0:0:
396,104,61820,1,2,0:0:0:0:
396,124,61947,1,0,0:0:0:0:
396,140,62074,1,4,0:0:0:0:
460,144,62329,6,0,L|460:240,1,90
436,224,62583,2,0,L|436:320,1,90,8|0,0:0|0:0,0:0:0:0:
408,304,62837,1,0,0:0:0:0:
408,304,62964,1,0,0:0:0:0:
408,304,63091,6,0,B|236:360,1,180,2|0,0:0|0:0,0:0:0:0:
168,300,63473,1,0,0:0:0:0:
168,300,63600,2,0,L|340:244,1,180,8|2,0:0|0:0,0:0:0:0:
256,192,63981,5,0,0:0:0:0:
256,192,64108,2,2,P|220:152|184:140,1,90,2|2,0:0|0:0,0:0:0:0:
188,204,64363,2,0,P|124:140|172:80,1,180,0|8,0:0|0:0,0:0:0:0:
232,80,64744,2,0,L|328:80,1,90
388,80,64998,1,0,0:0:0:0:
388,80,65062,1,0,0:0:0:0:
388,80,65125,1,8,3:0:0:0:
328,252,65380,5,0,0:0:0:0:
256,308,65507,1,8,3:0:0:0:
184,256,65634,2,0,L|92:256,1,90,8|0,0:0|0:0,0:0:0:0:
48,180,65888,2,0,L|228:180,1,180,2|4,0:0|0:0,0:0:0:0:
456,100,66396,6,0,P|440:148|408:172,2,90,0|0|8,0:0|0:0|0:0,0:0:0:0:
364,108,66778,2,0,P|318:130|279:124,2,90,0|0|0,0:0|0:0|0:0,0:0:0:0:
212,48,67159,6,0,L|304:56,1,90,2|0,0:0|0:0,0:0:0:0:
208,128,67413,2,0,L|116:136,1,90,0|0,0:0|0:0,0:0:0:0:
208,208,67668,2,0,L|300:216,1,90,8|0,0:0|0:0,0:0:0:0:
204,288,67922,2,0,L|92:300,1,107.999996704102,2|4,0:0|0:0,0:0:0:0:
260,372,68430,6,0,B|352:356,1,90
448,300,68685,2,0,B|359:284,1,90,8|0,0:0|0:0,0:0:0:0:
276,228,68939,2,0,B|368:212,1,90,0|0,0:0|0:0,0:0:0:0:
468,164,69193,5,2,0:0:0:0:
152,76,69447,1,0,0:0:0:0:
360,76,69702,1,8,0:0:0:0:
44,164,69956,2,0,P|108:220|200:216,1,180,2|2,0:0|0:0,0:0:0:0:
224,340,70464,6,0,L|134:340,1,90,0|0,0:0|0:0,0:0:0:0:
224,340,70719,1,0,0:0:0:0:
288,288,70846,2,0,L|378:288,1,90
288,288,71100,1,0,0:0:0:0:
224,232,71227,6,0,L|40:232,1,180,2|0,0:0|0:0,0:0:0:0:
224,232,71608,1,0,0:0:0:0:
284,172,71735,2,0,L|468:172,1,180,8|2,0:0|0:0,0:0:0:0:
284,172,72117,1,0,0:0:0:0:
128,300,72244,5,2,0:0:0:0:
128,84,72498,1,8,3:0:0:0:
384,84,72752,1,8,0:0:0:0:
384,300,73007,1,0,3:0:0:0:
384,300,73070,1,0,0:0:0:0:
384,300,73134,1,0,3:0:0:0:
384,300,73197,1,0,0:0:0:0:
384,300,73261,1,2,0:0:0:0:
320,232,73515,1,8,0:0:0:0:
320,232,73769,5,0,3:0:0:0:
196,232,73896,1,0,3:0:0:0:
256,120,74024,2,0,L|352:120,1,90,2|0,0:0|0:0,0:0:0:0:
224,176,74278,2,0,P|232:280|136:216,1,270,4|0,0:0|0:0,0:0:0:0:
224,176,74786,38,0,P|232:280|136:216,1,270,8|0,0:0|0:0,0:0:0:0:
60,140,75295,2,0,B|104:48|104:48|220:48,1,215.999993408203,2|0,0:0|0:0,0:0:0:0:
304,112,75676,1,0,0:0:0:0:
304,112,75740,1,0,0:0:0:0:
304,112,75803,2,0,L|412:112,1,107.999996704102,8|0,0:0|0:0,0:0:0:0:
464,208,76057,2,0,L|352:208,1,107.999996704102,2|0,0:0|0:0,0:0:0:0:
264,264,76312,6,0,P|308:304|312:352,1,107.999996704102,2|0,0:0|0:0,0:0:0:0:
204,340,76566,1,0,0:0:0:0:
112,284,76693,1,0,0:0:0:0:
112,284,76757,1,0,0:0:0:0:
112,284,76820,2,0,L|112:176,1,107.999996704102,8|0,0:0|0:0,0:0:0:0:
192,104,77074,6,0,L|192:212,1,107.999996704102
320,280,77329,2,0,L|320:144,1,135.000005149842,0|0,0:0|0:0,0:0:0:0:
320,280,77837,6,0,P|288:328|240:340,1,107.999996704102,8|0,0:0|0:0,0:0:0:0:
132,344,78091,2,0,P|156:288|196:264,1,107.999996704102,2|0,0:0|0:0,0:0:0:0:
256,176,78346,2,0,P|144:80|36:184,1,323.999990112305,4|0,0:0|0:0,0:0:0:0:
36,192,78854,6,0,P|143:90|255:186,1,323.999990112305,8|0,0:0|0:0,0:0:0:0:
144,208,79363,2,0,P|156:148|192:120,1,107.999996704102,2|0,0:0|0:0,0:0:0:0:
296,104,79617,1,0,0:0:0:0:
376,176,79744,1,0,0:0:0:0:
376,176,79807,1,0,0:0:0:0:
376,176,79871,2,0,P|400:128|392:72,1,107.999996704102,8|0,0:0|0:0,0:0:0:0:
296,104,80125,6,0,L|256:208,1,107.999996704102,2|0,0:0|0:0,0:0:0:0:
340,276,80380,2,0,L|248:332,1,107.999996704102,2|0,0:0|0:0,0:0:0:0:
140,336,80634,1,0,0:0:0:0:
52,276,80761,1,0,0:0:0:0:
52,276,80824,1,0,0:0:0:0:
52,276,80888,2,0,P|96:240|148:236,1,107.999996704102,8|0,0:0|0:0,0:0:0:0:
256,264,81142,6,0,L|204:168,1,107.999996704102
256,264,81396,2,0,P|304:196|380:176,1,161.999995056153,8|0,0:0|0:0,0:0:0:0:
400,176,81651,1,0,3:0:0:0:
400,176,81714,1,0,0:0:0:0:
400,176,81778,1,0,3:0:0:0:
400,176,81841,1,0,0:0:0:0:
400,176,81905,5,8,0:0:0:0:
464,276,82159,1,2,0:0:0:0:
332,72,82413,2,0,P|220:52|148:116,1,216,4|0,0:0|0:0,0:0:0:0:
76,200,82922,2,0,P|188:220|260:156,1,216,8|0,0:0|0:0,0:0:0:0:
148,116,83430,6,0,L|180:224,1,107.999996704102,2|0,0:0|0:0,0:0:0:0:
256,296,83685,1,0,0:0:0:0:
164,348,83812,1,0,0:0:0:0:
164,348,83875,1,0,0:0:0:0:
164,348,83939,2,0,L|180:240,1,107.999996704102,8|0,0:0|0:0,0:0:0:0:
268,188,84193,2,0,L|256:300,1,107.999996704102,2|0,0:0|0:0,0:0:0:0:
348,352,84447,6,0,P|408:324|428:288,1,107.999996704102,2|0,0:0|0:0,0:0:0:0:
328,244,84702,1,0,0:0:0:0:
409,183,84829,1,0,0:0:0:0:
409,183,84892,1,0,0:0:0:0:
408,181,84956,2,0,P|348:209|328:245,1,107.999996704102,8|0,0:0|0:0,0:0:0:0:
414,117,85210,6,0,P|356:91|313:94,1,107.999996704102
98,117,85464,2,0,P|156:91|229:97,1,135.000005149842,2|0,0:0|0:0,0:0:0:0:
256,236,85973,38,0,L|177:163,1,107.999996704102,8|0,0:0|0:0,0:0:0:0:
335,163,86227,6,0,L|256:236,1,107.999996704102,2|0,0:0|0:0,0:0:0:0:
256,128,86481,38,0,B|312:108|408:88|380:288|256:312,1,323.999990112305,4|0,0:0|0:0,0:0:0:0:
256,128,86990,6,0,B|200:108|104:88|132:288|256:312,1,323.999990112305,8|0,0:0|0:0,0:0:0:0:
348,364,87498,6,0,P|364:316|416:288,1,107.999996704102,2|0,0:0|0:0,0:0:0:0:
464,192,87752,1,0,0:0:0:0:
364,152,87880,1,0,0:0:0:0:
364,152,87943,1,0,0:0:0:0:
364,152,88007,2,0,L|256:152,1,107.999996704102,8|0,0:0|0:0,0:0:0:0:
196,64,88261,2,0,L|312:64,1,107.999996704102,2|0,0:0|0:0,0:0:0:0:
384,176,88515,6,0,L|276:176,1,107.999996704102,2|0,0:0|0:0,0:0:0:0:
168,40,88769,1,0,0:0:0:0:
168,40,88896,1,0,0:0:0:0:
168,40,88959,1,0,0:0:0:0:
168,40,89023,2,0,L|276:40,1,107.999996704102,8|0,0:0|0:0,0:0:0:0:
408,200,89278,2,0,L|296:200,1,108,0|0,0:0|0:0,0:0:0:0:
284,228,89532,5,8,3:0:0:0:
204,300,89659,1,8,3:0:0:0:
124,228,89786,1,8,3:0:0:0:
200,148,89913,1,8,3:0:0:0:
232,148,90168,5,0,3:0:0:0:
156,228,90295,1,0,3:0:0:0:
236,300,90422,1,0,3:0:0:0:
312,228,90549,5,4,0:0:0:0:
448,224,90740,1,0,0:0:0:0:
448,224,90803,1,0,0:0:0:0:
336,304,90930,1,0,0:0:0:0:
428,304,91057,6,0,P|412:360|388:376,1,90,8|0,0:0|0:0,0:0:0:0:
288,380,91312,2,0,P|254:351|247:307,1,90,0|0,0:0|0:0,0:0:0:0:
280,224,91566,1,2,0:0:0:0:
204,272,91693,1,0,0:0:0:0:
128,224,91820,1,0,0:0:0:0:
200,120,92074,6,0,L|200:216,1,90,8|0,0:0|0:0,0:0:0:0:
200,120,92329,2,0,P|120:160|40:120,1,180,0|2,0:0|0:0,0:0:0:0:
120,76,92710,5,0,0:0:0:0:
200,120,92837,2,0,P|280:80|360:120,1,180,0|8,0:0|0:0,0:0:0:0:
440,76,93219,5,0,0:0:0:0:
280,168,93346,2,0,L|280:264,1,90
364,292,93600,1,2,0:0:0:0:
280,260,93727,1,0,0:0:0:0:
364,292,93854,6,0,L|364:200,1,90
444,256,94108,2,0,P|440:336|356:376,1,180,8|2,0:0|0:0,0:0:0:0:
272,348,94490,5,0,0:0:0:0:
196,300,94617,1,2,0:0:0:0:
68,344,94807,1,0,0:0:0:0:
68,344,94871,1,0,0:0:0:0:
100,212,95062,1,0,0:0:0:0:
100,212,95125,1,8,0:0:0:0:
100,212,95189,37,0,0:0:0:0:
188,228,95316,1,0,0:0:0:0:
256,168,95443,1,0,0:0:0:0:
168,148,95570,1,0,0:0:0:0:
168,148,95634,2,0,P|188:108|228:84,1,90,2|0,0:0|0:0,0:0:0:0:
256,168,95888,1,0,0:0:0:0:
316,100,96015,1,0,0:0:0:0:
316,100,96079,1,0,0:0:0:0:
316,100,96142,1,8,0:0:0:0:
368,172,96269,5,0,0:0:0:0:
424,104,96396,1,2,0:0:0:0:
316,100,96524,1,0,0:0:0:0:
368,172,96651,1,2,0:0:0:0:
432,236,96778,1,0,0:0:0:0:
312,240,96905,1,0,0:0:0:0:
376,304,97032,1,0,0:0:0:0:
376,304,97096,1,0,0:0:0:0:
376,304,97159,6,0,P|316:336|228:276,1,180,8|0,0:0|0:0,0:0:0:0:
312,240,97541,1,0,0:0:0:0:
230,281,97668,2,0,L|138:281,1,90,8|0,0:0|0:0,0:0:0:0:
68,338,97922,1,0,0:0:0:0:
140,281,98049,1,8,3:0:0:0:
68,337,98176,2,0,P|60:245|132:201,1,180,8|4,0:0|0:0,0:0:0:0:
416,192,98685,6,0,L|312:192,1,99.0000030212403,4|0,0:0|0:0,0:0:0:0:
260,112,98939,2,0,L|364:112,1,99.0000030212403
432,212,99193,2,0,L|328:212,1,99.0000030212403,8|0,0:0|0:0,0:0:0:0:
240,92,99447,2,0,L|344:92,1,99.0000030212403,0|0,0:0|0:0,0:0:0:0:
380,192,99702,6,0,L|276:192,1,99.0000030212403,2|0,0:0|0:0,0:0:0:0:
224,112,99956,2,0,L|328:112,1,99.0000030212403
404,212,100210,2,0,L|300:212,1,99.0000030212403,8|0,0:0|0:0,0:0:0:0:
212,92,100464,2,0,L|316:92,1,99.0000030212403,2|0,0:0|0:0,0:0:0:0:
348,192,100719,6,0,L|244:192,1,99.0000030212403,2|0,0:0|0:0,0:0:0:0:
192,112,100973,2,0,L|296:112,1,99.0000030212403
368,212,101227,2,0,L|264:212,1,99.0000030212403,8|0,0:0|0:0,0:0:0:0:
176,92,101481,2,0,L|280:92,1,99.0000030212403,2|0,0:0|0:0,0:0:0:0:
156,112,101735,5,2,0:0:0:0:
384,192,101863,1,0,0:0:0:0:
160,276,101990,2,0,L|60:276,1,99.0000030212403
176,352,102244,2,0,L|276:352,1,99.0000030212403,8|0,0:0|0:0,0:0:0:0:
320,264,102498,6,0,P|356:188|464:172,1,198.000006042481,2|2,0:0|0:0,0:0:0:0:
424,264,102880,5,0,0:0:0:0:
320,264,103007,1,0,0:0:0:0:
256,188,103134,1,0,0:0:0:0:
256,188,103261,5,8,0:0:0:0:
196,264,103388,1,0,0:0:0:0:
96,268,103515,2,0,P|144:176|232:172,1,198.000006042481,0|2,0:0|0:0,0:0:0:0:
176,296,103896,5,0,0:0:0:0:
256,156,104024,1,0,0:0:0:0:
336,296,104151,1,0,0:0:0:0:
256,156,104278,1,8,0:0:0:0:
256,328,104532,5,2,0:0:0:0:
120,192,104786,2,0,P|144:136|184:108,1,107.999996704102,2|0,0:0|0:0,0:0:0:0:
392,192,105295,2,0,P|368:248|328:276,1,107.999996704102,8|0,0:0|0:0,0:0:0:0:
256,56,105803,1,0,0:0:0:0:
256,192,106058,1,2,0:0:0:0:
256,192,106121,1,0,0:0:0:0:
256,192,106185,1,0,0:0:0:0:
392,192,106312,5,8,0:0:0:0:
120,192,106439,1,8,0:0:0:0:
392,192,106566,2,0,L|392:304,1,107.999996704102,2|4,0:0|0:0,0:0:0:0:
80,300,122329,5,0,0:0:0:0:
80,300,122583,1,10,0:0:0:0:
80,300,122710,1,8,0:0:0:0:
80,300,122837,2,0,B|164:372|244:304,1,180,0|4,0:0|0:0,0:0:0:0:
120,172,123346,6,0,L|120:80,1,90,0|0,0:0|0:0,0:0:0:0:
200,40,123600,2,8,L|200:136,1,90,8|0,0:0|0:0,0:0:0:0:
204,220,123854,1,0,0:0:0:0:
280,172,123981,1,0,0:0:0:0:
320,92,124109,6,0,P|364:84|408:92,1,90,2|0,0:0|0:0,0:0:0:0:
448,172,124363,2,0,P|404:180|360:172,1,90,0|0,0:0|0:0,0:0:0:0:
300,72,124617,2,0,P|344:64|388:72,1,90,8|0,0:0|0:0,0:0:0:0:
468,200,124871,2,0,P|392:208|344:252,1,144,2|6,0:0|0:0,0:0:0:0:
180,328,125380,6,0,P|88:288|76:216,1,180,0|8,0:0|0:0,0:0:0:0:
164,240,125761,1,0,0:0:0:0:
208,160,125888,2,0,L|208:64,1,90
124,44,126142,6,0,L|124:136,1,90,2|0,0:0|0:0,0:0:0:0:
284,188,126396,2,0,L|284:92,1,90
228,196,126651,2,0,L|228:292,1,90,8|0,0:0|0:0,0:0:0:0:
388,340,126905,2,0,L|388:228,1,107.999996704102,2|4,0:0|0:0,0:0:0:0:
52,240,127414,6,0,L|52:144,1,90
76,160,127668,2,0,L|76:64,1,90,8|0,0:0|0:0,0:0:0:0:
104,80,127922,1,0,0:0:0:0:
104,80,128049,1,0,0:0:0:0:
104,80,128176,6,0,B|276:24,1,180,2|0,0:0|0:0,0:0:0:0:
344,84,128558,1,0,0:0:0:0:
344,84,128685,2,0,L|172:140,1,180,8|2,0:0|0:0,0:0:0:0:
256,192,129066,5,0,0:0:0:0:
256,192,129193,2,2,P|292:232|328:244,1,90,2|2,0:0|0:0,0:0:0:0:
324,180,129448,2,0,P|388:244|340:304,1,180,0|8,0:0|0:0,0:0:0:0:
280,304,129829,2,0,L|184:304,1,90
124,304,130083,1,0,0:0:0:0:
124,304,130147,1,0,0:0:0:0:
124,304,130210,1,8,3:0:0:0:
256,72,130465,5,0,0:0:0:0:
256,72,130528,1,0,0:0:0:0:
256,72,130592,1,8,3:0:0:0:
328,128,130719,2,0,L|420:128,1,90,8|0,0:0|0:0,0:0:0:0:
464,204,130973,2,0,L|284:204,1,180,2|4,0:0|0:0,0:0:0:0:
56,284,131481,6,0,P|72:236|104:212,2,90,0|0|8,0:0|0:0|0:0,0:0:0:0:
148,276,131863,2,0,P|194:254|233:260,2,90,0|0|0,0:0|0:0|0:0,0:0:0:0:
300,336,132244,6,0,L|208:328,1,90,2|0,0:0|0:0,0:0:0:0:
380,260,132498,2,0,L|328:340,1,90,0|0,0:0|0:0,0:0:0:0:
288,256,132753,2,0,L|336:180,1,90,8|0,0:0|0:0,0:0:0:0:
308,96,133007,2,0,L|420:84,1,107.999996704102,2|4,0:0|0:0,0:0:0:0:
248,148,133515,6,0,P|200:128|180:88,1,90
144,180,133769,2,0,P|137:128|161:91,1,90,8|0,0:0|0:0,0:0:0:0:
56,120,134024,2,0,P|97:88|141:91,1,90,0|0,0:0|0:0,0:0:0:0:
44,220,134278,5,2,0:0:0:0:
172,344,134532,1,0,0:0:0:0:
340,280,134787,1,8,0:0:0:0:
468,220,135041,2,0,P|404:164|312:168,1,180,2|2,0:0|0:0,0:0:0:0:
288,44,135549,6,0,L|378:44,1,90,0|0,0:0|0:0,0:0:0:0:
288,44,135804,1,0,0:0:0:0:
224,96,135931,2,0,L|134:96,1,90
224,96,136185,1,0,0:0:0:0:
288,152,136312,6,0,L|472:152,1,180,2|0,0:0|0:0,0:0:0:0:
288,152,136693,1,0,0:0:0:0:
228,212,136820,2,0,L|44:212,1,180,8|2,0:0|0:0,0:0:0:0:
228,212,137202,1,0,0:0:0:0:
384,84,137329,5,2,0:0:0:0:
128,300,137583,1,8,0:0:0:0:
384,300,137837,1,8,3:0:0:0:
128,84,138092,1,0,3:0:0:0:
128,84,138155,1,0,0:0:0:0:
128,84,138219,1,0,3:0:0:0:
128,84,138282,1,0,0:0:0:0:
128,84,138346,1,2,0:0:0:0:
192,152,138600,1,8,0:0:0:0:
192,152,138854,5,0,3:0:0:0:
316,152,138981,1,0,3:0:0:0:
256,264,139109,2,0,L|160:264,1,90,2|0,0:0|0:0,0:0:0:0:
288,208,139363,2,0,P|280:104|376:168,1,270,4|0,0:0|0:0,0:0:0:0:
288,208,139871,38,0,P|280:104|376:168,1,270,8|0,0:0|0:0,0:0:0:0:
452,244,140380,2,0,B|408:336|408:336|292:336,1,215.999993408203,2|0,0:0|0:0,0:0:0:0:
208,272,140761,1,0,0:0:0:0:
208,272,140825,1,0,0:0:0:0:
208,272,140888,2,0,L|100:272,1,107.999996704102,8|0,0:0|0:0,0:0:0:0:
48,176,141142,2,0,L|160:176,1,107.999996704102,2|0,0:0|0:0,0:0:0:0:
248,120,141397,6,0,P|204:80|200:32,1,107.999996704102,2|0,0:0|0:0,0:0:0:0:
308,44,141651,1,0,0:0:0:0:
400,100,141778,1,0,0:0:0:0:
400,100,141842,1,0,0:0:0:0:
400,100,141905,2,0,L|400:208,1,107.999996704102,8|0,0:0|0:0,0:0:0:0:
320,280,142159,6,0,L|320:172,1,107.999996704102
192,104,142414,2,0,L|192:240,1,135.000005149842,0|0,0:0|0:0,0:0:0:0:
192,104,142922,6,0,P|224:56|272:44,1,107.999996704102,8|0,0:0|0:0,0:0:0:0:
380,40,143176,2,0,P|356:96|316:120,1,107.999996704102,2|0,0:0|0:0,0:0:0:0:
256,208,143431,2,0,P|368:304|476:200,1,323.999990112305,4|0,0:0|0:0,0:0:0:0:
476,192,143939,6,0,P|369:294|257:198,1,323.999990112305,8|0,0:0|0:0,0:0:0:0:
368,176,144448,2,0,P|356:236|320:264,1,107.999996704102,2|0,0:0|0:0,0:0:0:0:
216,280,144702,1,0,0:0:0:0:
136,208,144829,1,0,0:0:0:0:
136,208,144892,1,0,0:0:0:0:
136,208,144956,2,0,P|112:256|120:312,1,107.999996704102,8|0,0:0|0:0,0:0:0:0:
216,280,145210,6,0,L|256:176,1,107.999996704102,2|0,0:0|0:0,0:0:0:0:
172,108,145465,2,0,L|264:52,1,107.999996704102,2|0,0:0|0:0,0:0:0:0:
372,48,145719,1,0,0:0:0:0:
460,108,145846,1,0,0:0:0:0:
460,108,145909,1,0,0:0:0:0:
460,108,145973,2,0,P|416:144|364:148,1,107.999996704102,8|0,0:0|0:0,0:0:0:0:
256,120,146227,6,0,L|308:216,1,107.999996704102
256,120,146481,2,0,P|208:188|132:208,1,161.999995056153,8|0,0:0|0:0,0:0:0:0:
112,208,146736,1,0,3:0:0:0:
112,208,146799,1,0,0:0:0:0:
112,208,146863,1,0,3:0:0:0:
112,208,146926,1,0,0:0:0:0:
112,208,146990,5,8,0:0:0:0:
48,108,147244,1,2,0:0:0:0:
180,312,147498,2,0,P|292:332|364:268,1,216,4|0,0:0|0:0,0:0:0:0:
436,184,148007,2,0,P|324:164|252:228,1,216,8|0,0:0|0:0,0:0:0:0:
364,268,148515,6,0,L|332:160,1,107.999996704102,2|0,0:0|0:0,0:0:0:0:
256,88,148770,1,0,0:0:0:0:
348,36,148897,1,0,0:0:0:0:
348,36,148960,1,0,0:0:0:0:
348,36,149024,2,0,L|332:144,1,107.999996704102,8|0,0:0|0:0,0:0:0:0:
244,196,149278,2,0,L|256:84,1,107.999996704102,2|0,0:0|0:0,0:0:0:0:
164,32,149532,6,0,P|104:60|84:96,1,107.999996704102,2|0,0:0|0:0,0:0:0:0:
184,140,149787,1,0,0:0:0:0:
103,201,149914,1,0,0:0:0:0:
103,201,149977,1,0,0:0:0:0:
104,203,150041,2,0,P|164:175|184:139,1,107.999996704102,8|0,0:0|0:0,0:0:0:0:
98,267,150295,6,0,P|156:293|199:290,1,107.999996704102
414,267,150549,2,0,P|356:293|283:287,1,135.000005149842,2|0,0:0|0:0,0:0:0:0:
256,236,151058,38,0,L|177:163,1,107.999996704102,8|0,0:0|0:0,0:0:0:0:
335,163,151312,6,0,L|256:236,1,107.999996704102,2|0,0:0|0:0,0:0:0:0:
256,128,151566,38,0,B|312:108|408:88|380:288|256:312,1,323.999990112305,4|0,0:0|0:0,0:0:0:0:
256,128,152075,6,0,B|200:108|104:88|132:288|256:312,1,323.999990112305,8|0,0:0|0:0,0:0:0:0:
320,320,152583,6,0,L|212:320,1,107.999996704102,2|0,0:0|0:0,0:0:0:0:
48,192,152837,1,0,0:0:0:0:
148,232,152965,1,0,0:0:0:0:
148,232,153092,2,0,L|256:232,1,107.999996704102,8|0,0:0|0:0,0:0:0:0:
316,320,153346,2,0,L|200:320,1,107.999996704102,2|0,0:0|0:0,0:0:0:0:
128,208,153600,6,0,L|236:208,1,107.999996704102,2|0,0:0|0:0,0:0:0:0:
344,344,153854,1,0,0:0:0:0:
344,344,153981,1,0,0:0:0:0:
344,344,154108,2,0,L|236:344,1,107.999996704102,8|0,0:0|0:0,0:0:0:0:
104,184,154363,2,0,L|216:184,1,108,0|0,0:0|0:0,0:0:0:0:
228,156,154617,5,8,3:0:0:0:
308,84,154744,1,8,3:0:0:0:
388,156,154871,1,8,3:0:0:0:
312,236,154998,1,8,3:0:0:0:
312,264,155253,5,0,3:0:0:0:
308,52,155380,1,0,3:0:0:0:
204,156,155507,1,0,3:0:0:0:
420,160,155634,1,4,0:0:0:0:
204,224,163769,5,4,0:0:0:0:
204,224,164024,1,0,0:0:0:0:
108,268,164278,1,8,0:0:0:0:
58,173,164532,2,0,P|150:164|206:229,1,180,0|2,0:0|0:0,0:0:0:0:
240,216,165041,5,0,0:0:0:0:
96,300,165295,1,8,0:0:0:0:
48,144,165549,2,0,P|135:133|195:195,1,180,2|2,0:0|0:0,0:0:0:0:
256,128,166058,5,0,0:0:0:0:
300,52,166312,1,8,0:0:0:0:
388,36,166566,1,0,0:0:0:0:
388,36,166693,2,0,L|388:128,1,90,0|2,0:0|0:0,0:0:0:0:
440,200,167075,5,0,0:0:0:0:
360,244,167329,1,8,0:0:0:0:
444,280,167583,1,0,0:0:0:0:
444,280,167710,1,0,0:0:0:0:
444,280,167837,1,2,0:0:0:0:
352,276,168092,5,0,0:0:0:0:
284,336,168346,1,8,0:0:0:0:
216,276,168600,1,0,0:0:0:0:
216,276,168727,1,0,0:0:0:0:
216,276,168854,1,2,0:0:0:0:
352,276,169108,5,0,0:0:0:0:
284,216,169363,1,8,0:0:0:0:
216,276,169617,1,2,0:0:0:0:
216,276,169744,1,0,0:0:0:0:
216,276,169871,1,2,0:0:0:0:
148,216,170125,5,0,0:0:0:0:
80,276,170380,1,8,0:0:0:0:
148,216,170634,1,0,0:0:0:0:
148,216,170761,2,0,L|148:120,1,90,0|8,0:0|0:0,0:0:0:0:
256,32,171142,2,0,L|256:128,1,90,0|8,0:0|0:0,0:0:0:0:
284,121,171397,5,8,0:0:0:0:
113,217,171651,2,0,L|295:216,1,180,2|4,0:0|0:0,0:0:0:0:
344,288,172159,5,0,0:0:0:0:
400,216,172414,1,8,0:0:0:0:
448,140,172668,1,0,0:0:0:0:
448,124,172795,1,0,0:0:0:0:
448,108,172922,1,2,0:0:0:0:
344,288,173176,5,0,0:0:0:0:
372,204,173430,1,8,0:0:0:0:
400,120,173685,1,2,0:0:0:0:
400,104,173812,1,0,0:0:0:0:
400,88,173939,1,2,0:0:0:0:
216,76,174193,5,0,0:0:0:0:
292,28,174447,1,8,0:0:0:0:
296,160,174702,1,0,0:0:0:0:
312,160,174829,2,0,L|220:160,1,90,0|2,0:0|0:0,0:0:0:0:
136,192,175210,1,0,0:0:0:0:
80,124,175464,5,0,0:0:0:0:
136,192,175719,1,2,0:0:0:0:
148,204,175846,1,0,0:0:0:0:
160,216,175973,1,2,0:0:0:0:
108,288,176227,5,0,0:0:0:0:
196,292,176481,1,8,0:0:0:0:
288,296,176736,1,0,0:0:0:0:
304,296,176863,1,0,0:0:0:0:
320,296,176990,2,0,L|424:192,1,144,2|0,0:0|0:0,0:0:0:0:
376,116,177498,5,8,0:0:0:0:
256,88,177753,1,2,0:0:0:0:
144,120,178007,1,4,0:0:0:0:
256,192,178070,12,0,180041,0:0:0:0:
320,232,197837,5,0,3:0:0:0:
196,232,197964,1,0,3:0:0:0:
256,120,198092,2,0,L|352:120,1,90,2|0,0:0|0:0,0:0:0:0:
224,176,198346,2,0,P|232:280|136:216,1,270,4|0,0:0|0:0,0:0:0:0:
224,176,198854,38,0,P|232:280|136:216,1,270,8|0,0:0|0:0,0:0:0:0:
60,140,199363,2,0,B|104:48|104:48|220:48,1,215.999993408203,2|0,0:0|0:0,0:0:0:0:
304,112,199744,1,0,0:0:0:0:
304,112,199808,1,0,0:0:0:0:
304,112,199871,2,0,L|412:112,1,107.999996704102,8|0,0:0|0:0,0:0:0:0:
464,208,200125,2,0,L|352:208,1,107.999996704102,2|0,0:0|0:0,0:0:0:0:
264,264,200380,6,0,P|308:304|312:352,1,107.999996704102,2|0,0:0|0:0,0:0:0:0:
204,340,200634,1,0,0:0:0:0:
112,284,200761,1,0,0:0:0:0:
112,284,200825,1,0,0:0:0:0:
112,284,200888,2,0,L|112:176,1,107.999996704102,8|0,0:0|0:0,0:0:0:0:
192,104,201142,6,0,L|192:212,1,107.999996704102
320,280,201397,2,0,L|320:144,1,135.000005149842,0|0,0:0|0:0,0:0:0:0:
320,280,201905,6,0,P|288:328|240:340,1,107.999996704102,8|0,0:0|0:0,0:0:0:0:
132,344,202159,2,0,P|156:288|196:264,1,107.999996704102,2|0,0:0|0:0,0:0:0:0:
256,176,202414,2,0,P|144:80|36:184,1,323.999990112305,4|0,0:0|0:0,0:0:0:0:
36,192,202922,6,0,P|143:90|255:186,1,323.999990112305,8|0,0:0|0:0,0:0:0:0:
144,208,203431,2,0,P|156:148|192:120,1,107.999996704102,2|0,0:0|0:0,0:0:0:0:
296,104,203685,1,0,0:0:0:0:
376,176,203812,1,0,0:0:0:0:
376,176,203875,1,0,0:0:0:0:
376,176,203939,2,0,P|400:128|392:72,1,107.999996704102,8|0,0:0|0:0,0:0:0:0:
296,104,204193,6,0,L|256:208,1,107.999996704102,2|0,0:0|0:0,0:0:0:0:
340,276,204448,2,0,L|248:332,1,107.999996704102,2|0,0:0|0:0,0:0:0:0:
140,336,204702,1,0,0:0:0:0:
52,276,204829,1,0,0:0:0:0:
52,276,204892,1,0,0:0:0:0:
52,276,204956,2,0,P|96:240|148:236,1,107.999996704102,8|0,0:0|0:0,0:0:0:0:
256,264,205210,6,0,L|204:168,1,107.999996704102
256,264,205464,2,0,P|304:196|380:176,1,161.999995056153,8|0,0:0|0:0,0:0:0:0:
400,176,205719,1,0,3:0:0:0:
400,176,205782,1,0,0:0:0:0:
400,176,205846,1,0,3:0:0:0:
400,176,205909,1,0,0:0:0:0:
400,176,205973,5,8,0:0:0:0:
464,276,206227,1,2,0:0:0:0:
332,72,206481,2,0,P|220:52|148:116,1,216,4|0,0:0|0:0,0:0:0:0:
76,200,206990,2,0,P|188:220|260:156,1,216,8|0,0:0|0:0,0:0:0:0:
148,116,207498,6,0,L|180:224,1,107.999996704102,2|0,0:0|0:0,0:0:0:0:
256,296,207753,1,0,0:0:0:0:
164,348,207880,1,0,0:0:0:0:
164,348,207943,1,0,0:0:0:0:
164,348,208007,2,0,L|180:240,1,107.999996704102,8|0,0:0|0:0,0:0:0:0:
268,188,208261,2,0,L|256:300,1,107.999996704102,2|0,0:0|0:0,0:0:0:0:
348,352,208515,6,0,P|408:324|428:288,1,107.999996704102,2|0,0:0|0:0,0:0:0:0:
328,244,208770,1,0,0:0:0:0:
409,183,208897,1,0,0:0:0:0:
409,183,208960,1,0,0:0:0:0:
408,181,209024,2,0,P|348:209|328:245,1,107.999996704102,8|0,0:0|0:0,0:0:0:0:
414,117,209278,6,0,P|356:91|313:94,1,107.999996704102
98,117,209532,2,0,P|156:91|229:97,1,135.000005149842,2|0,0:0|0:0,0:0:0:0:
256,236,210041,38,0,L|177:163,1,107.999996704102,8|0,0:0|0:0,0:0:0:0:
335,163,210295,6,0,L|256:236,1,107.999996704102,2|0,0:0|0:0,0:0:0:0:
256,128,210549,38,0,B|312:108|408:88|380:288|256:312,1,323.999990112305,4|0,0:0|0:0,0:0:0:0:
256,128,211058,6,0,B|200:108|104:88|132:288|256:312,1,323.999990112305,8|0,0:0|0:0,0:0:0:0:
348,364,211566,6,0,P|364:316|416:288,1,107.999996704102,2|0,0:0|0:0,0:0:0:0:
464,192,211820,1,0,0:0:0:0:
364,152,211948,1,0,0:0:0:0:
364,152,212011,1,0,0:0:0:0:
364,152,212075,2,0,L|256:152,1,107.999996704102,8|0,0:0|0:0,0:0:0:0:
196,64,212329,2,0,L|312:64,1,107.999996704102,2|0,0:0|0:0,0:0:0:0:
384,176,212583,6,0,L|276:176,1,107.999996704102,2|0,0:0|0:0,0:0:0:0:
168,40,212837,1,0,0:0:0:0:
168,40,212964,1,0,0:0:0:0:
168,40,213027,1,0,0:0:0:0:
168,40,213091,2,0,L|276:40,1,107.999996704102,8|0,0:0|0:0,0:0:0:0:
408,200,213346,2,0,L|296:200,1,108,0|0,0:0|0:0,0:0:0:0:
284,228,213600,5,8,3:0:0:0:
204,300,213727,1,8,3:0:0:0:
124,228,213854,1,8,3:0:0:0:
200,148,213981,1,8,3:0:0:0:
144,172,214236,5,0,3:0:0:0:
146,282,214363,1,0,3:0:0:0:
254,276,214490,1,0,3:0:0:0:
257,172,214617,1,4,0:0:0:0:
384,124,214808,1,0,0:0:0:0:
384,124,214871,1,0,0:0:0:0:
384,36,214998,1,0,0:0:0:0:
384,124,215125,6,0,L|384:220,1,90,8|0,0:0|0:0,0:0:0:0:
312,264,215380,2,0,L|312:168,1,90,0|0,0:0|0:0,0:0:0:0:
232,160,215634,1,2,0:0:0:0:
308,112,215761,1,0,0:0:0:0:
384,160,215888,1,0,0:0:0:0:
312,264,216142,6,0,L|312:168,1,90,8|0,0:0|0:0,0:0:0:0:
312,264,216397,2,0,P|360:248|396:264,1,90,0|0,0:0|0:0,0:0:0:0:
356,344,216651,1,2,0:0:0:0:
268,344,216778,6,0,L|172:344,1,90,2|0,0:0|0:0,0:0:0:0:
148,260,217032,1,0,0:0:0:0:
148,260,217159,1,8,0:0:0:0:
148,260,217223,1,0,0:0:0:0:
148,260,217286,1,0,0:0:0:0:
232,216,217414,6,0,L|232:120,1,90
312,84,217668,2,0,L|312:176,1,90,2|0,0:0|0:0,0:0:0:0:
148,168,217922,5,0,0:0:0:0:
148,256,218049,1,0,0:0:0:0:
72,208,218176,2,0,P|72:128|156:88,1,180,8|2,0:0|0:0,0:0:0:0:
240,36,218558,5,0,0:0:0:0:
312,84,218685,1,2,0:0:0:0:
444,40,218875,1,0,0:0:0:0:
444,40,218939,1,0,0:0:0:0:
412,172,219130,1,0,0:0:0:0:
412,172,219257,37,0,0:0:0:0:
324,156,219384,1,0,0:0:0:0:
256,216,219511,1,0,0:0:0:0:
344,236,219638,1,0,0:0:0:0:
344,236,219702,2,0,P|324:276|284:300,1,90,2|0,0:0|0:0,0:0:0:0:
256,216,219956,1,0,0:0:0:0:
196,284,220083,1,0,0:0:0:0:
108,284,220210,6,0,L|52:208,1,90,8|0,0:0|0:0,0:0:0:0:
124,268,220464,2,0,L|112:176,1,90,2|0,0:0|0:0,0:0:0:0:
152,260,220719,2,0,P|184:176|260:132,1,180,2|0,0:0|0:0,0:0:0:0:
220,52,221100,5,0,0:0:0:0:
136,80,221227,2,0,P|176:52|216:52,1,90,8|0,0:0|0:0,0:0:0:0:
282,103,221481,2,0,L|384:104,1,90
282,103,221736,6,0,L|472:104,1,180,8|0,0:0|0:0,0:0:0:0:
372,103,222117,1,8,3:0:0:0:
444,47,222244,2,0,P|452:139|380:183,1,180,8|4,0:0|0:0,0:0:0:0:
96,192,222753,6,0,P|196:232|232:312,1,198.000006042481,4|0,0:0|0:0,0:0:0:0:
140,344,223134,1,0,0:0:0:0:
220,288,223261,2,0,L|324:288,1,99.0000030212403,8|0,0:0|0:0,0:0:0:0:
400,344,223515,2,0,L|296:344,1,99.0000030212403,0|0,0:0|0:0,0:0:0:0:
336,236,223770,6,0,L|336:136,1,99.0000030212403,2|0,0:0|0:0,0:0:0:0:
424,92,224024,2,0,L|424:192,1,99.0000030212403
316,256,224278,2,0,L|316:156,1,99.0000030212403,8|0,0:0|0:0,0:0:0:0:
444,72,224532,2,0,L|444:172,1,99.0000030212403,2|0,0:0|0:0,0:0:0:0:
296,276,224787,6,0,P|244:168|172:144,1,198.000006042481,2|0,0:0|0:0,0:0:0:0:
232,64,225168,1,0,0:0:0:0:
128,192,225295,2,0,L|29:192,1,99.0000030212403,8|0,0:0|0:0,0:0:0:0:
76,280,225549,2,0,L|175:280,1,99.0000030212403,2|0,0:0|0:0,0:0:0:0:
356,272,225803,5,2,0:0:0:0:
128,192,225931,1,0,0:0:0:0:
352,108,226058,2,0,L|452:108,1,99.0000030212403
352,108,226312,1,8,0:0:0:0:
192,120,226566,6,0,P|156:196|48:212,1,198.000006042481,2|2,0:0|0:0,0:0:0:0:
88,120,226948,5,0,0:0:0:0:
192,120,227075,1,0,0:0:0:0:
256,196,227202,1,0,0:0:0:0:
256,196,227329,5,8,0:0:0:0:
316,120,227456,1,0,0:0:0:0:
416,116,227583,2,0,P|368:208|280:212,1,198.000006042481,0|2,0:0|0:0,0:0:0:0:
336,88,227964,5,0,0:0:0:0:
256,228,228092,1,0,0:0:0:0:
176,88,228219,1,0,0:0:0:0:
256,228,228346,1,8,0:0:0:0:
256,56,228600,5,2,0:0:0:0:
392,192,228854,2,0,P|368:248|328:276,1,107.999996704102,2|0,0:0|0:0,0:0:0:0:
120,192,229363,2,0,P|144:136|184:108,1,107.999996704102,8|0,0:0|0:0,0:0:0:0:
256,328,229871,5,0,0:0:0:0:
192,256,229998,1,0,0:0:0:0:
328,256,230125,1,0,0:0:0:0:
256,188,230380,5,0,0:0:0:0:
328,256,230507,1,0,0:0:0:0:
192,256,230634,1,0,1:0:0:0:
80,84,230888,5,4,0:0:0:0:
136,176,231015,2,0,P|148:132|184:100,1,90
228,168,231333,1,0,0:0:0:0:
228,168,231397,5,8,0:0:0:0:
312,124,231524,1,0,0:0:0:0:
360,44,231651,2,0,L|268:44,1,90
312,124,231905,1,2,0:0:0:0:
400,124,232032,1,0,0:0:0:0:
360,204,232159,2,0,L|456:204,1,90,2|0,0:0|0:0,0:0:0:0:
360,204,232414,1,8,0:0:0:0:
216,312,232668,22,0,P|152:314|92:220,1,180,2|2,0:0|0:0,0:0:0:0:
176,232,233049,5,0,0:0:0:0:
216,312,233176,2,0,P|152:314|92:220,1,180,0|10,0:0|0:0,0:0:0:0:
176,232,233557,5,0,0:0:0:0:
188,144,233685,2,0,L|96:144,1,90
196,64,233939,2,0,L|288:64,1,90,2|0,0:0|0:0,0:0:0:0:
360,12,234193,1,0,0:0:0:0:
428,68,234320,1,0,0:0:0:0:
360,124,234447,1,8,0:0:0:0:
360,124,234702,6,2,P|312:112|272:124,1,90,2|2,0:0|0:0,0:0:0:0:
316,204,234956,2,0,B|392:232|440:168,1,135,2|0,0:0|0:0,0:0:0:0:
408,256,235274,1,0,0:0:0:0:
352,328,235401,1,0,0:0:0:0:
352,328,235464,1,8,0:0:0:0:
352,328,235528,5,2,0:0:0:0:
232,344,235655,1,0,0:0:0:0:
132,292,235782,1,0,0:0:0:0:
208,244,235909,1,0,0:0:0:0:
208,244,235973,2,0,L|208:152,1,90,2|0,0:0|0:0,0:0:0:0:
268,88,236227,1,0,0:0:0:0:
128,160,236354,1,0,0:0:0:0:
128,160,236418,1,0,0:0:0:0:
128,159,236481,1,8,0:0:0:0:
208,153,236608,5,0,0:0:0:0:
268,88,236735,2,0,P|336:64|356:64,1,90,2|0,0:0|0:0,0:0:0:0:
128,160,236990,2,0,P|160:80|244:80,1,180,2|0,0:0|0:0,0:0:0:0:
208,152,237371,5,0,0:0:0:0:
296,160,237498,2,0,B|332:128|332:128|344:80,2,90,8|0|0,0:0|0:0|0:0,0:0:0:0:
236,228,237880,5,0,0:0:0:0:
296,296,238007,1,8,3:0:0:0:
352,224,238134,1,0,0:0:0:0:
404,296,238261,1,0,0:0:0:0:
460,224,238388,1,8,3:0:0:0:
352,224,238515,1,8,0:0:0:0:
344,232,238579,1,0,0:0:0:0:
337,238,238642,1,0,0:0:0:0:
330,244,238706,1,0,0:0:0:0:
325,247,238769,1,2,0:0:0:0:
92,280,239024,6,0,P|200:316|272:280,1,198.000006042481,4|0,0:0|0:0,0:0:0:0:
276,184,239405,1,0,0:0:0:0:
328,268,239532,2,0,P|360:308|408:328,1,99.0000030212403,8|0,0:0|0:0,0:0:0:0:
416,228,239786,2,0,P|384:188|336:168,1,99.0000030212403,0|0,0:0|0:0,0:0:0:0:
348,68,240041,6,0,L|440:28,1,99.0000030212403,2|0,0:0|0:0,0:0:0:0:
348,68,240295,2,0,L|256:28,1,99.0000030212403,0|0,0:0|0:0,0:0:0:0:
164,68,240549,2,0,L|256:28,1,99.0000030212403,8|0,0:0|0:0,0:0:0:0:
164,68,240803,2,0,L|72:28,1,99.0000030212403,2|0,0:0|0:0,0:0:0:0:
88,128,241058,5,2,0:0:0:0:
88,128,241185,1,0,0:0:0:0:
168,188,241312,2,0,P|128:224|80:228,1,99.0000030212403
128,320,241566,2,0,L|236:320,1,99.0000030212403,8|0,0:0|0:0,0:0:0:0:
384,268,241820,2,0,L|284:268,1,99.0000030212403,0|0,0:0|0:0,0:0:0:0:
132,192,242075,5,2,0:0:0:0:
196,164,242202,1,0,0:0:0:0:
256,196,242329,1,0,0:0:0:0:
320,164,242456,1,0,0:0:0:0:
380,192,242583,1,8,0:0:0:0:
68,164,242837,5,2,0:0:0:0:
432,232,243091,5,2,0:0:0:0:
376,264,243219,1,0,0:0:0:0:
316,236,243346,1,0,0:0:0:0:
252,268,243473,1,0,0:0:0:0:
192,236,243600,1,8,0:0:0:0:
128,264,243727,1,0,0:0:0:0:
64,240,243854,1,0,0:0:0:0:
212,96,244108,5,2,0:0:0:0:
348,156,244236,1,0,0:0:0:0:
172,156,244363,1,0,0:0:0:0:
172,156,244426,1,0,0:0:0:0:
304,96,244617,1,8,0:0:0:0:
132,192,244871,5,2,0:0:0:0:
380,192,245125,1,2,0:0:0:0:
256,192,245634,5,8,0:0:0:0:
208,244,245761,1,0,0:0:0:0:
256,296,245888,1,0,0:0:0:0:
308,244,246015,1,0,0:0:0:0:
256,296,246142,5,0,0:0:0:0:
212,352,246269,1,0,0:0:0:0:
164,300,246396,1,0,0:0:0:0:
164,300,246460,1,0,0:0:0:0:
164,300,246524,1,0,0:0:0:0:
164,300,246587,1,0,0:0:0:0:
164,300,246651,5,8,0:0:0:0:
256,124,246905,1,0,0:0:0:0:
344,300,247159,1,4,0:0:0:0:
