osu file format v10

[General]
AudioFilename: .mp3
AudioLeadIn: 1015
PreviewTime: 138869
Countdown: 0
SampleSet: Soft
StackLeniency: 0.7
Mode: 0
LetterboxInBreaks: 0

[Editor]
Bookmarks: 58022,180056,247174
DistanceSpacing: 1.4
BeatDivisor: 4
GridSize: 4

[Metadata]
Title:Kurikaeshi Hitotsubu
TitleUnicode:Kurikaeshi Hitotsubu
Artist:Yueporu feat. Hatsune Miku
ArtistUnicode:Yueporu feat. Hatsune Miku
Creator:Zweib
Version:Neko.I
Source:NicoNico
Tags:Vocaloid OrangeNeko
BeatmapID:192713
BeatmapSetID:56411

[Difficulty]
HPDrainRate:6
CircleSize:4
OverallDifficulty:7
ApproachRate:8
SliderMultiplier:1.8
SliderTickRate:2

[Events]
//Background and Video events
0,0,"bg2.jpg"
//Break Periods
2,107020,121833
2,180240,197087
//Storyboard Layer 0 (Background)
//Storyboard Layer 1 (Fail)
//Storyboard Layer 2 (Pass)
//Storyboard Layer 3 (Foreground)
//Storyboard Sound Samples
//Background Colour Transformations
3,100,163,162,255

[TimingPoints]
1058,508.474576271186,4,2,1,5,1,0
4108,-100,4,2,1,10,0,0
5125,-100,4,2,1,20,0,0
6142,-100,4,2,1,30,0,0
7159,-100,4,2,1,40,0,0
8176,-100,4,2,1,60,0,0
9193,-100,4,2,1,60,0,0
17329,-90.9090909090909,4,2,1,65,0,0
24956,-90.9090909090909,4,2,0,65,0,0
25210,-90.9090909090909,4,2,1,65,0,0
25464,-125,4,2,1,50,0,0
40973,-125,4,2,1,30,0,0
41481,-125,4,2,1,50,0,0
41735,-100,4,2,1,60,0,0
74279,-83.3333333333333,4,2,2,70,0,1
90550,-100,4,2,1,60,0,0
98685,-90.9090909090909,4,2,1,65,0,0
106820,-100,4,2,3,50,0,0
123091,-100,4,2,1,60,0,0
139363,-83.3333333333333,4,2,2,70,0,1
155635,-100,4,2,1,60,0,0
178007,-166.666666666667,4,2,1,50,0,0
198346,-83.3333333333333,4,2,2,70,0,1
214618,-100,4,2,1,60,0,0
222752,-90.9090909090909,4,2,1,65,0,0
230888,-100,4,2,1,60,0,0
239024,-90.9090909090909,4,2,1,65,0,0

[Colours]
Combo1 : 192,192,192
Combo2 : 255,128,128
Combo3 : 0,255,255
Combo4 : 255,255,128

[HitObjects]
256,192,2329,12,4,8176,1:0:0
416,84,8939,5,0,1:0:0
416,84,9193,1,4,0:0:0
312,172,9447,1,0,0:0:0
272,224,9574,1,0,0:0:0
264,292,9702,1,8,0:0:0
164,200,9956,5,0,0:0:0
164,200,10083,1,0,0:0:0
144,136,10210,1,2,0:0:0
92,92,10337,1,0,0:0:0
28,76,10464,1,0,0:0:0
28,76,10719,1,8,0:0:0
76,204,10973,5,2,0:0:0
176,296,11227,1,2,0:0:0
240,312,11354,1,0,0:0:0
352,236,11608,1,0,0:0:0
420,224,11735,1,8,0:0:0
364,100,11990,1,0,0:0:0
304,68,12117,1,0,0:0:0
236,64,12244,1,2,0:0:0
168,72,12371,1,0,0:0:0
108,104,12498,1,0,0:0:0
72,160,12625,1,0,0:0:0
64,228,12752,1,8,0:0:0
196,204,13007,5,2,0:0:0
196,204,13134,1,0,0:0:0
228,264,13261,1,2,0:0:0
288,292,13388,1,0,0:0:0
356,300,13515,1,0,0:0:0
420,284,13642,1,0,0:0:0
464,232,13769,1,8,0:0:0
472,164,13896,1,0,0:0:0
444,104,14024,1,0,0:0:0
380,80,14151,1,0,0:0:0
320,108,14278,1,2,0:0:0
316,176,14405,1,0,0:0:0
380,196,14532,1,0,0:0:0
440,164,14659,1,0,0:0:0
380,136,14786,1,8,0:0:0
256,192,15041,5,2,0:0:0
132,136,15295,1,2,0:0:0
256,84,15549,1,0,0:0:0
264,152,15676,1,0,0:0:0
244,216,15803,1,8,0:0:0
184,248,15930,1,0,0:0:0
116,252,16057,1,0,0:0:0
52,236,16185,1,0,0:0:0
16,180,16312,1,8,3:0:0
100,72,16566,1,0,0:0:0
100,140,16693,1,8,3:0:0
100,208,16820,1,8,0:0:0
172,320,17074,5,2,0:0:0
172,320,17329,1,4,0:0:0
236,196,17583,1,0,0:0:0
236,196,17710,1,0,0:0:0
280,144,17837,1,8,0:0:0
344,120,17964,1,0,0:0:0
324,188,18091,1,0,0:0:0
336,256,18219,1,0,0:0:0
396,292,18346,5,2,0:0:0
396,292,18473,1,0,0:0:0
396,292,18600,1,0,0:0:0
396,292,18727,1,0,0:0:0
464,292,18854,5,8,0:0:0
500,232,18981,1,0,0:0:0
432,232,19108,5,2,0:0:0
412,164,19235,1,0,0:0:0
444,104,19363,5,2,0:0:0
444,104,19490,1,0,0:0:0
444,104,19617,1,0,0:0:0
444,104,19744,1,0,0:0:0
512,104,19871,5,8,0:0:0
512,104,19998,1,0,0:0:0
480,164,20125,1,0,0:0:0
480,164,20252,1,0,0:0:0
412,164,20380,5,2,0:0:0
348,192,20507,1,0,0:0:0
288,160,20634,1,0,0:0:0
224,192,20761,1,0,0:0:0
164,160,20888,1,8,0:0:0
52,76,21142,5,2,0:0:0
52,76,21396,1,2,0:0:0
112,40,21524,1,0,0:0:0
180,32,21651,1,0,0:0:0
248,44,21778,1,0,0:0:0
300,88,21905,1,8,0:0:0
300,88,22032,1,0,0:0:0
300,88,22159,1,0,0:0:0
316,228,22413,1,2,0:0:0
360,176,22541,1,0,0:0:0
428,164,22668,1,0,0:0:0
428,164,22922,1,8,0:0:0
392,296,23176,5,2,0:0:0
256,328,23430,1,2,0:0:0
256,328,23557,1,0,0:0:0
256,56,23939,1,8,0:0:0
256,56,24066,1,0,0:0:0
412,192,24447,1,0,0:0:0
272,192,24702,1,2,0:0:0
100,192,24956,1,8,0:0:0
240,192,25210,1,2,0:0:0
256,192,25464,1,4,0:0:0
308,88,25719,5,8,0:0:0
432,56,25973,1,0,0:0:0
396,180,26227,1,0,0:0:0
396,180,26735,1,0,0:0:0
308,272,26990,1,0,0:0:0
196,208,27244,2,0,P|140:192|96:200,1,72,0|2,0:0|0:0,0:0:0
208,92,27752,5,8,0:0:0
336,64,28007,1,0,0:0:0
316,192,28261,2,0,P|368:172,1,36
232,336,28769,1,2,0:0:0
108,304,29024,1,8,0:0:0
192,204,29278,2,0,P|172:184|152:172|108:176,1,72,0|4,0:0|0:0,0:0:0
200,68,29786,5,8,0:0:0
328,56,30041,1,0,0:0:0
276,172,30295,1,0,0:0:0
276,172,30803,1,0,0:0:0
256,44,31057,1,0,0:0:0
376,96,31312,2,0,P|408:140|416:176,1,72,0|2,0:0|0:0,0:0:0
308,228,31820,5,8,0:0:0
424,288,32074,1,0,0:0:0
304,336,32329,1,0,0:0:0
304,336,32456,1,0,0:0:0
140,228,32837,1,2,0:0:0
32,152,33091,1,8,0:0:0
136,72,33346,2,0,P|172:60|208:64,1,72,0|4,0:0|0:0,0:0:0
336,52,33854,5,8,0:0:0
256,156,34108,1,0,0:0:0
268,284,34363,1,0,0:0:0
268,284,34871,1,0,0:0:0
220,164,35125,1,0,0:0:0
100,116,35380,2,0,P|64:104|8:104,1,72,0|2,0:0|0:0,0:0:0
84,220,35888,5,8,0:0:0
164,320,36142,1,0,0:0:0
292,332,36396,2,0,P|352:332,1,36
428,164,36905,1,2,0:0:0
304,196,37159,1,8,0:0:0
304,196,37413,2,0,P|272:224|256:260,1,72,0|4,0:0|0:0,0:0:0
160,332,37922,5,8,0:0:0
148,204,38176,1,0,0:0:0
56,112,38430,1,0,0:0:0
56,112,38939,1,0,0:0:0
168,44,39193,1,0,0:0:0
296,44,39447,1,0,0:0:0
232,156,39702,5,2,0:0:0
232,156,39956,1,8,0:0:0
196,32,40210,1,0,0:0:0
196,32,40337,1,0,0:0:0
320,68,40591,1,0,0:0:0
320,68,40719,1,8,0:0:0
400,172,40973,1,8,0:0:0
112,212,41227,1,8,0:0:0
256,72,41481,1,2,0:0:0
256,320,41735,1,4,0:0:0
184,204,41990,6,0,P|196:148|232:112,1,90,0|8,0:0|0:0,0:0:0
324,204,42498,1,0,0:0:0
256,320,42752,5,2,0:0:0
256,320,43007,1,0,0:0:0
120,312,43261,1,8,0:0:0
36,208,43515,2,2,P|36:160|52:116,1,90
156,52,44024,5,0,0:0:0
276,112,44278,1,8,0:0:0
152,160,44532,1,0,0:0:0
152,160,44659,1,0,0:0:0
152,160,44786,1,2,0:0:0
272,220,45041,1,0,0:0:0
152,280,45295,1,8,0:0:0
272,344,45549,2,2,P|320:360|392:340,1,90
424,240,46058,5,0,0:0:0
376,112,46312,1,8,0:0:0
424,240,46566,2,0,P|376:252|316:216,1,90,0|2,0:0|0:0,0:0:0
376,112,47074,5,0,0:0:0
340,240,47329,1,8,0:0:0
380,112,47583,2,2,P|332:100|276:120,1,90
168,64,48091,5,0,0:0:0
56,140,48346,1,8,0:0:0
168,212,48600,1,0,0:0:0
208,264,48727,1,0,0:0:0
208,332,48854,1,8,3:0:0
308,240,49108,1,0,0:0:0
348,188,49235,1,8,3:0:0
412,168,49363,1,8,0:0:0
404,304,49617,1,2,0:0:0
404,304,49871,1,4,0:0:0
268,312,50125,6,0,P|192:300|168:280,1,90,0|8,0:0|0:0,0:0:0
56,336,50634,1,0,0:0:0
76,204,50888,5,2,0:0:0
76,204,51142,1,0,0:0:0
184,120,51396,1,8,0:0:0
320,116,51651,2,2,P|384:120|432:152,1,90
332,244,52159,5,0,0:0:0
212,304,52413,1,8,0:0:0
84,256,52668,1,0,0:0:0
84,256,52795,1,0,0:0:0
84,256,52922,1,2,0:0:0
204,196,53176,1,0,0:0:0
332,244,53430,2,0,P|360:292|360:352,1,90,8|2,0:0|0:0,0:0:0
400,196,53939,5,2,0:0:0
400,196,54193,1,0,0:0:0
328,84,54447,1,8,0:0:0
196,60,54702,2,0,P|144:52|72:64,1,90,0|2,0:0|0:0,0:0:0
52,176,55210,5,0,0:0:0
52,176,55464,1,8,0:0:0
52,176,55719,1,2,0:0:0
140,276,55973,1,2,0:0:0
372,108,56227,1,8,0:0:0
236,112,56481,1,8,0:0:0
172,136,56608,1,0,0:0:0
276,268,56863,1,2,0:0:0
336,240,56990,1,2,0:0:0
236,112,57244,5,10,3:0:0
172,136,57371,1,8,3:0:0
112,160,57498,1,8,3:0:0
112,296,57752,1,2,0:0:0
112,296,58007,1,4,0:0:0
228,348,58261,5,0,0:0:0
304,248,58515,1,8,0:0:0
352,208,58642,1,0,0:0:0
412,196,58769,1,0,0:0:0
384,320,59024,1,2,0:0:0
312,216,59278,1,0,0:0:0
352,96,59532,1,8,0:0:0
452,172,59786,2,2,P|388:192|328:172,1,90
260,120,60295,5,0,0:0:0
204,88,60422,1,0,0:0:0
140,80,60549,1,8,0:0:0
80,92,60676,1,0,0:0:0
32,136,60803,1,0,0:0:0
120,224,61058,2,0,P|136:268|132:332,1,90,2|0,0:0|0:0,0:0:0
256,268,61566,1,8,0:0:0
356,192,61820,2,2,P|340:148|344:84,1,90,2|0,0:0|0:0,0:0:0
460,144,62329,5,0,0:0:0
456,208,62456,1,0,0:0:0
436,268,62583,1,8,0:0:0
384,304,62710,1,0,0:0:0
320,316,62837,1,0,0:0:0
320,316,62964,1,0,0:0:0
256,316,63091,1,2,0:0:0
172,224,63346,1,0,0:0:0
216,108,63600,2,0,P|252:72|300:56,1,90,8|2,0:0|0:0,0:0:0
400,116,64108,2,0,P|364:152|316:168,1,90,2|0,0:0|0:0,0:0:0
204,148,64617,1,8,0:0:0
144,136,64744,1,0,0:0:0
140,260,64998,1,0,0:0:0
80,276,65125,1,8,3:0:0
192,336,65380,5,0,0:0:0
252,348,65507,1,8,3:0:0
316,340,65634,1,8,0:0:0
420,268,65888,2,0,P|344:260|300:284,1,90,2|4,0:0|0:0,0:0:0
224,196,66396,5,0,0:0:0
224,132,66524,1,0,0:0:0
252,76,66651,1,8,0:0:0
308,48,66778,1,0,0:0:0
372,48,66905,1,0,0:0:0
428,80,67032,1,0,0:0:0
428,144,67159,1,2,0:0:0
312,188,67413,1,0,0:0:0
196,136,67668,1,8,0:0:0
84,192,67922,2,2,P|72:240|80:292,1,90
200,272,68430,5,0,0:0:0
264,276,68558,1,0,0:0:0
324,300,68685,1,8,0:0:0
324,300,68812,1,0,0:0:0
368,344,68939,1,0,0:0:0
368,344,69066,1,0,0:0:0
384,284,69193,1,2,0:0:0
448,176,69447,1,0,0:0:0
376,72,69702,1,8,0:0:0
308,180,69956,1,2,0:0:0
308,180,70210,1,2,0:0:0
196,124,70464,5,0,0:0:0
68,124,70719,1,8,0:0:0
8,140,70846,1,0,0:0:0
80,240,71100,1,0,0:0:0
44,292,71227,1,2,0:0:0
168,312,71481,1,0,0:0:0
156,372,71608,1,0,0:0:0
216,348,71735,1,8,0:0:0
216,348,71990,1,2,0:0:0
152,240,72244,5,2,0:0:0
168,144,72498,1,8,3:0:0
256,56,72752,1,8,0:0:0
416,44,73007,1,0,3:0:0
440,104,73134,1,0,3:0:0
376,100,73261,1,2,0:0:0
256,56,73515,1,8,0:0:0
376,100,73769,5,0,3:0:0
440,104,73896,1,0,3:0:0
416,44,74024,1,2,0:0:0
256,56,74278,2,0,P|208:64|160:92,1,90,4|0,0:0|0:0,0:0:0
92,224,74786,2,0,P|140:216|204:180,1,107.999996704102,8|0,0:0|0:0,0:0:0
340,120,75295,1,2,0:0:0
204,208,75549,1,0,0:0:0
180,264,75676,1,0,0:0:0
236,260,75803,1,8,0:0:0
384,192,76058,1,2,0:0:0
236,260,76312,5,2,0:0:0
384,192,76566,1,0,0:0:0
428,144,76693,1,0,0:0:0
428,80,76820,1,8,0:0:0
272,128,77074,1,0,0:0:0
136,220,77329,2,0,P|104:280|108:328,1,107.999996704102,2|0,0:0|0:0,0:0:0
264,304,77837,5,8,0:0:0
400,212,78091,1,2,0:0:0
264,124,78346,2,0,P|216:108|156:104,1,107.999996704102,4|0,0:0|0:0,0:0:0
248,260,78854,2,0,P|296:276|356:280,1,107.999996704102,8|0,0:0|0:0,0:0:0
280,136,79363,1,2,0:0:0
144,192,79617,1,0,0:0:0
116,252,79744,1,0,0:0:0
136,320,79871,1,8,0:0:0
296,292,80125,5,2,0:0:0
340,136,80380,1,2,0:0:0
208,40,80634,1,0,0:0:0
144,32,80761,1,0,0:0:0
88,56,80888,1,8,0:0:0
160,204,81142,1,0,0:0:0
296,292,81396,1,8,3:0:0
404,172,81651,1,0,3:0:0
384,116,81778,1,0,3:0:0
344,160,81905,5,8,0:0:0
216,260,82159,1,2,0:0:0
92,156,82413,2,0,P|120:76|164:48,1,107.999996704102,4|0,0:0|0:0,0:0:0
420,156,82922,2,0,P|392:76|348:48,1,107.999996704102,8|0,0:0|0:0,0:0:0
236,140,83430,1,2,0:0:0
132,264,83685,1,0,0:0:0
104,316,83812,1,0,0:0:0
104,376,83939,1,8,0:0:0
104,376,84193,1,2,0:0:0
68,220,84447,5,2,0:0:0
160,88,84702,1,0,0:0:0
204,48,84829,1,0,0:0:0
264,36,84956,1,8,0:0:0
400,124,85210,1,0,0:0:0
296,248,85464,2,0,P|264:284|192:292,1,107.999996704102,2|0,0:0|0:0,0:0:0
80,196,85973,5,8,0:0:0
232,140,86227,1,2,0:0:0
80,196,86481,2,0,P|132:160|192:164,1,107.999996704102,4|0,0:0|0:0,0:0:0
296,52,86990,2,0,P|364:56|408:124,1,107.999996704102,8|0,0:0|0:0,0:0:0
316,224,87498,1,2,0:0:0
160,288,87752,1,0,0:0:0
96,280,87880,1,0,0:0:0
136,228,88007,1,8,0:0:0
256,120,88261,5,2,0:0:0
416,140,88515,1,2,0:0:0
320,272,88769,1,0,0:0:0
320,272,88896,1,0,0:0:0
320,272,89024,1,8,0:0:0
416,140,89278,1,0,0:0:0
256,120,89532,5,8,3:0:0
192,132,89659,1,8,3:0:0
148,180,89786,1,8,3:0:0
140,244,89913,1,8,3:0:0
164,304,90041,5,8,0:0:0
224,332,90168,1,0,3:0:0
288,316,90295,1,0,3:0:0
348,288,90422,1,0,3:0:0
412,292,90549,5,4,0:0:0
416,156,90803,1,0,0:0:0
348,160,90930,1,0,0:0:0
284,132,91058,1,8,0:0:0
168,60,91312,5,0,0:0:0
168,60,91439,1,0,0:0:0
200,120,91566,1,2,0:0:0
196,188,91693,1,0,0:0:0
160,244,91820,1,0,0:0:0
160,244,92074,1,8,0:0:0
68,148,92329,5,2,0:0:0
168,60,92583,1,2,0:0:0
232,36,92710,1,0,0:0:0
300,48,92837,1,0,0:0:0
272,180,93091,1,8,0:0:0
272,180,93219,1,0,0:0:0
228,228,93346,1,0,0:0:0
224,296,93473,1,0,0:0:0
252,356,93600,1,2,0:0:0
316,380,93727,1,0,0:0:0
384,368,93854,1,0,0:0:0
384,368,94108,1,8,0:0:0
304,260,94363,5,2,0:0:0
304,260,94490,1,0,0:0:0
236,248,94617,1,2,0:0:0
236,248,94744,1,0,0:0:0
168,260,94871,1,0,0:0:0
168,260,94998,1,0,0:0:0
112,300,95125,5,8,0:0:0
52,268,95252,1,0,0:0:0
40,200,95380,1,0,0:0:0
56,136,95507,1,0,0:0:0
116,100,95634,1,2,0:0:0
244,60,95888,1,0,0:0:0
252,128,96015,1,0,0:0:0
200,168,96142,1,8,0:0:0
136,152,96269,5,0,0:0:0
136,152,96396,1,2,0:0:0
136,152,96524,1,0,0:0:0
116,88,96651,1,2,0:0:0
152,32,96778,1,0,0:0:0
220,24,96905,1,0,0:0:0
284,44,97032,1,0,0:0:0
296,112,97159,1,8,0:0:0
212,216,97413,1,0,0:0:0
224,284,97541,1,0,0:0:0
280,320,97668,1,8,3:0:0
280,320,97795,1,0,0:0:0
348,320,97922,1,0,0:0:0
348,320,98049,1,8,3:0:0
408,288,98176,1,8,0:0:0
340,172,98430,5,2,0:0:0
340,172,98685,1,4,0:0:0
316,100,98812,1,0,0:0:0
252,64,98939,1,0,0:0:0
180,56,99066,1,0,0:0:0
108,80,99193,1,8,0:0:0
64,140,99320,1,0,0:0:0
64,216,99447,1,0,0:0:0
92,284,99574,1,0,0:0:0
164,308,99702,5,2,0:0:0
164,308,99829,1,0,0:0:0
164,308,99956,1,0,0:0:0
164,308,100083,1,0,0:0:0
240,308,100210,1,8,0:0:0
240,308,100337,1,0,0:0:0
300,264,100464,1,2,0:0:0
300,264,100591,1,0,0:0:0
312,188,100719,5,2,0:0:0
356,128,100846,1,0,0:0:0
432,124,100973,1,0,0:0:0
480,180,101100,1,0,0:0:0
448,248,101227,5,8,0:0:0
376,256,101354,1,0,0:0:0
308,224,101481,1,0,0:0:0
240,192,101608,1,0,0:0:0
164,192,101735,5,2,0:0:0
164,192,101863,1,0,0:0:0
164,192,101990,1,0,0:0:0
356,192,102244,1,8,0:0:0
256,80,102498,5,2,0:0:0
288,224,102752,1,2,0:0:0
280,300,102880,1,0,0:0:0
216,340,103007,1,0,0:0:0
140,340,103134,1,0,0:0:0
84,292,103261,1,8,0:0:0
84,292,103388,1,0,0:0:0
84,292,103515,1,0,0:0:0
144,156,103769,1,2,0:0:0
160,228,103896,1,0,0:0:0
152,300,104024,1,0,0:0:0
256,56,104278,1,8,0:0:0
256,328,104532,5,2,0:0:0
356,216,104786,1,2,0:0:0
396,152,104913,1,0,0:0:0
156,216,105295,1,8,0:0:0
116,152,105422,1,0,0:0:0
348,76,105803,5,0,0:0:0
256,192,106058,1,2,0:0:0
228,256,106185,1,0,0:0:0
220,324,106312,1,8,0:0:0
140,212,106566,1,2,0:0:0
136,88,106820,1,4,0:0:0
108,312,122583,5,10,0:0:0
108,312,122710,1,8,0:0:0
172,120,123091,1,4,0:0:0
296,64,123346,5,0,0:0:0
316,124,123473,1,0,0:0:0
304,184,123600,1,8,0:0:0
260,228,123727,1,0,0:0:0
200,244,123854,1,0,0:0:0
136,236,123981,1,0,0:0:0
84,200,124108,1,2,0:0:0
180,120,124363,1,0,0:0:0
304,144,124617,1,8,0:0:0
408,216,124871,2,2,P|432:252|436:308,1,90
312,276,125380,5,0,0:0:0
192,236,125634,1,8,0:0:0
132,212,125761,1,0,0:0:0
72,236,125888,1,0,0:0:0
56,296,126015,1,0,0:0:0
84,352,126142,2,0,P|112:372|184:344,1,90,2|0,0:0|0:0,0:0:0
256,280,126651,1,8,0:0:0
168,188,126905,2,2,P|136:176|64:208,1,90,2|0,0:0|0:0,0:0:0
172,96,127413,5,0,0:0:0
292,60,127668,1,8,0:0:0
356,60,127795,1,0,0:0:0
408,96,127922,1,0,0:0:0
420,160,128049,1,0,0:0:0
392,216,128176,1,2,0:0:0
280,272,128430,1,0,0:0:0
388,336,128685,2,0,P|348:368|292:364,1,90,8|2,0:0|0:0,0:0:0
204,304,129193,2,0,P|153:296|114:263,1,90,2|0,0:0|0:0,0:0:0
208,180,129702,1,8,0:0:0
244,128,129829,1,0,0:0:0
360,180,130083,1,0,0:0:0
416,152,130210,1,8,3:0:0
408,276,130464,5,0,0:0:0
292,320,130719,1,8,0:0:0
172,280,130973,2,0,P|120:268|52:300,1,90,2|4,0:0|0:0,0:0:0
140,164,131481,5,0,0:0:0
168,108,131608,1,0,0:0:0
216,68,131735,1,8,0:0:0
276,44,131863,1,0,0:0:0
340,40,131990,1,0,0:0:0
296,84,132117,1,0,0:0:0
276,144,132244,1,2,0:0:0
284,268,132498,1,0,0:0:0
388,200,132752,1,8,0:0:0
276,144,133007,2,2,P|232:136|168:168,1,90
104,240,133515,5,0,0:0:0
144,360,133769,1,8,0:0:0
192,244,134024,1,0,0:0:0
92,320,134278,2,0,P|204:356,1,90,2|0,0:0|0:0,0:0:0
420,320,134786,2,0,P|308:356,1,90,8|2,0:0|0:0,0:0:0
256,248,135295,5,2,0:0:0
256,248,135549,1,0,0:0:0
212,128,135803,1,8,0:0:0
308,44,136058,1,0,0:0:0
348,92,136185,1,0,0:0:0
340,156,136312,1,2,0:0:0
256,248,136566,1,0,0:0:0
220,196,136693,1,0,0:0:0
232,136,136820,1,8,0:0:0
232,136,137074,1,2,0:0:0
348,184,137329,5,2,0:0:0
308,304,137583,1,8,3:0:0
184,316,137837,1,8,0:0:0
64,284,138091,1,0,3:0:0
53,218,138219,1,0,3:0:0
113,242,138346,1,2,0:0:0
40,140,138600,1,8,0:0:0
112,244,138854,5,0,3:0:0
172,268,138981,1,0,3:0:0
168,204,139108,1,2,0:0:0
120,88,139363,2,0,P|168:95|222:83,1,90,4|0,0:0|0:0,0:0:0
376,128,139871,2,0,P|327:120|255:135,1,107.999996704102,8|0,0:0|0:0,0:0:0
144,232,140380,1,2,0:0:0
272,332,140634,1,0,0:0:0
316,292,140761,1,0,0:0:0
260,272,140888,1,8,0:0:0
108,220,141142,1,2,0:0:0
256,152,141396,5,2,0:0:0
108,220,141651,1,0,0:0:0
84,280,141778,1,0,0:0:0
84,344,141905,1,8,0:0:0
232,276,142159,1,0,0:0:0
378,202,142413,2,0,P|427:155|438:108,1,107.999996704102,2|0,0:0|0:0,0:0:0
283,83,142922,5,8,0:0:0
125,128,143176,1,2,0:0:0
227,254,143430,2,0,P|268:284|323:306,1,107.999996704102,4|0,0:0|0:0,0:0:0
284,129,143939,2,0,P|243:99|188:77,1,107.999996704102,8|0,0:0|0:0,0:0:0
215,237,144447,1,2,0:0:0
362,226,144702,1,0,0:0:0
407,178,144829,1,0,0:0:0
409,107,144956,1,8,0:0:0
248,84,145210,5,2,0:0:0
158,219,145464,1,2,0:0:0
254,351,145719,1,0,0:0:0
313,378,145846,1,0,0:0:0
373,373,145973,1,8,0:0:0
351,210,146227,1,0,0:0:0
248,84,146481,1,8,3:0:0
109,165,146735,1,0,3:0:0
110,224,146863,1,0,3:0:0
162,195,146990,5,8,0:0:0
315,139,147244,1,2,0:0:0
400,276,147498,2,0,P|349:344|298:357,1,107.999996704102,4|0,0:0|0:0,0:0:0
111,276,148007,2,0,P|162:344|213:357,1,107.999996704102,8|0,0:0|0:0,0:0:0
256,208,148515,1,2,0:0:0
376,100,148769,1,0,0:0:0
432,84,148896,1,0,0:0:0
420,144,149024,1,8,0:0:0
420,144,149278,1,2,0:0:0
360,296,149532,5,2,0:0:0
200,316,149786,1,0,0:0:0
132,304,149913,1,0,0:0:0
176,252,150041,1,8,0:0:0
176,252,150295,1,0,0:0:0
132,96,150549,2,0,P|180:80|244:104,1,107.999996704102,2|0,0:0|0:0,0:0:0
372,180,151058,5,8,0:0:0
432,332,151312,1,2,0:0:0
372,180,151566,1,4,0:0:0
300,324,151820,1,0,0:0:0
372,180,152074,1,8,0:0:0
216,220,152329,1,0,0:0:0
372,180,152583,1,2,0:0:0
232,100,152837,1,0,0:0:0
168,92,152964,1,0,0:0:0
108,112,153091,1,8,0:0:0
164,264,153346,5,2,0:0:0
312,324,153600,1,2,0:0:0
292,164,153854,1,0,0:0:0
292,164,153981,1,0,0:0:0
292,164,154108,1,8,0:0:0
164,264,154363,1,0,0:0:0
312,324,154617,5,8,3:0:0
372,296,154744,5,8,3:0:0
396,236,154871,5,8,3:0:0
404,172,154998,5,8,3:0:0
384,108,155125,5,8,0:0:0
332,68,155252,5,0,3:0:0
268,56,155380,5,0,3:0:0
204,60,155507,5,0,3:0:0
152,96,155634,5,4,0:0:0
256,184,155888,5,2,0:0:0
4,92,156396,1,8,0:0:0
76,208,156651,2,0,P|92:248|80:304,1,90,0|8,0:0|0:0,0:0:0
212,244,157159,5,2,0:0:0
260,156,157413,1,0,0:0:0
352,112,157668,5,8,0:0:0
220,84,157922,1,0,0:0:0
144,196,158176,1,2,0:0:0
276,224,158430,1,0,0:0:0
292,252,158685,5,2,0:0:0
112,212,158939,1,2,0:0:0
208,56,159193,2,0,P|264:56|312:68,1,90,0|8,0:0|0:0,0:0:0
392,160,159702,5,0,0:0:0
392,160,160210,1,8,0:0:0
272,200,160464,1,2,0:0:0
200,304,160719,1,2,0:0:0
176,364,160846,1,0,0:0:0
84,280,161100,1,0,0:0:0
48,228,161227,1,8,0:0:0
232,56,161735,5,8,3:0:0
356,80,161990,1,8,0:0:0
400,196,162244,1,2,0:0:0
192,340,162752,1,0,0:0:0
96,256,163007,1,8,0:0:0
108,132,163261,1,8,0:0:0
212,60,163515,1,8,0:0:0
336,68,163769,5,4,0:0:0
264,172,164024,2,0,P|220:164|148:200,1,90,0|8,0:0|0:0,0:0:0
156,300,164532,1,0,0:0:0
280,317,164786,5,2,0:0:0
280,317,165041,1,0,0:0:0
412,283,165295,1,8,0:0:0
316,204,165549,2,2,P|264:196|216:216,1,90
252,84,166057,5,0,0:0:0
368,36,166312,1,8,0:0:0
352,160,166566,1,0,0:0:0
352,160,166693,1,0,0:0:0
352,160,166820,1,2,0:0:0
324,92,167074,1,0,0:0:0
448,80,167329,1,8,0:0:0
416,200,167583,2,2,P|372:228|297:218,1,90
224,172,168091,5,0,0:0:0
172,56,168346,1,8,0:0:0
224,172,168600,2,0,P|174:169|122:216,1,90,0|2,0:0|0:0,0:0:0
196,304,169108,5,0,0:0:0
141,189,169363,1,8,0:0:0
196,304,169617,2,2,P|151:324|92:315,1,90
56,208,170125,5,0,0:0:0
116,96,170380,1,8,0:0:0
240,64,170634,1,0,0:0:0
296,96,170761,1,0,0:0:0
244,128,170888,1,8,3:0:0
160,224,171142,1,0,0:0:0
208,264,171269,1,8,3:0:0
272,260,171396,1,8,0:0:0
380,196,171651,1,2,0:0:0
380,196,171905,1,4,0:0:0
336,80,172159,6,0,P|304:112|304:172,1,90,0|8,0:0|0:0,0:0:0
368,260,172668,1,0,0:0:0
320,300,172795,1,0,0:0:0
256,304,172922,1,2,0:0:0
152,236,173176,1,0,0:0:0
260,168,173430,1,8,0:0:0
152,104,173685,2,2,P|100:120|52:168,1,90
152,236,174193,5,0,0:0:0
256,304,174447,1,8,0:0:0
380,288,174702,1,0,0:0:0
380,288,174829,1,0,0:0:0
380,288,174956,1,2,0:0:0
380,288,175210,1,0,0:0:0
304,188,175464,6,0,P|260:176|220:120,1,90,8|2,0:0|0:0,0:0:0
316,56,175973,1,2,0:0:0
192,40,176227,1,0,0:0:0
104,132,176481,1,8,0:0:0
124,256,176735,1,0,0:0:0
176,292,176863,1,0,0:0:0
240,296,176990,1,2,0:0:0
240,296,177244,1,0,0:0:0
320,200,177498,5,8,0:0:0
288,200,177752,1,2,0:0:0
260,212,178007,2,0,P|200:264|208:328|268:380|304:312|304:312|372:360|400:280|368:204|280:200,1,431.999986816407,4|0,0:0|0:0,0:0:0
84,248,197837,5,0,3:0:0
68,184,197964,1,0,3:0:0
88,124,198091,1,2,0:0:0
240,64,198346,2,0,P|208:104|200:164,1,107.999996704102,4|0,0:0|0:0,0:0:0
312,272,198854,2,0,P|296:224|328:148,1,107.999996704102,8|0,0:0|0:0,0:0:0
440,72,199363,1,2,0:0:0
440,72,199617,1,0,0:0:0
460,132,199744,1,0,0:0:0
444,192,199871,1,8,0:0:0
284,220,200125,1,2,0:0:0
120,224,200380,5,2,0:0:0
284,220,200634,1,0,0:0:0
264,284,200761,1,0,0:0:0
220,240,200888,1,8,0:0:0
236,80,201142,1,0,0:0:0
376,164,201396,2,0,P|431:204|448:249,1,107.999996704102,2|0,0:0|0:0,0:0:0
297,296,201905,5,8,0:0:0
135,273,202159,1,2,0:0:0
219,134,202413,2,0,P|255:98|307:69,1,107.999996704102,4|0,0:0|0:0,0:0:0
292,249,202922,2,0,P|256:285|204:314,1,107.999996704102,8|0,0:0|0:0,0:0:0
209,152,203430,1,2,0:0:0
356,142,203685,1,0,0:0:0
408,184,203812,1,0,0:0:0
419,254,203939,1,8,0:0:0
263,299,204193,5,2,0:0:0
155,178,204447,1,2,0:0:0
264,56,204702,1,0,0:0:0
328,32,204829,1,0,0:0:0
392,40,204956,1,8,0:0:0
356,200,205210,1,0,0:0:0
356,200,205464,1,8,3:0:0
244,320,205719,1,0,3:0:0
184,324,205846,1,0,3:0:0
124,300,205973,5,8,0:0:0
176,148,206227,1,2,0:0:0
332,104,206481,2,0,P|376:84|416:88|416:88|448:120,1,107.999996704102,4|0,0:0|0:0,0:0:0
180,280,206990,2,0,P|136:300|96:296|96:296|64:264,1,107.999996704102,8|0,0:0|0:0,0:0:0
176,148,207498,1,2,0:0:0
336,172,207752,1,0,0:0:0
400,204,207880,1,0,0:0:0
432,268,208007,1,8,0:0:0
432,268,208261,1,2,0:0:0
408,108,208515,5,2,0:0:0
244,96,208769,1,0,0:0:0
184,124,208896,1,0,0:0:0
152,176,209024,1,8,0:0:0
84,324,209278,1,0,0:0:0
84,323,209532,2,0,P|129:342|197:317,1,107.999996704102,2|0,0:0|0:0,0:0:0
324,244,210041,5,8,0:0:0
163,260,210295,1,2,0:0:0
324,244,210549,2,0,P|262:234|210:264,1,107.999996704102,4|0,0:0|0:0,0:0:0
100,144,211057,2,0,P|156:128|216:144,1,107.999996704102,8|0,0:0|0:0,0:0:0
360,100,211566,1,2,0:0:0
260,228,211820,1,0,0:0:0
244,288,211947,1,0,0:0:0
304,276,212074,1,8,0:0:0
228,132,212329,5,2,0:0:0
96,228,212583,1,2,0:0:0
244,288,212837,1,0,0:0:0
244,288,212964,1,0,0:0:0
244,288,213091,1,8,0:0:0
228,132,213346,1,0,0:0:0
96,228,213600,5,8,3:0:0
120,288,213727,1,8,3:0:0
172,324,213854,1,8,3:0:0
236,332,213981,1,8,3:0:0
300,328,214108,5,8,0:0:0
356,296,214235,1,0,3:0:0
388,240,214363,1,0,3:0:0
400,168,214490,1,0,3:0:0
380,108,214617,5,4,0:0:0
256,60,214871,1,0,0:0:0
244,128,214998,1,0,0:0:0
280,184,215125,1,8,0:0:0
148,168,215380,5,0,0:0:0
148,168,215507,1,0,0:0:0
88,196,215634,1,2,0:0:0
56,256,215761,1,0,0:0:0
52,324,215888,1,0,0:0:0
52,324,216142,1,8,0:0:0
176,272,216396,5,2,0:0:0
304,308,216651,1,2,0:0:0
368,328,216778,1,0,0:0:0
360,192,217032,1,0,0:0:0
296,176,217159,1,8,0:0:0
332,44,217413,1,0,0:0:0
264,36,217541,1,0,0:0:0
196,40,217668,1,2,0:0:0
136,72,217795,1,0,0:0:0
104,132,217922,1,0,0:0:0
92,200,218049,1,0,0:0:0
108,264,218176,1,8,0:0:0
216,180,218430,5,2,0:0:0
216,180,218557,1,0,0:0:0
276,208,218685,1,2,0:0:0
276,208,218812,1,0,0:0:0
304,268,218939,1,0,0:0:0
304,268,219066,1,0,0:0:0
308,336,219193,5,8,0:0:0
344,276,219320,1,0,0:0:0
392,228,219447,1,0,0:0:0
452,200,219574,1,0,0:0:0
444,268,219702,1,2,0:0:0
392,228,219829,1,0,0:0:0
376,164,219956,1,0,0:0:0
384,96,220083,1,0,0:0:0
424,40,220210,1,8,0:0:0
312,116,220464,5,2,0:0:0
188,60,220719,1,2,0:0:0
320,44,220973,1,0,0:0:0
312,116,221100,1,0,0:0:0
284,176,221227,1,8,0:0:0
224,208,221354,1,0,0:0:0
156,216,221481,1,0,0:0:0
88,212,221608,1,0,0:0:0
32,176,221735,1,8,3:0:0
128,80,221990,1,0,0:0:0
144,144,222117,1,0,0:0:0
120,208,222244,1,8,0:0:0
68,332,222498,5,2,0:0:0
68,332,222752,1,4,0:0:0
200,292,223007,1,0,0:0:0
212,224,223134,1,0,0:0:0
240,160,223261,1,8,0:0:0
296,116,223388,1,0,0:0:0
364,96,223515,1,0,0:0:0
432,100,223642,1,0,0:0:0
488,144,223769,5,2,0:0:0
488,144,223896,1,0,0:0:0
488,144,224024,1,0,0:0:0
488,144,224151,1,0,0:0:0
500,212,224278,1,8,0:0:0
500,212,224405,1,0,0:0:0
484,280,224532,1,2,0:0:0
484,280,224659,1,0,0:0:0
428,324,224786,5,2,0:0:0
344,216,225041,1,0,0:0:0
312,152,225168,1,0,0:0:0
256,112,225295,1,8,0:0:0
188,108,225422,1,0,0:0:0
120,124,225549,1,0,0:0:0
72,176,225676,1,0,0:0:0
60,244,225803,5,2,0:0:0
60,244,225930,1,0,0:0:0
76,312,226057,1,0,0:0:0
76,312,226185,1,0,0:0:0
76,312,226312,1,8,0:0:0
180,220,226566,5,2,0:0:0
180,220,226820,1,2,0:0:0
208,284,226947,1,0,0:0:0
268,316,227074,1,0,0:0:0
336,324,227202,1,0,0:0:0
404,308,227329,1,8,0:0:0
404,308,227456,1,0,0:0:0
404,308,227583,1,0,0:0:0
368,172,227837,5,2,0:0:0
304,144,227964,1,0,0:0:0
240,112,228091,1,0,0:0:0
180,80,228219,1,0,0:0:0
116,52,228346,1,8,0:0:0
128,192,228600,5,2,0:0:0
240,272,228854,1,2,0:0:0
264,336,228981,1,0,0:0:0
376,112,229363,1,8,0:0:0
388,44,229490,1,0,0:0:0
180,64,229871,5,8,3:0:0
180,64,229998,1,8,3:0:0
180,64,230125,1,8,3:0:0
180,64,230252,1,8,3:0:0
116,92,230380,5,8,0:0:0
84,152,230507,1,0,3:0:0
76,220,230634,1,0,3:0:0
188,280,230888,1,4,0:0:0
216,336,231015,1,0,0:0:0
256,216,231269,1,0,0:0:0
312,244,231396,1,8,0:0:0
308,120,231651,5,0,0:0:0
372,116,231778,1,0,0:0:0
432,132,231905,1,2,0:0:0
468,184,232032,1,0,0:0:0
468,248,232159,1,0,0:0:0
468,248,232413,1,8,0:0:0
344,236,232668,5,2,0:0:0
224,276,232922,1,2,0:0:0
168,304,233049,1,0,0:0:0
140,360,233176,1,0,0:0:0
112,236,233430,5,8,0:0:0
112,236,233557,1,0,0:0:0
112,172,233685,1,0,0:0:0
144,116,233812,1,0,0:0:0
192,76,233939,1,2,0:0:0
252,64,234066,1,0,0:0:0
316,60,234193,1,0,0:0:0
316,60,234447,1,8,0:0:0
256,172,234702,5,2,0:0:0
256,172,234829,1,0,0:0:0
268,232,234956,1,2,0:0:0
268,232,235083,1,0,0:0:0
320,268,235210,1,0,0:0:0
320,268,235337,1,0,0:0:0
384,276,235464,5,8,0:0:0
444,256,235591,1,0,0:0:0
464,196,235719,1,0,0:0:0
432,144,235846,1,0,0:0:0
368,144,235973,1,2,0:0:0
368,144,236227,1,0,0:0:0
256,192,236481,1,8,0:0:0
200,224,236608,1,0,0:0:0
136,224,236735,5,2,0:0:0
136,224,236863,1,0,0:0:0
76,200,236990,1,2,0:0:0
52,140,237117,1,0,0:0:0
64,80,237244,1,0,0:0:0
116,44,237371,1,0,0:0:0
180,40,237498,1,8,0:0:0
236,68,237625,1,0,0:0:0
256,192,237880,5,0,0:0:0
228,248,238007,1,8,3:0:0
228,248,238134,1,0,0:0:0
236,312,238261,1,0,0:0:0
276,360,238388,1,8,3:0:0
300,300,238515,1,8,0:0:0
424,296,238769,5,2,0:0:0
424,296,239024,1,4,0:0:0
436,228,239151,1,0,0:0:0
420,160,239278,1,0,0:0:0
372,108,239405,1,0,0:0:0
304,88,239532,1,8,0:0:0
236,104,239659,1,0,0:0:0
188,152,239786,1,0,0:0:0
184,220,239913,1,0,0:0:0
204,284,240041,5,2,0:0:0
204,284,240168,1,0,0:0:0
204,284,240295,1,0,0:0:0
204,284,240422,1,0,0:0:0
156,232,240549,5,8,0:0:0
92,208,240676,1,0,0:0:0
24,200,240803,1,2,0:0:0
52,264,240930,1,0,0:0:0
92,208,241057,5,2,0:0:0
92,208,241185,1,0,0:0:0
92,208,241312,1,0,0:0:0
92,208,241439,1,0,0:0:0
144,164,241566,5,8,0:0:0
144,164,241693,1,0,0:0:0
208,136,241820,1,0,0:0:0
208,136,241947,1,0,0:0:0
276,128,242074,5,2,0:0:0
344,144,242202,1,0,0:0:0
392,192,242329,1,0,0:0:0
396,260,242456,1,0,0:0:0
368,324,242583,1,8,0:0:0
248,252,242837,5,2,0:0:0
248,252,243091,1,2,0:0:0
184,228,243219,1,0,0:0:0
152,168,243346,1,0,0:0:0
160,100,243473,1,0,0:0:0
208,52,243600,1,8,0:0:0
208,52,243727,1,0,0:0:0
208,52,243854,1,0,0:0:0
328,124,244108,1,2,0:0:0
328,192,244235,1,0,0:0:0
328,260,244363,1,0,0:0:0
328,260,244617,1,8,0:0:0
204,320,244871,5,2,0:0:0
328,260,245125,1,2,0:0:0
392,236,245252,1,0,0:0:0
184,128,245634,1,8,0:0:0
120,148,245761,1,8,3:0:0
92,212,245888,1,8,3:0:0
116,276,246015,1,8,3:0:0
180,300,246142,1,8,3:0:0
240,268,246269,1,8,3:0:0
180,232,246396,5,2,0:0:0
180,232,246524,1,0,0:0:0
180,232,246651,1,8,0:0:0
80,328,246905,1,2,0:0:0
432,56,247159,1,4,0:0:0
