osu file format v14

[General]
AudioFilename: 18. you -2014 Thanksyou Ver.-.mp3
AudioLeadIn: 1000
PreviewTime: 35957
Countdown: 0
SampleSet: Soft
StackLeniency: 0.7
Mode: 0
LetterboxInBreaks: 0
WidescreenStoryboard: 0

[Editor]
DistanceSpacing: 1.2
BeatDivisor: 4
GridSize: 8
TimelineZoom: 1

[Metadata]
Title:you(Vocal-thanks/you - 2014 Sai Mix Ver.)
TitleUnicode:you(Vocal-thanks/you - 2014再ミックスVer.)
Artist:Yuduki
ArtistUnicode:癒月
Creator:CodeS
Version:Easy
Source:ひぐらしのなく頃に奉
Tags:07th Expansion dai M.Graveyard erunamojazz Higurashi no Naku Koro ni Hou Original Sound Version & Arranged Tracks Ano Hi e/you pkhg dear you remix
BeatmapID:654554
BeatmapSetID:280885

[Difficulty]
HPDrainRate:2.2
CircleSize:2.9
OverallDifficulty:2.3
ApproachRate:2.8
SliderMultiplier:0.8
SliderTickRate:2

[Events]
//Background and Video events
0,0,"BG.jpg",0,0
//Break Periods
2,14118,23688
2,112249,134033
//Storyboard Layer 0 (Background)
//Storyboard Layer 1 (Fail)
//Storyboard Layer 2 (Pass)
//Storyboard Layer 3 (Foreground)
//Storyboard Sound Samples

[TimingPoints]
3084,689.655172413793,4,2,1,35,1,0
157566,-100,4,2,1,45,0,1
168428,-100,4,2,1,45,0,0
168601,-100,4,2,1,45,0,1
178946,-100,4,2,1,35,0,0

[Colours]
Combo1 : 255,255,170
Combo2 : 147,236,222
Combo3 : 169,225,132
Combo4 : 192,192,192

[HitObjects]
80,136,3084,6,0,L|168:136,1,80,2|2,0:2|0:0,0:0:0:0:
240,188,4463,1,2,0:0:0:0:
316,248,5152,2,0,P|336:200|320:140,1,80,2|2,0:0|0:0,0:0:0:0:
384,88,6532,2,0,P|344:76|280:88,2,80,2|2|2,0:0|0:0|0:0,0:0:0:0:
432,172,8601,6,0,P|432:244|352:236,1,160,2|2,0:2|0:0,0:0:0:0:
295,171,10670,2,0,P|257:164|225:186,1,80,2|2,0:0|0:2,0:0:0:0:
192,276,12049,2,0,P|136:224|144:136,1,160,2|2,0:0|0:2,0:0:0:0:
108,124,25152,6,0,L|188:124,1,80,2|2,0:1|0:1,0:0:0:0:
236,208,26532,2,0,L|156:208,1,80,2|2,0:1|0:1,0:0:0:0:
60,212,27911,2,0,P|68:256|104:292,1,80,2|2,0:1|0:1,0:0:0:0:
184,304,29290,2,0,L|264:304,1,80,2|2,0:1|0:1,0:0:0:0:
360,315,30670,6,0,P|356:276|338:240,1,80,2|2,0:1|0:1,0:0:0:0:
268,171,32049,2,0,P|300:149|339:140,1,80,2|2,0:1|0:1,0:0:0:0:
435,131,33428,2,0,P|424:93|399:63,1,80,2|2,0:1|0:1,0:0:0:0:
304,64,34808,2,0,L|224:64,1,80,2|2,0:1|0:1,0:0:0:0:
132,32,36187,6,0,P|132:108|196:160,1,160,6|0,0:2|0:0,0:0:0:0:
288,168,38256,1,10,0:3:0:0:
220,236,38946,2,0,P|168:240|144:224,1,80,0|10,0:0|0:3,0:0:0:0:
84,152,40325,1,0,0:0:0:0:
12,216,41015,1,10,0:3:0:0:
56,300,41704,6,0,B|124:300|124:300|168:324|212:298,1,160,4|0,0:2|0:0,0:0:0:0:
308,296,43773,2,0,P|296:256|264:216,1,80,10|0,0:3|0:0,0:0:0:0:
184,196,45152,2,0,P|236:144|328:152,1,160,10|10,0:3|0:3,0:0:0:0:
356,236,47221,6,0,P|304:288|212:280,1,160,4|0,0:2|0:0,0:0:0:0:
148,224,49290,1,10,0:3:0:0:
60,188,49980,2,0,P|88:148|144:132,1,80,0|10,0:0|0:3,0:0:0:0:
208,152,51359,2,0,P|241:132|261:98,1,80,0|10,0:0|0:3,0:0:0:0:
336,36,52739,6,0,P|348:136|308:184,1,160,4|0,0:2|0:0,0:0:0:0:
248,248,54808,1,10,0:3:0:0:
156,228,55497,2,0,P|172:192|212:160,1,80,0|10,0:0|0:3,0:0:0:0:
292,132,56877,1,0,0:0:0:0:
112,76,58256,6,0,B|88:152|88:152|136:168|144:224,1,160,4|4,0:2|0:2,0:0:0:0:
208,276,60325,2,0,P|248:268|284:232,1,80,8|4,0:2|0:2,0:0:0:0:
360,196,61704,2,0,P|336:164|296:148,1,80,8|4,0:2|0:2,0:0:0:0:
212,192,63083,1,8,0:2:0:0:
136,252,63773,6,0,P|116:180|168:104,1,160,4|4,0:2|0:2,0:0:0:0:
244,68,65842,1,8,0:2:0:0:
336,96,66532,2,0,P|372:112|402:160,1,80,4|8,0:2|0:2,0:0:0:0:
424,236,67911,1,4,0:2:0:0:
360,308,68601,1,8,0:2:0:0:
264,324,69290,6,0,B|196:300|196:300|196:248|136:228,1,160,4|4,0:2|0:2,0:0:0:0:
52,236,71359,1,8,0:2:0:0:
60,140,72049,2,0,P|88:116|142:104,1,80,4|8,0:2|0:2,0:0:0:0:
224,96,73428,1,4,0:2:0:0:
224,96,74808,6,0,L|224:264,1,160,4|4,0:2|0:2,0:0:0:0:
248,348,76877,2,0,P|292:320|316:264,1,80,8|4,0:2|0:2,0:0:0:0:
336,208,78256,2,0,P|380:236|404:292,1,80,8|4,0:2|0:2,0:0:0:0:
340,64,80325,5,2,0:2:0:0:
148,64,81704,1,2,0:2:0:0:
256,220,83083,2,0,B|272:160|252:152|264:112,1,80,6|2,0:2|0:2,0:0:0:0:
284,48,84463,2,0,P|320:68|352:124,1,80,2|2,0:2|0:2,0:0:0:0:
368,192,85842,5,6,0:0:0:0:
256,348,87221,1,2,0:0:0:0:
108,228,88601,2,0,L|200:228,1,80,2|2,0:0|0:2,0:0:0:0:
284,228,89980,1,2,0:0:0:0:
400,76,91359,6,0,B|324:64|324:112|224:64,1,160,4|4,0:2|0:2,0:0:0:0:
148,88,93428,1,8,0:2:0:0:
52,88,94118,2,0,P|60:128|92:164,1,80,4|8,0:2|0:2,0:0:0:0:
140,236,95497,1,4,0:2:0:0:
224,188,96187,1,8,0:2:0:0:
293,120,96877,6,0,B|352:152|352:152|352:212|388:232,1,160,4|4,0:2|0:2,0:0:0:0:
452,308,98946,2,0,P|380:332|308:288,1,160,8|8,0:2|0:2,0:0:0:0:
240,228,101015,1,4,0:2:0:0:
100,104,102394,6,0,B|176:80|176:80|272:112,1,160,4|4,0:2|0:2,0:0:0:0:
316,176,104463,1,8,0:2:0:0:
392,232,105152,2,0,P|356:264|304:268,1,80,4|8,0:2|0:2,0:0:0:0:
232,280,106532,1,4,0:2:0:0:
156,220,107221,1,8,0:2:0:0:
68,256,107911,6,0,P|72:176|144:124,1,160,4|4,0:2|0:2,0:0:0:0:
160,220,109980,2,0,B|220:228|240:248|240:248|328:212,1,160,8|8,0:2|0:2,0:0:0:0:
384,160,112049,1,4,0:2:0:0:
176,128,135497,6,0,L|268:128,1,80,2|2,0:0|0:0,0:0:0:0:
352,128,136877,2,0,P|384:156|392:204,1,80,2|2,0:0|0:0,0:0:0:0:
388,288,138256,1,2,0:0:0:0:
296,260,138946,2,0,L|203:259,1,80,2|2,0:0|0:0,0:0:0:0:
132,212,140325,1,2,0:0:0:0:
64,144,141015,6,0,P|135:113|208:152,1,160,2|2,0:0|0:0,0:0:0:0:
272,216,143084,1,2,0:0:0:0:
332,140,143773,2,0,P|372:128|420:136,1,80,2|2,0:0|0:0,0:0:0:0:
460,216,145152,2,0,P|420:228|372:220,1,80,2|2,0:0|0:0,0:0:0:0:
288,248,146532,5,2,0:0:0:0:
224,180,147221,2,0,P|193:154|156:139,1,80,2|2,0:0|0:0,0:0:0:0:
68,180,148601,1,2,0:0:0:0:
108,268,149290,2,0,B|148:248|148:304|204:248,1,80,2|2,0:0|0:0,0:0:0:0:
268,216,150670,2,0,P|302:196|331:168,1,80,2|2,0:0|0:0,0:0:0:0:
400,100,152049,5,2,0:0:0:0:
256,228,153428,1,2,0:0:0:0:
112,100,154808,2,0,L|112:180,1,80,2|2,0:0|0:0,0:0:0:0:
76,268,156187,2,0,P|112:280|160:264,1,80,2|2,0:0|0:0,0:0:0:0:
228,212,157566,6,0,P|300:228|252:284,1,160,4|4,0:2|0:2,0:0:0:0:
172,288,159635,1,8,0:0:0:0:
100,224,160325,1,4,0:2:0:0:
132,132,161015,2,0,P|172:120|220:132,2,80,8|4|8,0:0|0:2|0:2,0:0:0:0:
100,224,163084,6,0,P|172:256|260:208,1,160,4|4,0:2|0:2,0:0:0:0:
292,144,165152,2,0,P|336:184|344:220,1,80,8|4,0:0|0:2,0:0:0:0:
332,296,166532,2,0,P|404:280|432:196,1,160,8|8,0:0|0:0,0:0:0:0:
433,109,168601,6,0,P|392:52|349:117,1,160,6|6,0:2|0:2,0:0:0:0:
312,196,170670,1,8,0:0:0:0:
228,244,171359,2,0,B|172:200|172:200|116:236|84:192,1,160,6|6,0:2|0:2,0:0:0:0:
56,112,173428,1,2,0:0:0:0:
148,88,174118,6,0,B|228:84|228:84|320:132,1,160,6|6,0:2|0:2,0:0:0:0:
396,132,176187,2,0,P|384:180|340:208,1,80,8|6,0:0|0:2,0:0:0:0:
268,224,177566,2,0,P|241:252|232:296,1,80,8|6,0:0|0:2,0:0:0:0:
328,292,178946,1,2,0:0:0:0:
424,300,179635,6,0,P|420:260|392:220,1,80,6|10,0:2|0:0,0:0:0:0:
340,152,181015,1,6,0:0:0:0:
248,128,181704,1,10,0:0:0:0:
160,164,182394,2,0,L|88:216,1,80,6|10,0:2|0:0,0:0:0:0:
76,304,183773,1,6,0:2:0:0:
268,284,185152,6,0,P|274:236|268:196,1,80,6|10,0:2|0:0,0:0:0:0:
232,116,186532,1,6,0:2:0:0:
140,84,187221,1,10,0:0:0:0:
64,144,187911,2,0,P|52:192|68:248,1,80,6|10,0:2|0:0,0:0:0:0:
148,192,189290,2,0,L|260:192,1,80,6|2,0:2|0:0,0:0:0:0:
324,188,190670,6,0,P|376:148|308:112,1,160,6|6,0:2|0:0,0:0:0:0:
228,140,192739,1,10,0:0:0:0:
136,120,193428,2,0,P|154:80|202:56,1,80,6|2,0:2|0:0,0:0:0:0:
280,60,194808,2,0,P|311:82|327:119,1,80,6|10,0:2|0:0,0:0:0:0:
408,176,196187,6,0,P|383:206|346:219,1,80,6|10,0:2|0:0,0:0:0:0:
256,188,197566,1,6,0:2:0:0:
192,260,198256,1,10,0:0:0:0:
100,236,198946,2,0,P|120:200|172:168,1,80,6|10,0:2|0:0,0:0:0:0:
236,132,200325,2,0,P|252:88|240:48,1,80,6|10,0:2|0:0,0:0:0:0:
156,92,201704,5,2,0:1:0:0:
256,260,203084,1,2,0:1:0:0:
364,100,204463,1,2,0:1:0:0:
256,260,205842,1,2,0:1:0:0:
148,100,207221,1,6,0:2:0:0:
